osu file format v14

[General]
AudioFilename: audio.mp3
AudioLeadIn: 0
PreviewTime: 110508
Countdown: 1
SampleSet: Soft
StackLeniency: 0.7
Mode: 1
LetterboxInBreaks: 0
WidescreenStoryboard: 1

[Editor]
DistanceSpacing: 1.6
BeatDivisor: 4
GridSize: 16
TimelineZoom: 1

[Metadata]
Title:Moonlight Feast
TitleUnicode:Moonlight Feast
Artist:nekodex
ArtistUnicode:nekodex
Creator:Jorkseljund
Version:Muzukashii
Source:
Tags:Touhou Drum and Bass DnB
BeatmapID:1707963
BeatmapSetID:814385

[Difficulty]
HPDrainRate:5
CircleSize:4.5
OverallDifficulty:5
ApproachRate:5
SliderMultiplier:1.6
SliderTickRate:2

[Events]
//Background and Video events
0,0,"314184.jpg",0,0
//Break Periods
//Storyboard Layer 0 (Background)
//Storyboard Layer 1 (Fail)
//Storyboard Layer 2 (Pass)
//Storyboard Layer 3 (Foreground)
//Storyboard Sound Samples

[TimingPoints]
164,344.827586206897,4,2,0,100,1,0
110508,-100,4,2,0,100,0,1
132577,-100,4,2,0,100,0,0
176801,-200,4,2,0,40,0,0
198353,-100,4,2,0,80,0,0
198784,-100,4,2,0,100,0,1
220853,-100,4,2,0,100,0,0

[HitObjects]
229,167,164,5,4,0:0:0:0:
64,172,508,1,8,0:0:0:0:
448,187,1026,1,0,0:0:0:0:
320,182,1198,1,8,0:0:0:0:
63,189,1543,1,0,0:0:0:0:
63,189,1888,1,8,0:0:0:0:
63,189,2061,1,0,0:0:0:0:
63,189,2233,1,0,0:0:0:0:
63,189,2405,1,0,0:0:0:0:
63,189,2578,1,8,0:0:0:0:
229,167,2922,1,0,0:0:0:0:
64,172,3266,1,8,0:0:0:0:
448,187,3784,1,0,0:0:0:0:
320,182,3956,1,8,0:0:0:0:
63,189,4301,1,0,0:0:0:0:
63,189,4646,1,8,0:0:0:0:
63,189,4819,1,0,0:0:0:0:
63,189,4991,1,0,0:0:0:0:
3,211,5077,1,0,0:0:0:0:
63,189,5163,1,0,0:0:0:0:
63,189,5336,1,8,0:0:0:0:
178,242,5508,1,0,0:0:0:0:
229,167,5681,1,0,0:0:0:0:
64,172,6025,1,8,0:0:0:0:
448,187,6543,1,0,0:0:0:0:
320,182,6715,1,8,0:0:0:0:
63,189,7060,1,0,0:0:0:0:
63,189,7405,1,8,0:0:0:0:
63,189,7578,1,0,0:0:0:0:
63,189,7750,1,0,0:0:0:0:
63,189,7922,1,0,0:0:0:0:
63,189,8095,1,8,0:0:0:0:
229,167,8439,1,0,0:0:0:0:
64,172,8783,1,8,0:0:0:0:
448,187,9301,1,0,0:0:0:0:
320,182,9473,1,8,0:0:0:0:
63,189,9818,1,0,0:0:0:0:
63,189,10163,1,8,0:0:0:0:
63,189,10336,1,0,0:0:0:0:
63,189,10508,1,0,0:0:0:0:
98,134,10595,1,0,0:0:0:0:
63,189,10680,1,0,0:0:0:0:
63,189,10853,1,8,0:0:0:0:
187,221,11026,1,0,0:0:0:0:
229,167,11198,1,4,0:0:0:0:
64,172,11542,1,8,0:0:0:0:
448,187,12060,1,0,0:0:0:0:
320,182,12232,1,8,0:0:0:0:
63,189,12577,1,0,0:0:0:0:
63,189,12922,1,8,0:0:0:0:
63,189,13095,1,0,0:0:0:0:
63,189,13267,1,0,0:0:0:0:
63,189,13439,1,0,0:0:0:0:
63,189,13612,1,8,0:0:0:0:
229,167,13956,1,0,0:0:0:0:
64,172,14300,1,8,0:0:0:0:
448,187,14818,1,0,0:0:0:0:
320,182,14990,1,8,0:0:0:0:
63,189,15335,1,0,0:0:0:0:
63,189,15680,1,8,0:0:0:0:
63,189,15853,1,0,0:0:0:0:
63,189,16025,1,0,0:0:0:0:
105,140,16112,1,0,0:0:0:0:
63,189,16197,1,0,0:0:0:0:
63,189,16370,1,8,0:0:0:0:
147,92,16543,1,0,0:0:0:0:
229,167,16715,1,0,0:0:0:0:
64,172,17059,1,8,0:0:0:0:
448,187,17577,1,0,0:0:0:0:
320,182,17749,1,8,0:0:0:0:
63,189,18094,1,0,0:0:0:0:
63,189,18439,1,8,0:0:0:0:
63,189,18612,1,0,0:0:0:0:
63,189,18784,1,0,0:0:0:0:
63,189,18956,1,0,0:0:0:0:
63,189,19129,1,8,0:0:0:0:
229,167,19473,1,0,0:0:0:0:
64,172,19817,1,8,0:0:0:0:
448,187,20335,1,0,0:0:0:0:
320,182,20507,1,8,0:0:0:0:
63,189,20852,1,0,0:0:0:0:
63,189,21197,1,8,0:0:0:0:
63,189,21370,1,0,0:0:0:0:
63,189,21542,1,0,0:0:0:0:
114,149,21629,1,0,0:0:0:0:
63,189,21714,1,0,0:0:0:0:
63,189,21887,1,8,0:0:0:0:
184,146,22060,1,0,0:0:0:0:
229,167,22232,1,4,0:0:0:0:
64,172,22576,1,8,0:0:0:0:
448,187,23094,1,0,0:0:0:0:
320,182,23266,1,8,0:0:0:0:
63,189,23611,1,0,0:0:0:0:
63,189,23956,1,8,0:0:0:0:
63,189,24129,1,0,0:0:0:0:
63,189,24301,1,0,0:0:0:0:
63,189,24473,1,0,0:0:0:0:
63,189,24646,1,8,0:0:0:0:
229,167,24990,1,0,0:0:0:0:
64,172,25334,1,8,0:0:0:0:
448,187,25852,1,0,0:0:0:0:
320,182,26024,1,8,0:0:0:0:
63,189,26369,1,0,0:0:0:0:
63,189,26714,1,8,0:0:0:0:
63,189,26887,1,0,0:0:0:0:
63,189,27059,1,0,0:0:0:0:
3,211,27145,1,0,0:0:0:0:
63,189,27231,1,0,0:0:0:0:
63,189,27404,1,8,0:0:0:0:
178,242,27576,1,0,0:0:0:0:
229,167,27749,1,0,0:0:0:0:
64,172,28093,1,8,0:0:0:0:
448,187,28611,1,0,0:0:0:0:
320,182,28783,1,8,0:0:0:0:
63,189,29128,1,0,0:0:0:0:
63,189,29473,1,8,0:0:0:0:
63,189,29646,1,0,0:0:0:0:
63,189,29818,1,0,0:0:0:0:
63,189,29990,1,0,0:0:0:0:
63,189,30163,1,8,0:0:0:0:
229,167,30507,1,0,0:0:0:0:
64,172,30851,1,8,0:0:0:0:
448,187,31369,1,0,0:0:0:0:
320,182,31541,1,8,0:0:0:0:
63,189,31886,1,0,0:0:0:0:
63,189,32231,1,8,0:0:0:0:
63,189,32404,1,0,0:0:0:0:
63,189,32576,1,0,0:0:0:0:
98,134,32663,1,0,0:0:0:0:
63,189,32748,1,0,0:0:0:0:
63,189,32921,1,8,0:0:0:0:
187,221,33094,1,0,0:0:0:0:
229,167,33266,1,4,0:0:0:0:
64,172,33610,1,8,0:0:0:0:
448,187,34128,1,0,0:0:0:0:
320,182,34300,1,8,0:0:0:0:
63,189,34645,1,0,0:0:0:0:
63,189,34990,1,8,0:0:0:0:
63,189,35163,1,0,0:0:0:0:
63,189,35335,1,0,0:0:0:0:
63,189,35507,1,0,0:0:0:0:
63,189,35680,1,8,0:0:0:0:
229,167,36024,1,0,0:0:0:0:
64,172,36368,1,8,0:0:0:0:
448,187,36886,1,0,0:0:0:0:
320,182,37058,1,8,0:0:0:0:
63,189,37403,1,0,0:0:0:0:
63,189,37748,1,8,0:0:0:0:
63,189,37921,1,0,0:0:0:0:
63,189,38093,1,0,0:0:0:0:
105,140,38180,1,0,0:0:0:0:
63,189,38265,1,0,0:0:0:0:
63,189,38438,1,8,0:0:0:0:
147,92,38611,1,0,0:0:0:0:
229,167,38783,1,0,0:0:0:0:
64,172,39127,1,8,0:0:0:0:
448,187,39645,1,0,0:0:0:0:
320,182,39817,1,8,0:0:0:0:
63,189,40162,1,0,0:0:0:0:
63,189,40507,1,8,0:0:0:0:
63,189,40680,1,0,0:0:0:0:
63,189,40852,1,0,0:0:0:0:
63,189,41024,1,0,0:0:0:0:
63,189,41197,1,8,0:0:0:0:
229,167,41541,1,0,0:0:0:0:
64,172,41885,1,8,0:0:0:0:
448,187,42403,1,0,0:0:0:0:
320,182,42575,1,8,0:0:0:0:
63,189,42920,1,0,0:0:0:0:
63,189,43265,1,8,0:0:0:0:
63,189,43438,1,0,0:0:0:0:
63,189,43610,1,0,0:0:0:0:
114,149,43697,1,0,0:0:0:0:
63,189,43782,1,0,0:0:0:0:
63,189,43955,1,8,0:0:0:0:
184,146,44128,1,0,0:0:0:0:
229,167,44301,1,4,0:0:0:0:
64,172,44645,1,8,0:0:0:0:
448,187,45163,1,0,0:0:0:0:
320,182,45335,1,8,0:0:0:0:
63,189,45680,1,0,0:0:0:0:
63,189,46025,1,8,0:0:0:0:
63,189,46198,1,0,0:0:0:0:
63,189,46370,1,0,0:0:0:0:
63,189,46542,1,0,0:0:0:0:
63,189,46715,1,8,0:0:0:0:
229,167,47059,1,0,0:0:0:0:
64,172,47403,1,8,0:0:0:0:
448,187,47921,1,0,0:0:0:0:
320,182,48093,1,8,0:0:0:0:
63,189,48438,1,0,0:0:0:0:
63,189,48783,1,8,0:0:0:0:
63,189,48956,1,0,0:0:0:0:
63,189,49128,1,0,0:0:0:0:
3,211,49214,1,0,0:0:0:0:
63,189,49300,1,0,0:0:0:0:
63,189,49473,1,8,0:0:0:0:
178,242,49645,1,0,0:0:0:0:
229,167,49818,1,0,0:0:0:0:
64,172,50162,1,8,0:0:0:0:
448,187,50680,1,0,0:0:0:0:
320,182,50852,1,8,0:0:0:0:
63,189,51197,1,0,0:0:0:0:
63,189,51542,1,8,0:0:0:0:
63,189,51715,1,0,0:0:0:0:
63,189,51887,1,0,0:0:0:0:
63,189,52059,1,0,0:0:0:0:
63,189,52232,1,8,0:0:0:0:
229,167,52576,1,0,0:0:0:0:
64,172,52920,1,8,0:0:0:0:
448,187,53438,1,0,0:0:0:0:
320,182,53610,1,8,0:0:0:0:
63,189,53955,1,0,0:0:0:0:
63,189,54300,1,8,0:0:0:0:
63,189,54473,1,0,0:0:0:0:
63,189,54645,1,0,0:0:0:0:
98,134,54732,1,0,0:0:0:0:
63,189,54817,1,0,0:0:0:0:
63,189,54990,1,8,0:0:0:0:
187,221,55163,1,0,0:0:0:0:
229,167,55335,1,4,0:0:0:0:
64,172,55679,1,8,0:0:0:0:
448,187,56197,1,0,0:0:0:0:
320,182,56369,1,8,0:0:0:0:
63,189,56714,1,0,0:0:0:0:
63,189,57059,1,8,0:0:0:0:
63,189,57232,1,0,0:0:0:0:
63,189,57404,1,0,0:0:0:0:
63,189,57576,1,0,0:0:0:0:
63,189,57749,1,8,0:0:0:0:
229,167,58093,1,0,0:0:0:0:
64,172,58437,1,8,0:0:0:0:
448,187,58955,1,0,0:0:0:0:
320,182,59127,1,8,0:0:0:0:
63,189,59472,1,0,0:0:0:0:
63,189,59817,1,8,0:0:0:0:
63,189,59990,1,0,0:0:0:0:
63,189,60162,1,0,0:0:0:0:
105,140,60249,1,0,0:0:0:0:
63,189,60334,1,0,0:0:0:0:
63,189,60507,1,8,0:0:0:0:
147,92,60680,1,0,0:0:0:0:
229,167,60852,1,0,0:0:0:0:
64,172,61196,1,8,0:0:0:0:
448,187,61714,1,0,0:0:0:0:
320,182,61886,1,8,0:0:0:0:
63,189,62231,1,0,0:0:0:0:
63,189,62576,1,8,0:0:0:0:
63,189,62749,1,0,0:0:0:0:
63,189,62921,1,0,0:0:0:0:
63,189,63093,1,0,0:0:0:0:
63,189,63266,1,8,0:0:0:0:
229,167,63610,1,0,0:0:0:0:
64,172,63954,1,8,0:0:0:0:
448,187,64472,1,0,0:0:0:0:
320,182,64644,1,8,0:0:0:0:
63,189,64989,1,0,0:0:0:0:
63,189,65334,1,8,0:0:0:0:
63,189,65507,1,0,0:0:0:0:
63,189,65679,1,0,0:0:0:0:
114,149,65766,1,0,0:0:0:0:
63,189,65851,1,0,0:0:0:0:
63,189,66024,1,8,0:0:0:0:
120,157,66112,1,8,0:0:0:0:
184,146,66197,1,8,0:0:0:0:
291,76,66370,1,6,0:0:0:0:
373,318,66888,1,8,0:0:0:0:
331,196,67061,1,0,0:0:0:0:
209,159,67232,1,8,0:0:0:0:
147,140,67319,1,8,0:0:0:0:
85,121,67405,1,8,0:0:0:0:
9,223,67577,1,0,0:0:0:0:
9,223,67750,1,0,0:0:0:0:
172,198,68784,1,0,0:0:0:0:
172,198,68957,1,0,0:0:0:0:
172,198,69129,1,8,0:0:0:0:
136,144,69646,1,8,0:0:0:0:
136,144,69819,1,0,0:0:0:0:
260,115,69991,1,0,0:0:0:0:
322,101,70077,1,0,0:0:0:0:
322,101,70164,1,0,0:0:0:0:
322,101,70336,1,0,0:0:0:0:
322,101,70508,1,8,0:0:0:0:
190,153,71543,1,8,0:0:0:0:
74,208,71715,1,0,0:0:0:0:
190,153,71888,1,8,0:0:0:0:
276,126,72405,1,8,0:0:0:0:
276,126,72577,1,0,0:0:0:0:
276,126,72750,1,0,0:0:0:0:
276,126,72836,1,0,0:0:0:0:
276,126,72922,1,0,0:0:0:0:
152,159,73095,1,0,0:0:0:0:
29,196,73267,1,8,0:0:0:0:
276,126,73784,1,0,0:0:0:0:
276,126,73870,1,0,0:0:0:0:
276,126,73957,1,0,0:0:0:0:
276,126,74474,1,0,0:0:0:0:
276,126,74560,1,0,0:0:0:0:
276,126,74646,1,0,0:0:0:0:
276,126,75164,1,8,0:0:0:0:
276,126,75336,1,0,0:0:0:0:
149,142,75508,1,8,0:0:0:0:
84,150,75595,1,8,0:0:0:0:
20,158,75681,1,8,0:0:0:0:
143,190,75853,1,0,0:0:0:0:
267,222,76026,1,8,0:0:0:0:
96,192,77060,1,0,0:0:0:0:
198,268,77232,1,0,0:0:0:0:
291,76,77405,1,6,0:0:0:0:
373,318,77923,1,8,0:0:0:0:
331,196,78096,1,0,0:0:0:0:
209,159,78267,1,8,0:0:0:0:
147,140,78354,1,8,0:0:0:0:
85,121,78440,1,8,0:0:0:0:
9,223,78612,1,0,0:0:0:0:
9,223,78785,1,12,0:0:0:0:
172,198,79819,1,0,0:0:0:0:
172,198,79992,1,0,0:0:0:0:
172,198,80164,1,12,0:0:0:0:
136,144,80681,1,8,0:0:0:0:
136,144,80854,1,0,0:0:0:0:
260,115,81026,1,0,0:0:0:0:
322,101,81112,1,0,0:0:0:0:
322,101,81199,1,0,0:0:0:0:
322,101,81371,1,0,0:0:0:0:
322,101,81543,1,12,0:0:0:0:
190,153,82578,1,8,0:0:0:0:
74,208,82750,1,0,0:0:0:0:
190,153,82923,1,12,0:0:0:0:
276,126,83440,1,8,0:0:0:0:
276,126,83612,1,12,0:0:0:0:
276,126,83785,1,0,0:0:0:0:
276,126,83871,1,0,0:0:0:0:
276,126,83957,1,0,0:0:0:0:
152,159,84130,1,0,0:0:0:0:
29,196,84302,1,12,0:0:0:0:
276,126,84819,1,0,0:0:0:0:
276,126,84992,1,12,0:0:0:0:
276,126,85509,1,0,0:0:0:0:
276,126,85681,1,12,0:0:0:0:
19,124,86026,1,12,0:0:0:0:
274,129,86370,1,12,0:0:0:0:
17,123,86715,1,12,0:0:0:0:
58,252,87060,1,8,0:0:0:0:
22,297,87232,1,8,0:0:0:0:
22,297,87405,1,0,0:0:0:0:
22,297,87577,1,0,0:0:0:0:
22,297,87750,1,0,0:0:0:0:
22,297,87836,1,0,0:0:0:0:
22,297,87922,1,0,0:0:0:0:
114,207,88095,1,0,0:0:0:0:
208,120,88267,1,0,0:0:0:0:
119,27,88439,1,6,0:0:0:0:
306,71,88784,1,8,0:0:0:0:
194,135,88957,1,0,0:0:0:0:
85,201,89129,1,0,0:0:0:0:
194,135,89301,1,0,0:0:0:0:
99,75,89474,1,8,0:0:0:0:
355,79,89819,1,0,0:0:0:0:
147,229,90164,1,8,0:0:0:0:
248,151,90336,1,0,0:0:0:0:
350,75,90508,1,0,0:0:0:0:
298,113,90595,1,0,0:0:0:0:
298,113,90681,1,0,0:0:0:0:
170,123,90853,1,8,0:0:0:0:
125,231,91198,1,0,0:0:0:0:
306,71,91543,1,8,0:0:0:0:
194,135,91716,1,0,0:0:0:0:
85,201,91888,1,0,0:0:0:0:
194,135,92060,1,0,0:0:0:0:
99,75,92233,1,8,0:0:0:0:
355,79,92578,1,0,0:0:0:0:
147,229,92923,1,8,0:0:0:0:
248,151,93095,1,0,0:0:0:0:
350,75,93267,1,0,0:0:0:0:
298,113,93354,1,0,0:0:0:0:
298,113,93440,1,0,0:0:0:0:
170,123,93612,1,8,0:0:0:0:
42,135,93785,1,0,0:0:0:0:
119,27,93957,1,0,0:0:0:0:
306,71,94302,1,8,0:0:0:0:
194,135,94475,1,0,0:0:0:0:
85,201,94647,1,0,0:0:0:0:
194,135,94819,1,0,0:0:0:0:
99,75,94992,1,8,0:0:0:0:
355,79,95337,1,0,0:0:0:0:
147,229,95682,1,8,0:0:0:0:
248,151,95854,1,0,0:0:0:0:
350,75,96026,1,0,0:0:0:0:
298,113,96113,1,0,0:0:0:0:
298,113,96199,1,0,0:0:0:0:
170,123,96371,1,8,0:0:0:0:
125,231,96716,1,0,0:0:0:0:
306,71,97061,1,8,0:0:0:0:
194,135,97234,1,0,0:0:0:0:
85,201,97406,1,0,0:0:0:0:
194,135,97578,1,0,0:0:0:0:
99,75,97751,1,8,0:0:0:0:
355,79,98096,1,0,0:0:0:0:
147,229,98441,1,8,0:0:0:0:
248,151,98613,1,0,0:0:0:0:
350,75,98785,1,0,0:0:0:0:
298,113,98872,1,0,0:0:0:0:
298,113,98958,1,0,0:0:0:0:
170,123,99130,1,8,0:0:0:0:
42,135,99303,1,8,0:0:0:0:
119,27,99474,1,6,0:0:0:0:
306,71,99819,1,8,0:0:0:0:
194,135,99992,1,0,0:0:0:0:
85,201,100164,1,0,0:0:0:0:
194,135,100336,1,0,0:0:0:0:
99,75,100509,1,8,0:0:0:0:
355,79,100854,1,0,0:0:0:0:
147,229,101199,1,8,0:0:0:0:
248,151,101371,1,0,0:0:0:0:
350,75,101543,1,0,0:0:0:0:
298,113,101630,1,0,0:0:0:0:
298,113,101716,1,0,0:0:0:0:
170,123,101888,1,8,0:0:0:0:
125,231,102233,1,0,0:0:0:0:
306,71,102578,1,8,0:0:0:0:
194,135,102751,1,0,0:0:0:0:
85,201,102923,1,0,0:0:0:0:
194,135,103095,1,0,0:0:0:0:
99,75,103268,1,8,0:0:0:0:
355,79,103613,1,0,0:0:0:0:
147,229,103958,1,8,0:0:0:0:
248,151,104130,1,0,0:0:0:0:
350,75,104302,1,0,0:0:0:0:
298,113,104389,1,0,0:0:0:0:
298,113,104475,1,0,0:0:0:0:
170,123,104647,1,8,0:0:0:0:
119,27,104991,1,0,0:0:0:0:
306,71,105336,1,8,0:0:0:0:
194,135,105509,1,0,0:0:0:0:
85,201,105681,1,0,0:0:0:0:
194,135,105853,1,0,0:0:0:0:
99,75,106026,1,8,0:0:0:0:
355,79,106371,1,0,0:0:0:0:
147,229,106716,1,8,0:0:0:0:
248,151,106888,1,0,0:0:0:0:
350,75,107060,1,0,0:0:0:0:
298,113,107147,1,0,0:0:0:0:
298,113,107233,1,0,0:0:0:0:
170,123,107405,1,8,0:0:0:0:
125,231,107750,1,0,0:0:0:0:
306,71,108095,1,8,0:0:0:0:
194,135,108268,1,0,0:0:0:0:
85,201,108440,1,0,0:0:0:0:
194,135,108612,1,0,0:0:0:0:
99,75,108785,1,8,0:0:0:0:
355,79,109130,1,0,0:0:0:0:
147,229,109475,1,8,0:0:0:0:
248,151,109647,1,0,0:0:0:0:
350,75,109819,1,0,0:0:0:0:
298,113,109906,1,0,0:0:0:0:
298,113,109992,1,0,0:0:0:0:
170,123,110164,1,8,0:0:0:0:
42,135,110337,1,8,0:0:0:0:
155,78,110508,1,6,0:0:0:0:
192,331,111026,1,0,0:0:0:0:
174,203,111199,1,8,0:0:0:0:
280,133,111370,1,8,0:0:0:0:
280,133,111457,1,8,0:0:0:0:
280,133,111543,1,8,0:0:0:0:
280,133,111715,1,0,0:0:0:0:
280,133,111888,1,0,0:0:0:0:
157,168,112060,1,0,0:0:0:0:
157,168,112232,1,8,0:0:0:0:
70,72,112405,1,0,0:0:0:0:
103,126,112491,1,0,0:0:0:0:
103,126,112577,1,0,0:0:0:0:
103,126,112750,1,0,0:0:0:0:
230,113,112922,1,8,0:0:0:0:
103,126,113267,1,0,0:0:0:0:
477,211,113784,1,8,0:0:0:0:
350,182,113957,1,8,0:0:0:0:
414,196,114129,1,0,0:0:0:0:
350,189,114215,1,0,0:0:0:0:
286,182,114301,1,0,0:0:0:0:
158,168,114474,1,0,0:0:0:0:
30,155,114646,1,0,0:0:0:0:
89,268,114819,1,0,0:0:0:0:
106,141,114991,1,8,0:0:0:0:
226,184,115164,1,0,0:0:0:0:
345,228,115336,1,0,0:0:0:0:
224,184,115508,1,0,0:0:0:0:
344,227,115681,1,8,0:0:0:0:
155,78,116026,1,2,0:0:0:0:
192,331,116544,1,0,0:0:0:0:
174,203,116717,1,8,0:0:0:0:
280,133,116888,1,8,0:0:0:0:
280,133,116975,1,8,0:0:0:0:
280,133,117061,1,8,0:0:0:0:
280,133,117233,1,0,0:0:0:0:
280,133,117406,1,8,0:0:0:0:
157,168,117750,1,0,0:0:0:0:
70,72,117923,1,8,0:0:0:0:
103,126,118009,1,8,0:0:0:0:
103,126,118095,1,8,0:0:0:0:
103,126,118268,1,0,0:0:0:0:
230,113,118440,1,8,0:0:0:0:
103,126,118785,1,0,0:0:0:0:
477,211,119302,1,8,0:0:0:0:
350,182,119475,1,8,0:0:0:0:
414,196,119647,1,0,0:0:0:0:
350,189,119733,1,0,0:0:0:0:
286,182,119819,1,0,0:0:0:0:
158,168,119992,1,0,0:0:0:0:
30,155,120164,1,8,0:0:0:0:
106,141,120509,1,0,0:0:0:0:
226,184,120682,1,0,0:0:0:0:
345,228,120854,1,0,0:0:0:0:
300,183,120939,1,0,0:0:0:0:
224,184,121026,1,0,0:0:0:0:
344,227,121199,1,8,0:0:0:0:
300,107,121370,1,0,0:0:0:0:
155,78,121543,1,6,0:0:0:0:
192,331,122061,1,0,0:0:0:0:
174,203,122234,1,8,0:0:0:0:
280,133,122405,1,8,0:0:0:0:
280,133,122492,1,8,0:0:0:0:
280,133,122578,1,8,0:0:0:0:
280,133,122750,1,0,0:0:0:0:
280,133,122923,1,0,0:0:0:0:
157,168,123095,1,0,0:0:0:0:
157,168,123267,1,8,0:0:0:0:
70,72,123440,1,0,0:0:0:0:
103,126,123526,1,0,0:0:0:0:
103,126,123612,1,0,0:0:0:0:
103,126,123785,1,0,0:0:0:0:
230,113,123957,1,8,0:0:0:0:
103,126,124302,1,0,0:0:0:0:
477,211,124819,1,8,0:0:0:0:
350,182,124992,1,8,0:0:0:0:
414,196,125164,1,0,0:0:0:0:
350,189,125250,1,0,0:0:0:0:
286,182,125336,1,0,0:0:0:0:
158,168,125509,1,0,0:0:0:0:
30,155,125681,1,0,0:0:0:0:
89,268,125854,1,0,0:0:0:0:
106,141,126026,1,8,0:0:0:0:
226,184,126199,1,0,0:0:0:0:
345,228,126371,1,0,0:0:0:0:
224,184,126543,1,0,0:0:0:0:
344,227,126716,1,8,0:0:0:0:
155,78,127061,1,2,0:0:0:0:
192,331,127579,1,0,0:0:0:0:
174,203,127752,1,8,0:0:0:0:
280,133,127923,1,8,0:0:0:0:
280,133,128010,1,8,0:0:0:0:
280,133,128096,1,8,0:0:0:0:
280,133,128268,1,0,0:0:0:0:
280,133,128441,1,8,0:0:0:0:
157,168,128785,1,0,0:0:0:0:
70,72,128958,1,8,0:0:0:0:
103,126,129044,1,8,0:0:0:0:
103,126,129130,1,8,0:0:0:0:
103,126,129303,1,0,0:0:0:0:
230,113,129475,1,8,0:0:0:0:
103,126,129820,1,0,0:0:0:0:
477,211,130337,1,8,0:0:0:0:
350,182,130510,1,8,0:0:0:0:
414,196,130682,1,0,0:0:0:0:
350,189,130768,1,0,0:0:0:0:
286,182,130854,1,0,0:0:0:0:
158,168,131027,1,0,0:0:0:0:
30,155,131199,1,8,0:0:0:0:
106,141,131544,1,0,0:0:0:0:
226,184,131717,1,0,0:0:0:0:
345,228,131889,1,0,0:0:0:0:
300,183,131974,1,0,0:0:0:0:
224,184,132061,1,0,0:0:0:0:
344,227,132234,1,8,0:0:0:0:
300,107,132405,1,0,0:0:0:0:
172,118,132577,1,6,0:0:0:0:
260,24,132750,1,8,0:0:0:0:
217,72,132836,1,8,0:0:0:0:
259,24,132922,1,8,0:0:0:0:
263,152,133095,1,8,0:0:0:0:
9,179,133267,1,0,0:0:0:0:
136,166,133440,1,0,0:0:0:0:
72,172,133526,1,0,0:0:0:0:
72,172,133612,1,0,0:0:0:0:
72,172,133785,1,0,0:0:0:0:
196,141,133957,1,0,0:0:0:0:
320,111,134301,1,8,0:0:0:0:
203,164,134474,1,0,0:0:0:0:
313,238,134646,1,0,0:0:0:0:
313,237,134819,1,0,0:0:0:0:
324,110,134991,1,8,0:0:0:0:
324,109,135164,1,8,0:0:0:0:
210,166,135336,1,0,0:0:0:0:
127,176,135681,1,8,0:0:0:0:
127,176,135853,1,0,0:0:0:0:
255,184,136026,1,0,0:0:0:0:
382,193,136198,1,0,0:0:0:0:
318,188,136284,1,0,0:0:0:0:
318,188,136370,1,0,0:0:0:0:
318,188,136543,1,0,0:0:0:0:
318,188,136715,1,8,0:0:0:0:
78,97,137060,1,8,0:0:0:0:
196,143,137232,1,0,0:0:0:0:
76,96,137405,1,0,0:0:0:0:
194,142,137577,1,0,0:0:0:0:
74,95,137750,1,8,0:0:0:0:
329,81,138095,1,0,0:0:0:0:
201,89,138267,1,0,0:0:0:0:
264,85,138353,1,0,0:0:0:0:
264,85,138439,1,0,0:0:0:0:
264,85,138612,1,0,0:0:0:0:
264,85,138784,1,8,0:0:0:0:
264,85,138957,1,8,0:0:0:0:
264,85,139043,1,8,0:0:0:0:
264,85,139129,1,8,0:0:0:0:
264,85,139301,1,8,0:0:0:0:
334,192,139474,1,0,0:0:0:0:
334,192,139646,1,8,0:0:0:0:
334,192,139819,1,8,0:0:0:0:
334,192,139991,1,0,0:0:0:0:
205,189,140164,1,0,0:0:0:0:
77,187,140336,1,0,0:0:0:0:
77,187,140508,1,8,0:0:0:0:
77,187,140681,1,8,0:0:0:0:
200,155,140853,1,8,0:0:0:0:
302,77,141026,1,0,0:0:0:0:
251,116,141112,1,0,0:0:0:0:
251,116,141198,1,0,0:0:0:0:
359,183,141370,1,0,0:0:0:0:
466,252,141543,1,8,0:0:0:0:
358,183,141715,1,8,0:0:0:0:
466,251,141888,1,8,0:0:0:0:
340,229,142060,1,0,0:0:0:0:
214,208,142232,1,8,0:0:0:0:
74,176,142577,1,8,0:0:0:0:
74,176,142750,1,0,0:0:0:0:
74,176,142836,1,0,0:0:0:0:
74,176,142922,1,0,0:0:0:0:
74,176,143095,1,0,0:0:0:0:
74,176,143267,1,8,0:0:0:0:
172,118,143612,1,6,0:0:0:0:
260,24,143785,1,8,0:0:0:0:
217,72,143871,1,8,0:0:0:0:
259,24,143957,1,8,0:0:0:0:
263,152,144130,1,8,0:0:0:0:
9,179,144302,1,0,0:0:0:0:
136,166,144475,1,0,0:0:0:0:
72,172,144561,1,0,0:0:0:0:
72,172,144647,1,0,0:0:0:0:
72,172,144820,1,0,0:0:0:0:
196,141,144992,1,0,0:0:0:0:
320,111,145336,1,8,0:0:0:0:
203,164,145509,1,0,0:0:0:0:
313,238,145681,1,0,0:0:0:0:
313,237,145854,1,0,0:0:0:0:
324,110,146026,1,8,0:0:0:0:
324,109,146199,1,8,0:0:0:0:
210,166,146371,1,0,0:0:0:0:
127,176,146716,1,8,0:0:0:0:
127,176,146888,1,0,0:0:0:0:
255,184,147061,1,0,0:0:0:0:
382,193,147233,1,0,0:0:0:0:
318,188,147319,1,0,0:0:0:0:
318,188,147405,1,0,0:0:0:0:
318,188,147578,1,0,0:0:0:0:
318,188,147750,1,8,0:0:0:0:
78,97,148095,1,8,0:0:0:0:
196,143,148267,1,0,0:0:0:0:
76,96,148440,1,0,0:0:0:0:
194,142,148612,1,0,0:0:0:0:
74,95,148785,1,8,0:0:0:0:
329,81,149130,1,0,0:0:0:0:
201,89,149302,1,0,0:0:0:0:
264,85,149388,1,0,0:0:0:0:
264,85,149474,1,0,0:0:0:0:
264,85,149647,1,0,0:0:0:0:
264,85,149819,1,8,0:0:0:0:
264,85,149992,1,8,0:0:0:0:
264,85,150078,1,8,0:0:0:0:
264,85,150164,1,8,0:0:0:0:
264,85,150336,1,8,0:0:0:0:
334,192,150509,1,0,0:0:0:0:
334,192,150681,1,8,0:0:0:0:
334,192,150854,1,8,0:0:0:0:
334,192,151026,1,0,0:0:0:0:
205,189,151199,1,0,0:0:0:0:
77,187,151371,1,0,0:0:0:0:
77,187,151543,1,8,0:0:0:0:
77,187,151716,1,8,0:0:0:0:
200,155,151888,1,8,0:0:0:0:
302,77,152061,1,0,0:0:0:0:
251,116,152147,1,0,0:0:0:0:
251,116,152233,1,0,0:0:0:0:
359,183,152405,1,0,0:0:0:0:
466,252,152578,1,8,0:0:0:0:
358,183,152750,1,8,0:0:0:0:
466,251,152923,1,8,0:0:0:0:
340,229,153095,1,0,0:0:0:0:
214,208,153267,1,8,0:0:0:0:
74,176,153612,1,8,0:0:0:0:
74,176,153785,1,0,0:0:0:0:
74,176,153871,1,0,0:0:0:0:
74,176,153957,1,0,0:0:0:0:
74,176,154130,1,0,0:0:0:0:
74,176,154302,1,8,0:0:0:0:
324,128,154646,1,6,0:0:0:0:
201,166,154819,1,8,0:0:0:0:
140,185,154905,1,8,0:0:0:0:
79,204,154991,1,8,0:0:0:0:
202,167,155164,1,0,0:0:0:0:
79,203,155336,1,8,0:0:0:0:
202,172,155508,1,8,0:0:0:0:
139,187,155595,1,8,0:0:0:0:
77,203,155681,1,8,0:0:0:0:
201,174,155853,1,0,0:0:0:0:
289,81,156026,1,0,0:0:0:0:
289,81,156198,1,8,0:0:0:0:
289,81,156370,1,0,0:0:0:0:
289,81,156543,1,8,0:0:0:0:
177,142,156715,1,0,0:0:0:0:
65,205,156888,1,0,0:0:0:0:
176,142,157060,1,8,0:0:0:0:
65,206,157232,1,8,0:0:0:0:
187,168,157405,1,8,0:0:0:0:
309,131,157577,1,8,0:0:0:0:
371,113,157664,1,8,0:0:0:0:
371,113,157750,1,8,0:0:0:0:
281,203,157922,1,0,0:0:0:0:
184,118,158095,1,8,0:0:0:0:
87,34,158267,1,8,0:0:0:0:
98,161,158439,1,0,0:0:0:0:
109,288,158612,1,0,0:0:0:0:
98,160,158784,1,8,0:0:0:0:
134,102,159129,1,8,0:0:0:0:
260,115,159301,1,0,0:0:0:0:
195,108,159388,1,0,0:0:0:0:
131,102,159474,1,0,0:0:0:0:
258,114,159646,1,0,0:0:0:0:
130,102,159819,1,8,0:0:0:0:
384,77,160164,1,8,0:0:0:0:
497,135,160336,1,8,0:0:0:0:
440,105,160422,1,8,0:0:0:0:
382,77,160508,1,8,0:0:0:0:
497,132,160681,1,0,0:0:0:0:
381,77,160853,1,8,0:0:0:0:
497,131,161026,1,8,0:0:0:0:
439,104,161112,1,8,0:0:0:0:
381,77,161198,1,8,0:0:0:0:
495,134,161370,1,0,0:0:0:0:
366,143,161543,1,0,0:0:0:0:
110,163,161888,1,8,0:0:0:0:
237,152,162060,1,0,0:0:0:0:
109,152,162232,1,0,0:0:0:0:
7,153,162405,1,0,0:0:0:0:
7,153,162577,1,8,0:0:0:0:
7,153,162750,1,0,0:0:0:0:
7,153,162922,1,8,0:0:0:0:
134,134,163095,1,8,0:0:0:0:
197,124,163181,1,8,0:0:0:0:
260,116,163267,1,8,0:0:0:0:
385,139,163439,1,0,0:0:0:0:
258,117,163612,1,8,0:0:0:0:
383,139,163784,1,8,0:0:0:0:
256,116,163957,1,8,0:0:0:0:
381,138,164129,1,0,0:0:0:0:
254,118,164301,1,8,0:0:0:0:
57,131,164646,1,8,0:0:0:0:
57,131,164819,1,0,0:0:0:0:
57,131,164905,1,0,0:0:0:0:
57,131,164991,1,0,0:0:0:0:
57,131,165164,1,0,0:0:0:0:
57,131,165336,1,8,0:0:0:0:
324,128,165681,1,6,0:0:0:0:
201,166,165854,1,8,0:0:0:0:
140,185,165940,1,8,0:0:0:0:
79,204,166026,1,8,0:0:0:0:
202,167,166199,1,0,0:0:0:0:
79,203,166371,1,8,0:0:0:0:
202,172,166543,1,8,0:0:0:0:
139,187,166630,1,8,0:0:0:0:
77,203,166716,1,8,0:0:0:0:
201,174,166888,1,0,0:0:0:0:
289,81,167061,1,0,0:0:0:0:
289,81,167233,1,8,0:0:0:0:
289,81,167405,1,0,0:0:0:0:
289,81,167578,1,8,0:0:0:0:
177,142,167750,1,0,0:0:0:0:
65,205,167923,1,0,0:0:0:0:
176,142,168095,1,8,0:0:0:0:
65,206,168267,1,8,0:0:0:0:
187,168,168440,1,8,0:0:0:0:
309,131,168612,1,8,0:0:0:0:
371,113,168699,1,8,0:0:0:0:
371,113,168785,1,8,0:0:0:0:
281,203,168957,1,0,0:0:0:0:
184,118,169130,1,8,0:0:0:0:
87,34,169302,1,8,0:0:0:0:
98,161,169474,1,0,0:0:0:0:
109,288,169647,1,0,0:0:0:0:
98,160,169819,1,8,0:0:0:0:
134,102,170164,1,8,0:0:0:0:
260,115,170336,1,0,0:0:0:0:
195,108,170423,1,0,0:0:0:0:
131,102,170509,1,0,0:0:0:0:
258,114,170681,1,0,0:0:0:0:
130,102,170854,1,8,0:0:0:0:
384,77,171199,1,8,0:0:0:0:
497,135,171371,1,8,0:0:0:0:
440,105,171457,1,8,0:0:0:0:
382,77,171543,1,8,0:0:0:0:
497,132,171716,1,0,0:0:0:0:
381,77,171888,1,8,0:0:0:0:
497,131,172061,1,8,0:0:0:0:
439,104,172147,1,8,0:0:0:0:
381,77,172233,1,8,0:0:0:0:
495,134,172405,1,0,0:0:0:0:
366,143,172578,1,0,0:0:0:0:
110,163,172923,1,8,0:0:0:0:
237,152,173095,1,0,0:0:0:0:
109,152,173267,1,0,0:0:0:0:
7,153,173440,1,0,0:0:0:0:
7,153,173612,1,8,0:0:0:0:
7,153,173785,1,0,0:0:0:0:
7,153,173957,1,8,0:0:0:0:
134,134,174130,1,8,0:0:0:0:
197,124,174216,1,8,0:0:0:0:
260,116,174302,1,8,0:0:0:0:
385,139,174474,1,0,0:0:0:0:
258,117,174647,1,8,0:0:0:0:
383,139,174819,1,8,0:0:0:0:
256,116,174992,1,8,0:0:0:0:
381,138,175164,1,0,0:0:0:0:
254,118,175336,1,8,0:0:0:0:
57,131,175681,1,8,0:0:0:0:
57,131,175854,1,0,0:0:0:0:
57,131,175940,1,0,0:0:0:0:
57,131,176026,1,0,0:0:0:0:
57,131,176199,1,0,0:0:0:0:
57,131,176371,1,8,0:0:0:0:
312,117,176715,1,6,0:0:0:0:
124,150,177405,1,8,0:0:0:0:
124,150,177577,1,0,0:0:0:0:
489,30,177922,1,0,0:0:0:0:
274,101,178784,1,8,0:0:0:0:
274,101,179129,1,0,0:0:0:0:
274,101,179301,1,8,0:0:0:0:
121,129,180164,1,8,0:0:0:0:
121,129,180508,1,0,0:0:0:0:
121,129,180681,1,8,0:0:0:0:
278,114,181543,1,0,0:0:0:0:
197,83,182232,1,4,0:0:0:0:
151,191,182922,1,8,0:0:0:0:
151,191,183095,1,0,0:0:0:0:
151,191,183439,1,0,0:0:0:0:
273,96,184301,1,8,0:0:0:0:
20,137,184646,1,0,0:0:0:0:
146,116,184819,1,8,0:0:0:0:
93,128,185681,1,8,0:0:0:0:
93,128,186026,1,0,0:0:0:0:
93,128,186198,1,8,0:0:0:0:
228,145,187060,1,0,0:0:0:0:
202,125,187750,1,4,0:0:0:0:
124,150,188439,1,8,0:0:0:0:
124,150,188611,1,0,0:0:0:0:
489,30,188956,1,0,0:0:0:0:
274,101,189818,1,8,0:0:0:0:
274,101,190163,1,0,0:0:0:0:
274,101,190335,1,8,0:0:0:0:
121,129,191198,1,8,0:0:0:0:
121,129,191542,1,0,0:0:0:0:
121,129,191715,1,8,0:0:0:0:
278,114,192577,1,0,0:0:0:0:
197,83,193266,1,4,0:0:0:0:
151,191,193956,1,8,0:0:0:0:
151,191,194129,1,0,0:0:0:0:
151,191,194473,1,0,0:0:0:0:
273,96,195335,1,8,0:0:0:0:
20,137,195680,1,0,0:0:0:0:
146,116,195853,1,8,0:0:0:0:
93,128,196715,1,8,0:0:0:0:
93,128,197060,1,0,0:0:0:0:
93,128,197232,1,8,0:0:0:0:
228,145,198094,1,0,0:0:0:0:
77,201,198439,1,8,0:0:0:0:
77,201,198612,1,8,0:0:0:0:
155,78,198784,1,6,0:0:0:0:
192,331,199302,1,0,0:0:0:0:
174,203,199475,1,8,0:0:0:0:
280,133,199646,1,8,0:0:0:0:
280,133,199733,1,8,0:0:0:0:
280,133,199819,1,8,0:0:0:0:
280,133,199991,1,0,0:0:0:0:
280,133,200164,1,0,0:0:0:0:
157,168,200336,1,0,0:0:0:0:
157,168,200508,1,8,0:0:0:0:
70,72,200681,1,0,0:0:0:0:
103,126,200767,1,0,0:0:0:0:
103,126,200853,1,0,0:0:0:0:
103,126,201026,1,0,0:0:0:0:
230,113,201198,1,8,0:0:0:0:
103,126,201543,1,0,0:0:0:0:
477,211,202060,1,8,0:0:0:0:
350,182,202233,1,8,0:0:0:0:
414,196,202405,1,0,0:0:0:0:
350,189,202491,1,0,0:0:0:0:
286,182,202577,1,0,0:0:0:0:
158,168,202750,1,0,0:0:0:0:
30,155,202922,1,0,0:0:0:0:
89,268,203095,1,0,0:0:0:0:
106,141,203267,1,8,0:0:0:0:
226,184,203440,1,0,0:0:0:0:
345,228,203612,1,0,0:0:0:0:
224,184,203784,1,0,0:0:0:0:
344,227,203957,1,8,0:0:0:0:
155,78,204302,1,2,0:0:0:0:
192,331,204820,1,0,0:0:0:0:
174,203,204993,1,8,0:0:0:0:
280,133,205164,1,8,0:0:0:0:
280,133,205251,1,8,0:0:0:0:
280,133,205337,1,8,0:0:0:0:
280,133,205509,1,0,0:0:0:0:
280,133,205682,1,8,0:0:0:0:
157,168,206026,1,0,0:0:0:0:
70,72,206199,1,8,0:0:0:0:
103,126,206285,1,8,0:0:0:0:
103,126,206371,1,8,0:0:0:0:
103,126,206544,1,0,0:0:0:0:
230,113,206716,1,8,0:0:0:0:
103,126,207061,1,0,0:0:0:0:
477,211,207578,1,8,0:0:0:0:
350,182,207751,1,8,0:0:0:0:
414,196,207923,1,0,0:0:0:0:
350,189,208009,1,0,0:0:0:0:
286,182,208095,1,0,0:0:0:0:
158,168,208268,1,0,0:0:0:0:
30,155,208440,1,8,0:0:0:0:
106,141,208785,1,0,0:0:0:0:
226,184,208958,1,0,0:0:0:0:
345,228,209130,1,0,0:0:0:0:
300,183,209215,1,0,0:0:0:0:
224,184,209302,1,0,0:0:0:0:
344,227,209475,1,8,0:0:0:0:
300,107,209646,1,0,0:0:0:0:
155,78,209819,1,6,0:0:0:0:
192,331,210337,1,0,0:0:0:0:
174,203,210510,1,8,0:0:0:0:
280,133,210681,1,8,0:0:0:0:
280,133,210768,1,8,0:0:0:0:
280,133,210854,1,8,0:0:0:0:
280,133,211026,1,0,0:0:0:0:
280,133,211199,1,0,0:0:0:0:
157,168,211371,1,0,0:0:0:0:
157,168,211543,1,8,0:0:0:0:
70,72,211716,1,0,0:0:0:0:
103,126,211802,1,0,0:0:0:0:
103,126,211888,1,0,0:0:0:0:
103,126,212061,1,0,0:0:0:0:
230,113,212233,1,8,0:0:0:0:
103,126,212578,1,0,0:0:0:0:
477,211,213095,1,8,0:0:0:0:
350,182,213268,1,8,0:0:0:0:
414,196,213440,1,0,0:0:0:0:
350,189,213526,1,0,0:0:0:0:
286,182,213612,1,0,0:0:0:0:
158,168,213785,1,0,0:0:0:0:
30,155,213957,1,0,0:0:0:0:
89,268,214130,1,0,0:0:0:0:
106,141,214302,1,8,0:0:0:0:
226,184,214475,1,0,0:0:0:0:
345,228,214647,1,0,0:0:0:0:
224,184,214819,1,0,0:0:0:0:
344,227,214992,1,8,0:0:0:0:
155,78,215337,1,2,0:0:0:0:
192,331,215855,1,0,0:0:0:0:
174,203,216028,1,8,0:0:0:0:
280,133,216199,1,8,0:0:0:0:
280,133,216286,1,8,0:0:0:0:
280,133,216372,1,8,0:0:0:0:
280,133,216544,1,0,0:0:0:0:
280,133,216717,1,8,0:0:0:0:
157,168,217061,1,0,0:0:0:0:
70,72,217234,1,8,0:0:0:0:
103,126,217320,1,8,0:0:0:0:
103,126,217406,1,8,0:0:0:0:
103,126,217579,1,0,0:0:0:0:
230,113,217751,1,8,0:0:0:0:
103,126,218096,1,0,0:0:0:0:
477,211,218613,1,8,0:0:0:0:
350,182,218786,1,8,0:0:0:0:
414,196,218958,1,0,0:0:0:0:
350,189,219044,1,0,0:0:0:0:
286,182,219130,1,0,0:0:0:0:
158,168,219303,1,0,0:0:0:0:
30,155,219475,1,8,0:0:0:0:
106,141,219820,1,0,0:0:0:0:
226,184,219993,1,0,0:0:0:0:
345,228,220165,1,0,0:0:0:0:
300,183,220250,1,0,0:0:0:0:
224,184,220337,1,0,0:0:0:0:
344,227,220510,1,8,0:0:0:0:
300,107,220681,1,0,0:0:0:0:
172,118,220853,1,6,0:0:0:0:
260,24,221026,1,8,0:0:0:0:
217,72,221112,1,8,0:0:0:0:
259,24,221198,1,8,0:0:0:0:
263,152,221371,1,8,0:0:0:0:
9,179,221543,1,0,0:0:0:0:
136,166,221716,1,0,0:0:0:0:
72,172,221802,1,0,0:0:0:0:
72,172,221888,1,0,0:0:0:0:
72,172,222061,1,0,0:0:0:0:
196,141,222233,1,0,0:0:0:0:
320,111,222577,1,8,0:0:0:0:
203,164,222750,1,0,0:0:0:0:
313,238,222922,1,0,0:0:0:0:
313,237,223095,1,0,0:0:0:0:
324,110,223267,1,8,0:0:0:0:
324,109,223440,1,8,0:0:0:0:
210,166,223612,1,0,0:0:0:0:
127,176,223957,1,8,0:0:0:0:
127,176,224129,1,0,0:0:0:0:
255,184,224302,1,0,0:0:0:0:
382,193,224474,1,0,0:0:0:0:
318,188,224560,1,0,0:0:0:0:
318,188,224646,1,0,0:0:0:0:
318,188,224819,1,0,0:0:0:0:
318,188,224991,1,8,0:0:0:0:
78,97,225336,1,8,0:0:0:0:
196,143,225508,1,0,0:0:0:0:
76,96,225681,1,0,0:0:0:0:
194,142,225853,1,0,0:0:0:0:
74,95,226026,1,8,0:0:0:0:
329,81,226371,1,0,0:0:0:0:
201,89,226543,1,0,0:0:0:0:
264,85,226629,1,0,0:0:0:0:
264,85,226715,1,0,0:0:0:0:
264,85,226888,1,0,0:0:0:0:
264,85,227060,1,8,0:0:0:0:
264,85,227233,1,8,0:0:0:0:
264,85,227319,1,8,0:0:0:0:
264,85,227405,1,8,0:0:0:0:
264,85,227577,1,8,0:0:0:0:
334,192,227750,1,0,0:0:0:0:
334,192,227922,1,8,0:0:0:0:
334,192,228095,1,8,0:0:0:0:
334,192,228267,1,0,0:0:0:0:
205,189,228440,1,0,0:0:0:0:
77,187,228612,1,0,0:0:0:0:
77,187,228784,1,8,0:0:0:0:
77,187,228957,1,8,0:0:0:0:
200,155,229129,1,8,0:0:0:0:
302,77,229302,1,0,0:0:0:0:
251,116,229388,1,0,0:0:0:0:
251,116,229474,1,0,0:0:0:0:
359,183,229646,1,0,0:0:0:0:
466,252,229819,1,8,0:0:0:0:
358,183,229991,1,8,0:0:0:0:
466,251,230164,1,8,0:0:0:0:
340,229,230336,1,0,0:0:0:0:
214,208,230508,1,8,0:0:0:0:
74,176,230853,1,8,0:0:0:0:
74,176,231026,1,0,0:0:0:0:
74,176,231112,1,0,0:0:0:0:
74,176,231198,1,0,0:0:0:0:
74,176,231371,1,0,0:0:0:0:
74,176,231543,1,8,0:0:0:0:
172,118,231888,1,6,0:0:0:0:
260,24,232061,1,8,0:0:0:0:
217,72,232147,1,8,0:0:0:0:
259,24,232233,1,8,0:0:0:0:
263,152,232406,1,8,0:0:0:0:
9,179,232578,1,0,0:0:0:0:
136,166,232751,1,0,0:0:0:0:
72,172,232837,1,0,0:0:0:0:
72,172,232923,1,0,0:0:0:0:
72,172,233096,1,0,0:0:0:0:
196,141,233268,1,0,0:0:0:0:
320,111,233612,1,8,0:0:0:0:
203,164,233785,1,0,0:0:0:0:
313,238,233957,1,0,0:0:0:0:
313,237,234130,1,0,0:0:0:0:
324,110,234302,1,8,0:0:0:0:
324,109,234475,1,8,0:0:0:0:
210,166,234647,1,0,0:0:0:0:
127,176,234992,1,8,0:0:0:0:
127,176,235164,1,0,0:0:0:0:
255,184,235337,1,0,0:0:0:0:
382,193,235509,1,0,0:0:0:0:
318,188,235595,1,0,0:0:0:0:
318,188,235681,1,0,0:0:0:0:
318,188,235854,1,0,0:0:0:0:
318,188,236026,1,8,0:0:0:0:
78,97,236371,1,8,0:0:0:0:
196,143,236543,1,0,0:0:0:0:
76,96,236716,1,0,0:0:0:0:
194,142,236888,1,0,0:0:0:0:
74,95,237061,1,8,0:0:0:0:
329,81,237406,1,0,0:0:0:0:
201,89,237578,1,0,0:0:0:0:
264,85,237664,1,0,0:0:0:0:
264,85,237750,1,0,0:0:0:0:
264,85,237923,1,0,0:0:0:0:
264,85,238095,1,8,0:0:0:0:
264,85,238268,1,8,0:0:0:0:
264,85,238354,1,8,0:0:0:0:
264,85,238440,1,8,0:0:0:0:
264,85,238612,1,8,0:0:0:0:
334,192,238785,1,0,0:0:0:0:
334,192,238957,1,8,0:0:0:0:
334,192,239130,1,8,0:0:0:0:
334,192,239302,1,0,0:0:0:0:
205,189,239475,1,0,0:0:0:0:
77,187,239647,1,0,0:0:0:0:
77,187,239819,1,8,0:0:0:0:
77,187,239992,1,8,0:0:0:0:
200,155,240164,1,8,0:0:0:0:
302,77,240337,1,0,0:0:0:0:
251,116,240423,1,0,0:0:0:0:
251,116,240509,1,0,0:0:0:0:
359,183,240681,1,0,0:0:0:0:
466,252,240854,1,8,0:0:0:0:
358,183,241026,1,8,0:0:0:0:
466,251,241199,1,8,0:0:0:0:
340,229,241371,1,0,0:0:0:0:
214,208,241543,1,8,0:0:0:0:
74,176,241888,1,8,0:0:0:0:
74,176,242061,1,0,0:0:0:0:
74,176,242147,1,0,0:0:0:0:
74,176,242233,1,0,0:0:0:0:
74,176,242406,1,0,0:0:0:0:
74,176,242578,1,8,0:0:0:0:
324,128,242922,1,6,0:0:0:0:
201,166,243095,1,8,0:0:0:0:
140,185,243181,1,8,0:0:0:0:
79,204,243267,1,8,0:0:0:0:
202,167,243440,1,0,0:0:0:0:
79,203,243612,1,8,0:0:0:0:
202,172,243784,1,8,0:0:0:0:
139,187,243871,1,8,0:0:0:0:
77,203,243957,1,8,0:0:0:0:
201,174,244129,1,0,0:0:0:0:
289,81,244302,1,0,0:0:0:0:
289,81,244474,1,8,0:0:0:0:
289,81,244646,1,0,0:0:0:0:
289,81,244819,1,8,0:0:0:0:
177,142,244991,1,0,0:0:0:0:
65,205,245164,1,0,0:0:0:0:
176,142,245336,1,8,0:0:0:0:
65,206,245508,1,8,0:0:0:0:
187,168,245681,1,8,0:0:0:0:
309,131,245853,1,8,0:0:0:0:
371,113,245940,1,8,0:0:0:0:
371,113,246026,1,8,0:0:0:0:
281,203,246198,1,0,0:0:0:0:
184,118,246371,1,8,0:0:0:0:
87,34,246543,1,8,0:0:0:0:
98,161,246715,1,0,0:0:0:0:
109,288,246888,1,0,0:0:0:0:
98,160,247060,1,8,0:0:0:0:
134,102,247405,1,8,0:0:0:0:
260,115,247577,1,0,0:0:0:0:
195,108,247664,1,0,0:0:0:0:
131,102,247750,1,0,0:0:0:0:
258,114,247922,1,0,0:0:0:0:
130,102,248095,1,8,0:0:0:0:
384,77,248440,1,8,0:0:0:0:
497,135,248612,1,8,0:0:0:0:
440,105,248698,1,8,0:0:0:0:
382,77,248784,1,8,0:0:0:0:
497,132,248957,1,0,0:0:0:0:
381,77,249129,1,8,0:0:0:0:
497,131,249302,1,8,0:0:0:0:
439,104,249388,1,8,0:0:0:0:
381,77,249474,1,8,0:0:0:0:
495,134,249646,1,0,0:0:0:0:
366,143,249819,1,0,0:0:0:0:
110,163,250164,1,8,0:0:0:0:
237,152,250336,1,0,0:0:0:0:
109,152,250508,1,0,0:0:0:0:
7,153,250681,1,0,0:0:0:0:
7,153,250853,1,8,0:0:0:0:
7,153,251026,1,0,0:0:0:0:
7,153,251198,1,8,0:0:0:0:
134,134,251371,1,8,0:0:0:0:
197,124,251457,1,8,0:0:0:0:
260,116,251543,1,8,0:0:0:0:
385,139,251715,1,0,0:0:0:0:
258,117,251888,1,8,0:0:0:0:
383,139,252060,1,8,0:0:0:0:
256,116,252233,1,8,0:0:0:0:
381,138,252405,1,0,0:0:0:0:
254,118,252577,1,8,0:0:0:0:
57,131,252922,1,8,0:0:0:0:
57,131,253095,1,0,0:0:0:0:
57,131,253181,1,0,0:0:0:0:
57,131,253267,1,0,0:0:0:0:
57,131,253440,1,0,0:0:0:0:
57,131,253612,1,8,0:0:0:0:
324,128,253957,1,6,0:0:0:0:
201,166,254130,1,8,0:0:0:0:
140,185,254216,1,8,0:0:0:0:
79,204,254302,1,8,0:0:0:0:
202,167,254475,1,0,0:0:0:0:
79,203,254647,1,8,0:0:0:0:
202,172,254819,1,8,0:0:0:0:
139,187,254906,1,8,0:0:0:0:
77,203,254992,1,8,0:0:0:0:
201,174,255164,1,0,0:0:0:0:
289,81,255337,1,0,0:0:0:0:
289,81,255509,1,8,0:0:0:0:
289,81,255681,1,0,0:0:0:0:
289,81,255854,1,8,0:0:0:0:
177,142,256026,1,0,0:0:0:0:
65,205,256199,1,0,0:0:0:0:
176,142,256371,1,8,0:0:0:0:
65,206,256543,1,8,0:0:0:0:
187,168,256716,1,8,0:0:0:0:
309,131,256888,1,8,0:0:0:0:
371,113,256975,1,8,0:0:0:0:
371,113,257061,1,8,0:0:0:0:
281,203,257233,1,0,0:0:0:0:
184,118,257406,1,8,0:0:0:0:
87,34,257578,1,8,0:0:0:0:
98,161,257750,1,0,0:0:0:0:
109,288,257923,1,0,0:0:0:0:
98,160,258095,1,8,0:0:0:0:
134,102,258440,1,8,0:0:0:0:
260,115,258612,1,0,0:0:0:0:
195,108,258699,1,0,0:0:0:0:
131,102,258785,1,0,0:0:0:0:
258,114,258957,1,0,0:0:0:0:
130,102,259130,1,8,0:0:0:0:
384,77,259475,1,8,0:0:0:0:
497,135,259647,1,8,0:0:0:0:
440,105,259733,1,8,0:0:0:0:
382,77,259819,1,8,0:0:0:0:
497,132,259992,1,0,0:0:0:0:
381,77,260164,1,8,0:0:0:0:
497,131,260337,1,8,0:0:0:0:
439,104,260423,1,8,0:0:0:0:
381,77,260509,1,8,0:0:0:0:
495,134,260681,1,0,0:0:0:0:
366,143,260854,1,0,0:0:0:0:
110,163,261199,1,8,0:0:0:0:
237,152,261371,1,0,0:0:0:0:
109,152,261543,1,0,0:0:0:0:
7,153,261716,1,0,0:0:0:0:
7,153,261888,1,8,0:0:0:0:
7,153,262061,1,0,0:0:0:0:
7,153,262233,1,8,0:0:0:0:
134,134,262406,1,8,0:0:0:0:
197,124,262492,1,8,0:0:0:0:
260,116,262578,1,8,0:0:0:0:
385,139,262750,1,0,0:0:0:0:
258,117,262923,1,8,0:0:0:0:
383,139,263095,1,8,0:0:0:0:
256,116,263268,1,8,0:0:0:0:
381,138,263440,1,0,0:0:0:0:
254,118,263612,1,8,0:0:0:0:
57,131,263957,1,8,0:0:0:0:
57,131,264130,1,0,0:0:0:0:
57,131,264216,1,0,0:0:0:0:
57,131,264302,1,0,0:0:0:0:
57,131,264475,1,0,0:0:0:0:
57,131,264647,1,8,0:0:0:0:
229,167,264991,5,6,0:0:0:0:
64,172,265335,1,8,0:0:0:0:
448,187,265853,1,0,0:0:0:0:
320,182,266025,1,8,0:0:0:0:
63,189,266370,1,0,0:0:0:0:
63,189,266715,1,8,0:0:0:0:
63,189,266888,1,0,0:0:0:0:
63,189,267060,1,0,0:0:0:0:
63,189,267232,1,0,0:0:0:0:
63,189,267405,1,8,0:0:0:0:
229,167,267749,1,0,0:0:0:0:
64,172,268093,1,8,0:0:0:0:
448,187,268611,1,0,0:0:0:0:
320,182,268783,1,8,0:0:0:0:
63,189,269128,1,0,0:0:0:0:
63,189,269473,1,8,0:0:0:0:
63,189,269646,1,0,0:0:0:0:
63,189,269818,1,0,0:0:0:0:
3,211,269904,1,0,0:0:0:0:
63,189,269990,1,0,0:0:0:0:
63,189,270163,1,8,0:0:0:0:
178,242,270335,1,0,0:0:0:0:
229,167,270508,1,0,0:0:0:0:
64,172,270852,1,8,0:0:0:0:
448,187,271370,1,0,0:0:0:0:
320,182,271542,1,8,0:0:0:0:
63,189,271887,1,0,0:0:0:0:
63,189,272232,1,8,0:0:0:0:
63,189,272405,1,0,0:0:0:0:
63,189,272577,1,0,0:0:0:0:
63,189,272749,1,0,0:0:0:0:
63,189,272922,1,8,0:0:0:0:
229,167,273266,1,0,0:0:0:0:
64,172,273610,1,8,0:0:0:0:
448,187,274128,1,0,0:0:0:0:
320,182,274300,1,8,0:0:0:0:
63,189,274645,1,0,0:0:0:0:
63,189,274990,1,8,0:0:0:0:
63,189,275163,1,0,0:0:0:0:
63,189,275335,1,0,0:0:0:0:
98,134,275422,1,0,0:0:0:0:
63,189,275507,1,0,0:0:0:0:
63,189,275680,1,8,0:0:0:0:
187,221,275853,1,0,0:0:0:0:
229,167,276025,1,4,0:0:0:0:
64,172,276369,1,8,0:0:0:0:
448,187,276887,1,0,0:0:0:0:
320,182,277059,1,8,0:0:0:0:
63,189,277404,1,0,0:0:0:0:
63,189,277749,1,8,0:0:0:0:
63,189,277922,1,0,0:0:0:0:
63,189,278094,1,0,0:0:0:0:
63,189,278266,1,0,0:0:0:0:
63,189,278439,1,8,0:0:0:0:
229,167,278783,1,0,0:0:0:0:
64,172,279127,1,8,0:0:0:0:
448,187,279645,1,0,0:0:0:0:
320,182,279817,1,8,0:0:0:0:
63,189,280162,1,0,0:0:0:0:
63,189,280507,1,8,0:0:0:0:
63,189,280680,1,0,0:0:0:0:
63,189,280852,1,0,0:0:0:0:
105,140,280939,1,0,0:0:0:0:
63,189,281024,1,0,0:0:0:0:
63,189,281197,1,8,0:0:0:0:
147,92,281370,1,0,0:0:0:0:
229,167,281542,1,0,0:0:0:0:
64,172,281886,1,8,0:0:0:0:
448,187,282404,1,0,0:0:0:0:
320,182,282576,1,8,0:0:0:0:
63,189,282921,1,0,0:0:0:0:
63,189,283266,1,8,0:0:0:0:
63,189,283439,1,0,0:0:0:0:
63,189,283611,1,0,0:0:0:0:
63,189,283783,1,0,0:0:0:0:
63,189,283956,1,8,0:0:0:0:
229,167,284300,1,0,0:0:0:0:
64,172,284644,1,8,0:0:0:0:
448,187,285162,1,0,0:0:0:0:
320,182,285334,1,8,0:0:0:0:
63,189,285679,1,0,0:0:0:0:
63,189,286024,1,8,0:0:0:0:
63,189,286197,1,0,0:0:0:0:
63,189,286369,1,0,0:0:0:0:
114,149,286456,1,0,0:0:0:0:
63,189,286541,1,0,0:0:0:0:
63,189,286714,1,8,0:0:0:0:
184,146,286887,1,0,0:0:0:0:
229,167,287060,1,4,0:0:0:0:
64,172,287404,1,8,0:0:0:0:
448,187,287922,1,0,0:0:0:0:
320,182,288094,1,8,0:0:0:0:
63,189,288439,1,0,0:0:0:0:
63,189,288784,1,8,0:0:0:0:
63,189,288957,1,0,0:0:0:0:
63,189,289129,1,0,0:0:0:0:
63,189,289301,1,0,0:0:0:0:
63,189,289474,1,8,0:0:0:0:
229,167,289818,1,0,0:0:0:0:
64,172,290162,1,8,0:0:0:0:
448,187,290680,1,0,0:0:0:0:
320,182,290852,1,8,0:0:0:0:
63,189,291197,1,0,0:0:0:0:
63,189,291542,1,8,0:0:0:0:
63,189,291715,1,0,0:0:0:0:
63,189,291887,1,0,0:0:0:0:
3,211,291973,1,0,0:0:0:0:
63,189,292059,1,0,0:0:0:0:
63,189,292232,1,8,0:0:0:0:
178,242,292404,1,0,0:0:0:0:
229,167,292577,1,0,0:0:0:0:
64,172,292921,1,8,0:0:0:0:
448,187,293439,1,0,0:0:0:0:
320,182,293611,1,8,0:0:0:0:
63,189,293956,1,0,0:0:0:0:
63,189,294301,1,8,0:0:0:0:
63,189,294474,1,0,0:0:0:0:
63,189,294646,1,0,0:0:0:0:
63,189,294818,1,0,0:0:0:0:
63,189,294991,1,8,0:0:0:0:
229,167,295335,1,0,0:0:0:0:
64,172,295679,1,8,0:0:0:0:
448,187,296197,1,0,0:0:0:0:
320,182,296369,1,8,0:0:0:0:
63,189,296714,1,0,0:0:0:0:
63,189,297059,1,8,0:0:0:0:
63,189,297232,1,0,0:0:0:0:
63,189,297404,1,0,0:0:0:0:
98,134,297491,1,0,0:0:0:0:
63,189,297576,1,0,0:0:0:0:
63,189,297749,1,8,0:0:0:0:
187,221,297922,1,0,0:0:0:0:
229,167,298095,1,4,0:0:0:0:
64,172,298439,1,8,0:0:0:0:
448,187,298957,1,0,0:0:0:0:
320,182,299129,1,8,0:0:0:0:
63,189,299474,1,0,0:0:0:0:
63,189,299819,1,8,0:0:0:0:
63,189,299992,1,0,0:0:0:0:
63,189,300164,1,0,0:0:0:0:
63,189,300336,1,0,0:0:0:0:
63,189,300509,1,8,0:0:0:0:
229,167,300853,1,0,0:0:0:0:
64,172,301197,1,8,0:0:0:0:
448,187,301715,1,0,0:0:0:0:
320,182,301887,1,8,0:0:0:0:
63,189,302232,1,0,0:0:0:0:
63,189,302577,1,8,0:0:0:0:
63,189,302750,1,0,0:0:0:0:
63,189,302922,1,0,0:0:0:0:
3,211,303008,1,0,0:0:0:0:
63,189,303094,1,0,0:0:0:0:
63,189,303267,1,8,0:0:0:0:
178,242,303439,1,0,0:0:0:0:
229,167,303612,1,0,0:0:0:0:
64,172,303956,1,8,0:0:0:0:
448,187,304474,1,0,0:0:0:0:
320,182,304646,1,8,0:0:0:0:
63,189,304991,1,0,0:0:0:0:
63,189,305336,1,8,0:0:0:0:
63,189,305509,1,0,0:0:0:0:
63,189,305681,1,0,0:0:0:0:
63,189,305853,1,0,0:0:0:0:
63,189,306026,1,8,0:0:0:0:
229,167,306370,1,0,0:0:0:0:
64,172,306714,1,8,0:0:0:0:
448,187,307232,1,0,0:0:0:0:
320,182,307404,1,8,0:0:0:0:
63,189,307749,1,0,0:0:0:0:
63,189,308094,1,8,0:0:0:0:
63,189,308267,1,0,0:0:0:0:
63,189,308439,1,0,0:0:0:0:
98,134,308526,1,0,0:0:0:0:
63,189,308611,1,0,0:0:0:0:
63,189,308784,1,8,0:0:0:0:
187,221,308957,1,0,0:0:0:0:
229,167,309129,1,6,0:0:0:0:
