osu file format v14

[General]
AudioFilename: audio.mp3
AudioLeadIn: 0
PreviewTime: 75249
Countdown: 0
SampleSet: Soft
StackLeniency: 0.7
Mode: 0
LetterboxInBreaks: 0
WidescreenStoryboard: 1

[Editor]
Bookmarks: 21401,41222,75508,102937,116437
DistanceSpacing: 1.1
BeatDivisor: 8
GridSize: 32
TimelineZoom: 1.4

[Metadata]
Title:Little Drummer Girl
TitleUnicode:Little Drummer Girl
Artist:nekodex
ArtistUnicode:nekodex
Creator:hypercyte
Version:Easy
Source:osu!
Tags:osu! xmas 2020 christmas winter theme instrumental featured artist fa hypercute mappers' guild mpg mg instrumental holiday electronic music box the little drummer boy
BeatmapID:2756905
BeatmapSetID:1320298

[Difficulty]
HPDrainRate:2
CircleSize:3.8
OverallDifficulty:2
ApproachRate:4
SliderMultiplier:0.8
SliderTickRate:1

[Events]
//Background and Video events
0,0,"Sjao bg.jpg"
//Break Periods
2,35377,39857
//Storyboard Layer 0 (Background)
//Storyboard Layer 1 (Fail)
//Storyboard Layer 2 (Pass)
//Storyboard Layer 3 (Foreground)
//Storyboard Layer 4 (Overlay)
//Storyboard Sound Samples

[TimingPoints]
6892,428.571428571429,4,2,4,20,1,0
37320,-100,4,2,4,15,0,0
41177,-100,4,2,4,40,0,0
41606,-100,4,2,4,40,0,0
48463,-100,4,2,4,40,0,0
55320,-100,4,2,4,40,0,0
55749,-100,4,2,4,40,0,0
56177,-100,4,2,4,40,0,0
56606,-100,4,2,4,40,0,0
73749,-100,4,2,4,20,0,0
75409,-100,4,2,4,5,0,0
75463,-100,4,2,4,60,0,0
102034,-100,4,2,4,60,0,0
106320,-100,4,2,4,60,0,0
115749,-100,4,2,4,36,0,0

[Colours]
Combo1 : 142,218,129
Combo2 : 154,154,252
Combo3 : 160,209,239
Combo4 : 136,249,187

[HitObjects]
394,186,6891,5,10,0:1:0:0:
319,157,7320,1,8,0:1:0:0:
186,247,8177,1,8,0:1:0:0:
111,218,8606,2,0,P|99:147|180:104,1,160,10|10,0:1|0:1,0:0:0:0:
320,136,10320,1,10,0:1:0:0:
387,92,10749,1,10,0:1:0:0:
454,134,11177,1,10,0:1:0:0:
309,325,12463,1,8,0:1:0:0:
259,261,12892,2,0,B|211:272|211:272|171:330|171:330|119:344,1,160,8|8,0:1|0:1,0:0:0:0:
66,294,14177,5,10,0:1:0:0:
41,217,14606,1,2,0:0:0:0:
75,145,15034,1,10,0:1:0:0:
146,108,15463,2,0,P|262:131|320:143,1,160,10|10,0:1|0:1,0:0:0:0:
441,59,17177,1,10,0:1:0:0:
493,119,17606,1,10,0:1:0:0:
461,192,18034,1,10,0:1:0:0:
232,117,19320,1,8,0:1:0:0:
130,240,20177,1,8,0:1:0:0:
272,313,21034,5,10,0:1:0:0:
346,283,21463,1,10,0:1:0:0:
421,310,21892,1,10,0:1:0:0:
465,243,22320,2,0,P|454:170|437:73,1,160,10|10,0:1|0:1,0:0:0:0:
367,50,23606,1,10,0:1:0:0:
320,114,24034,2,0,B|245:116|245:116|232:122|232:122|154:124,1,160,10|10,0:1|0:1,0:0:0:0:
318,314,27892,6,0,P|340:267|329:243,1,80,10|10,0:1|0:1,0:0:0:0:
259,206,28749,1,10,0:1:0:0:
199,259,29177,2,0,P|138:256|38:249,1,160,10|8,0:1|0:1,0:0:0:0:
55,170,30463,1,10,0:1:0:0:
23,96,30892,5,10,0:1:0:0:
82,43,31320,1,10,0:1:0:0:
161,55,31749,1,10,0:1:0:0:
258,181,32606,5,10,0:1:0:0:
337,189,33034,1,10,0:1:0:0:
361,112,33463,1,8,0:1:0:0:
471,227,34320,5,10,0:1:0:0:
504,299,34749,1,10,0:1:0:0:
441,349,35177,1,10,0:1:0:0:
255,191,41177,5,4,0:3:0:0:
275,113,41606,1,2,0:0:0:0:
334,59,42034,1,2,0:3:0:0:
411,39,42463,1,8,0:0:0:0:
487,62,42892,2,0,P|456:146|437:220,1,160,8|10,0:1|0:0,0:0:0:0:
411,289,44177,1,8,0:0:0:0:
340,326,44606,1,10,0:0:0:0:
274,280,45034,1,10,0:0:0:0:
276,199,45463,1,2,0:3:0:0:
344,135,48034,5,4,0:3:0:0:
295,71,48463,1,2,0:0:0:0:
215,58,48892,1,2,0:3:0:0:
143,94,49320,1,10,0:0:0:0:
99,161,49749,2,0,B|109:234|109:234|118:243|118:243|128:317,1,160,10|10,0:1|0:1,0:0:0:0:
188,367,51034,1,0,0:0:0:0:
240,306,51463,1,4,0:3:0:0:
315,280,51892,1,8,0:0:0:0:
390,306,52320,1,10,0:0:0:0:
387,124,55320,6,0,P|400:76|411:47,2,80,0|2|10,0:0|0:3|0:0,0:0:0:0:
427,193,56606,1,10,0:1:0:0:
446,270,57034,1,2,0:0:0:0:
393,330,57463,1,2,0:3:0:0:
314,313,57892,1,2,0:0:0:0:
295,235,58320,2,0,P|284:187|175:174,1,160,4|2,0:3|0:3,0:0:0:0:
68,364,62177,5,2,0:0:0:0:
28,294,62606,1,2,0:3:0:0:
48,216,63034,1,4,0:3:0:0:
9,145,63463,2,0,P|13:72|97:46,1,160,4|2,0:3|0:3,0:0:0:0:
153,85,64749,1,10,0:0:0:0:
221,43,65177,5,4,0:3:0:0:
298,64,65606,1,2,0:0:0:0:
374,87,66034,1,2,0:3:0:0:
496,190,66892,5,4,0:3:0:0:
419,211,67321,1,2,0:0:0:0:
343,234,67749,1,2,0:3:0:0:
214,329,68606,5,4,0:3:0:0:
291,350,69035,1,8,0:0:0:0:
367,373,69463,1,2,0:3:0:0:
256,192,72034,12,0,73749,0:0:0:0:
256,192,75463,6,0,P|285:113|229:63,1,160,4|2,0:3|0:3,0:0:0:0:
157,68,76749,1,4,0:3:0:0:
132,144,77177,2,0,P|76:145|39:147,1,80,8|8,0:1|0:1,0:0:0:0:
21,220,78034,5,2,0:3:0:0:
69,284,78463,2,0,P|128:280|159:279,1,80,2|4,0:0|0:3,0:0:0:0:
224,305,79320,1,2,0:0:0:0:
300,282,79749,1,2,0:3:0:0:
376,304,80177,1,4,0:3:0:0:
463,216,81892,5,2,0:0:0:0:
501,146,82320,2,0,P|500:86|408:51,1,160,4|2,0:3|0:3,0:0:0:0:
399,125,83606,1,4,0:3:0:0:
324,95,84034,1,0,0:0:0:0:
250,125,84463,1,0,0:0:0:0:
175,96,84892,6,0,P|125:108|101:215,1,160,2|4,0:3|0:3,0:0:0:0:
153,257,86177,1,2,0:0:0:0:
225,221,86606,1,2,0:3:0:0:
302,242,87034,1,4,0:3:0:0:
507,366,88320,6,0,P|458:358|414:352,1,80,10|8,0:0|0:0,0:0:0:0:
366,301,89177,2,0,B|316:287|286:315|303:327|269:358|219:349,1,160,4|2,0:3|0:3,0:0:0:0:
182,280,90463,1,4,0:3:0:0:
103,296,90892,1,8,0:1:0:0:
55,359,91320,1,8,0:1:0:0:
0,300,91749,6,0,B|7:262|14:217|15:216,2,80,2|2|4,0:3|0:0|0:3,0:0:0:0:
63,348,93034,1,2,0:0:0:0:
131,305,93463,1,2,0:3:0:0:
209,323,93892,1,4,0:3:0:0:
498,186,95606,5,2,0:0:0:0:
469,111,96034,2,0,P|368:128|299:141,1,160,4|2,0:3|0:3,0:0:0:0:
233,118,97320,1,4,0:3:0:0:
173,171,97749,1,2,0:0:0:0:
177,250,98177,1,2,0:0:0:0:
249,283,98606,6,0,P|277:325|195:376,1,160,2|4,0:3|0:3,0:0:0:0:
133,346,99892,1,2,0:0:0:0:
58,316,100320,1,2,0:3:0:0:
2,373,100749,1,4,0:3:0:0:
62,141,102034,6,0,P|65:71|152:40,1,160,8|4,0:0|0:3,0:0:0:0:
214,65,103320,1,0,0:0:0:0:
267,124,103749,1,2,0:3:0:0:
240,199,104177,1,8,0:0:0:0:
160,203,104606,1,2,0:0:0:0:
242,339,105463,6,0,P|311:352|344:273,1,160,2|6,0:3|0:3,0:0:0:0:
319,206,106749,1,2,0:0:0:0:
245,174,107177,1,2,0:3:0:0:
173,210,107606,1,10,0:0:0:0:
161,289,108034,1,2,0:0:0:0:
67,159,108892,6,0,P|66:239|64:318,1,160,8|4,0:0|0:3,0:0:0:0:
123,372,110177,1,2,0:0:0:0:
202,364,110606,1,2,0:3:0:0:
236,291,111034,1,10,0:0:0:0:
204,217,111463,1,2,0:0:0:0:
110,87,112320,6,0,P|207:100|282:112,1,160,2|4,0:3|0:3,0:0:0:0:
335,152,113606,1,2,0:0:0:0:
412,170,114034,1,2,0:3:0:0:
463,108,114463,1,10,0:0:0:0:
447,29,114892,1,2,0:0:0:0:
306,104,115749,5,2,0:3:0:0:
240,150,116177,1,8,0:0:0:0:
