osu file format v14

[General]
AudioFilename: audio.mp3
AudioLeadIn: 0
PreviewTime: 75249
Countdown: 0
SampleSet: Normal
StackLeniency: 0.7
Mode: 1
LetterboxInBreaks: 0
WidescreenStoryboard: 1

[Editor]
DistanceSpacing: 1.1
BeatDivisor: 4
GridSize: 32
TimelineZoom: 1

[Metadata]
Title:Little Drummer Girl
TitleUnicode:Little Drummer Girl
Artist:nekodex
ArtistUnicode:nekodex
Creator:LilacCos
Version:Zetera's Kantan
Source:osu!
Tags:xmas 2020 christmas winter theme instrumental featured artist holiday electronic music box zetera
BeatmapID:3632913
BeatmapSetID:1774306

[Difficulty]
HPDrainRate:8
CircleSize:2
OverallDifficulty:3
ApproachRate:10
SliderMultiplier:1.4
SliderTickRate:1

[Events]
//Background and Video events
0,0,"bg.jpg",0,85
//Break Periods
2,35377,40727
2,71806,75013
//Storyboard Layer 0 (Background)
//Storyboard Layer 1 (Fail)
//Storyboard Layer 2 (Pass)
//Storyboard Layer 3 (Foreground)
//Storyboard Layer 4 (Overlay)
//Storyboard Sound Samples

[TimingPoints]
6892,428.571428571429,4,1,0,20,1,0
38070,-111.111111111111,4,1,0,5,0,0
41070,-86.9565217391304,4,1,0,30,0,0
73749,-86.9565217391304,4,1,0,20,0,0
73963,-86.9565217391304,4,1,0,22,0,0
74177,-86.9565217391304,4,1,0,24,0,0
74392,-86.9565217391304,4,1,0,26,0,0
74606,-86.9565217391304,4,1,0,28,0,0
74820,-86.9565217391304,4,1,0,30,0,0
75034,-86.9565217391304,4,1,0,32,0,0
75249,-86.9565217391304,4,1,0,34,0,0
75356,-76.9230769230769,4,1,0,40,0,0
75463,-76.9230769230769,4,1,0,40,0,1
116499,-100,4,1,0,20,0,1
116606,-100,4,1,0,20,0,0
123356,-100,4,1,0,5,0,0

[HitObjects]
256,192,6891,5,0,0:0:0:0:
256,192,7320,1,0,0:0:0:0:
256,192,8177,1,0,0:0:0:0:
256,192,8606,1,8,0:0:0:0:
256,192,9463,1,8,0:0:0:0:
256,192,10320,1,0,0:0:0:0:
256,192,10749,1,8,0:0:0:0:
256,192,11177,1,0,0:0:0:0:
256,192,12463,1,8,0:0:0:0:
256,192,12892,1,0,0:0:0:0:
256,192,13749,1,0,0:0:0:0:
256,192,14177,1,0,0:0:0:0:
256,192,15034,1,8,0:0:0:0:
256,192,15463,1,0,0:0:0:0:
256,192,16320,1,8,0:0:0:0:
256,192,17177,1,0,0:0:0:0:
256,192,17606,1,0,0:0:0:0:
256,192,18034,1,8,0:0:0:0:
256,192,19320,1,8,0:0:0:0:
256,192,20177,1,8,0:0:0:0:
256,192,21034,1,0,0:0:0:0:
256,192,21463,1,8,0:0:0:0:
256,192,22320,1,0,0:0:0:0:
256,192,22749,1,0,0:0:0:0:
256,192,23606,1,8,0:0:0:0:
256,192,24034,1,8,0:0:0:0:
256,192,24463,1,0,0:0:0:0:
256,192,24892,1,0,0:0:0:0:
256,192,26177,1,8,0:0:0:0:
256,192,27034,1,8,0:0:0:0:
256,192,27892,1,0,0:0:0:0:
256,192,28320,1,0,0:0:0:0:
256,192,28749,1,8,0:0:0:0:
256,192,29177,1,8,0:0:0:0:
256,192,30463,1,8,0:0:0:0:
256,192,30892,1,8,0:0:0:0:
256,192,31320,1,0,0:0:0:0:
256,192,31749,1,0,0:0:0:0:
256,192,32606,1,8,0:0:0:0:
256,192,33034,1,8,0:0:0:0:
256,192,33463,1,8,0:0:0:0:
256,192,34320,1,0,0:0:0:0:
256,192,34749,1,0,0:0:0:0:
256,192,35177,1,0,0:0:0:0:
256,192,41177,5,4,0:0:0:0:
256,192,42034,1,8,0:0:0:0:
256,192,42463,1,0,0:0:0:0:
256,192,42892,1,0,0:0:0:0:
256,192,43749,1,8,0:0:0:0:
256,192,44606,1,0,0:0:0:0:
256,192,45034,1,0,0:0:0:0:
256,192,45463,1,8,0:0:0:0:
256,192,45892,1,0,0:0:0:0:
256,192,47177,1,8,0:0:0:0:
256,192,48034,1,4,0:0:0:0:
256,192,48892,1,8,0:0:0:0:
256,192,49320,1,0,0:0:0:0:
256,192,49749,1,0,0:0:0:0:
256,192,50606,1,8,0:0:0:0:
256,192,51463,1,0,0:0:0:0:
256,192,51892,1,0,0:0:0:0:
256,192,52320,1,8,0:0:0:0:
256,192,52749,1,8,0:0:0:0:
256,192,53606,1,8,0:0:0:0:
256,192,54463,1,8,0:0:0:0:
256,192,55749,1,8,0:0:0:0:
256,192,56177,1,0,0:0:0:0:
256,192,56606,1,0,0:0:0:0:
256,192,57034,1,0,0:0:0:0:
256,192,57463,1,8,0:0:0:0:
256,192,58320,1,4,0:0:0:0:
256,192,59177,1,8,0:0:0:0:
256,192,59606,1,0,0:0:0:0:
256,192,60892,1,8,0:0:0:0:
256,192,61749,1,0,0:0:0:0:
256,192,62606,1,8,0:0:0:0:
256,192,63034,1,0,0:0:0:0:
256,192,63463,1,0,0:0:0:0:
256,192,64749,1,8,0:0:0:0:
256,192,65177,1,0,0:0:0:0:
256,192,65606,1,0,0:0:0:0:
256,192,66034,1,8,0:0:0:0:
256,192,66892,1,8,0:0:0:0:
256,192,67320,1,8,0:0:0:0:
256,192,67749,1,8,0:0:0:0:
256,192,68606,1,0,0:0:0:0:
256,192,69034,1,0,0:0:0:0:
256,192,69463,1,0,0:0:0:0:
256,192,70320,1,0,0:0:0:0:
256,192,71177,1,8,0:0:0:0:
256,192,71606,1,0,0:0:0:0:
256,192,75463,5,4,0:0:0:0:
256,192,76320,1,8,0:0:0:0:
256,192,76749,1,0,0:0:0:0:
256,192,78034,1,0,0:0:0:0:
256,192,78463,1,8,0:0:0:0:
256,192,79320,1,8,0:0:0:0:
256,192,79749,1,8,0:0:0:0:
256,192,80177,1,0,0:0:0:0:
256,192,81463,1,8,0:0:0:0:
256,192,81892,1,0,0:0:0:0:
256,192,82320,1,0,0:0:0:0:
256,192,83177,1,8,0:0:0:0:
256,192,83606,1,0,0:0:0:0:
256,192,84892,1,8,0:0:0:0:
256,192,85749,1,0,0:0:0:0:
256,192,86606,1,8,0:0:0:0:
256,192,87034,1,0,0:0:0:0:
256,192,88320,1,8,0:0:0:0:
256,192,89177,1,4,0:0:0:0:
256,192,90034,1,8,0:0:0:0:
256,192,90463,1,0,0:0:0:0:
256,192,91320,1,0,0:0:0:0:
256,192,91749,1,8,0:0:0:0:
256,192,92177,1,8,0:0:0:0:
256,192,92606,1,0,0:0:0:0:
256,192,93463,1,8,0:0:0:0:
256,192,93892,1,0,0:0:0:0:
256,192,95177,1,8,0:0:0:0:
256,192,95606,1,8,0:0:0:0:
256,192,96034,1,0,0:0:0:0:
256,192,96892,1,8,0:0:0:0:
256,192,97320,1,0,0:0:0:0:
256,192,98606,1,8,0:0:0:0:
256,192,99463,1,0,0:0:0:0:
256,192,99892,1,0,0:0:0:0:
256,192,100320,1,8,0:0:0:0:
256,192,100749,1,0,0:0:0:0:
256,192,102034,1,8,0:0:0:0:
256,192,102892,1,4,0:0:0:0:
256,192,103749,1,8,0:0:0:0:
256,192,104177,1,0,0:0:0:0:
256,192,105463,1,8,0:0:0:0:
256,192,105892,1,0,0:0:0:0:
256,192,106106,1,0,0:0:0:0:
256,192,106320,1,0,0:0:0:0:
256,192,107606,1,0,0:0:0:0:
256,192,108892,1,8,0:0:0:0:
256,192,109320,1,8,0:0:0:0:
256,192,109749,1,4,0:0:0:0:
256,192,110606,1,8,0:0:0:0:
256,192,111034,1,0,0:0:0:0:
256,192,112320,1,8,0:0:0:0:
256,192,112749,1,0,0:0:0:0:
256,192,112963,1,0,0:0:0:0:
256,192,113177,1,0,0:0:0:0:
256,192,114463,1,0,0:0:0:0:
256,192,115320,1,0,0:0:0:0:
256,192,115749,1,8,0:0:0:0:
