osu file format v14

[General]
AudioFilename: audio.mp3
AudioLeadIn: 0
PreviewTime: 75249
Countdown: 0
SampleSet: Normal
StackLeniency: 0.7
Mode: 1
LetterboxInBreaks: 0
WidescreenStoryboard: 0

[Editor]
DistanceSpacing: 1.1
BeatDivisor: 4
GridSize: 16
TimelineZoom: 1

[Metadata]
Title:Little Drummer Girl
TitleUnicode:Little Drummer Girl
Artist:nekodex
ArtistUnicode:nekodex
Creator:LilacCos
Version:Xmas
Source:osu!
Tags:xmas 2020 christmas winter theme instrumental featured artist holiday electronic music box zetera
BeatmapID:3632911
BeatmapSetID:1774306

[Difficulty]
HPDrainRate:6
CircleSize:2
OverallDifficulty:4
ApproachRate:5
SliderMultiplier:1.4
SliderTickRate:1

[Events]
//Background and Video events
0,0,"bg.jpg",0,85
//Break Periods
//Storyboard Layer 0 (Background)
//Storyboard Layer 1 (Fail)
//Storyboard Layer 2 (Pass)
//Storyboard Layer 3 (Foreground)
//Storyboard Layer 4 (Overlay)
//Storyboard Sound Samples

[TimingPoints]
6892,428.571428571429,4,1,0,20,1,0
38070,-105.263157894737,4,1,0,5,0,0
38499,-111.111111111111,4,1,0,5,0,0
38927,-117.647058823529,4,1,0,5,0,0
39356,-125,4,1,0,5,0,0
39784,-133.333333333333,4,1,0,5,0,0
40213,-142.857142857143,4,1,0,5,0,0
40642,-153.846153846154,4,1,0,5,0,0
41070,-86.9565217391304,4,1,0,30,0,0
73534,-86.9565217391304,4,1,0,10,0,0
73963,-86.9565217391304,4,1,0,12,0,0
74177,-86.9565217391304,4,1,0,14,0,0
74392,-86.9565217391304,4,1,0,16,0,0
74606,-86.9565217391304,4,1,0,18,0,0
74820,-86.9565217391304,4,1,0,20,0,0
75034,-86.9565217391304,4,1,0,22,0,0
75249,-86.9565217391304,4,1,0,24,0,0
75356,-76.9230769230769,4,1,0,40,0,0
75463,-76.9230769230769,4,1,0,40,0,1
116499,-100,4,1,0,20,0,1
116606,-100,4,1,0,20,0,0
123356,-100,4,1,0,10,0,0

[HitObjects]
256,192,6892,5,0,0:0:0:0:
256,192,7320,1,8,0:0:0:0:
256,192,7749,1,8,0:0:0:0:
256,192,8177,1,0,0:0:0:0:
256,192,8606,1,8,0:0:0:0:
256,192,8820,1,0,0:0:0:0:
256,192,9034,1,8,0:0:0:0:
256,192,9249,1,8,0:0:0:0:
256,192,9463,1,0,0:0:0:0:
256,192,9892,1,0,0:0:0:0:
256,192,10320,1,8,0:0:0:0:
256,192,10534,1,0,0:0:0:0:
256,192,10749,1,8,0:0:0:0:
256,192,11177,1,0,0:0:0:0:
256,192,11606,1,0,0:0:0:0:
256,192,12034,1,8,0:0:0:0:
256,192,12463,1,0,0:0:0:0:
256,192,12892,1,8,0:0:0:0:
256,192,13749,1,0,0:0:0:0:
256,192,14177,1,0,0:0:0:0:
256,192,14606,1,0,0:0:0:0:
256,192,15034,1,8,0:0:0:0:
256,192,15463,1,8,0:0:0:0:
256,192,15677,1,0,0:0:0:0:
256,192,15892,1,8,0:0:0:0:
256,192,16106,1,8,0:0:0:0:
256,192,16320,1,0,0:0:0:0:
256,192,16749,1,0,0:0:0:0:
256,192,16963,1,0,0:0:0:0:
256,192,17177,1,8,0:0:0:0:
256,192,17392,1,0,0:0:0:0:
256,192,17606,1,8,0:0:0:0:
256,192,18034,1,0,0:0:0:0:
256,192,18463,1,8,0:0:0:0:
256,192,18892,1,8,0:0:0:0:
256,192,19320,1,0,0:0:0:0:
256,192,19749,1,8,0:0:0:0:
256,192,20177,1,0,0:0:0:0:
256,192,21034,1,0,0:0:0:0:
256,192,21463,1,0,0:0:0:0:
256,192,21892,1,0,0:0:0:0:
256,192,22320,1,8,0:0:0:0:
256,192,22749,1,0,0:0:0:0:
256,192,22963,1,8,0:0:0:0:
256,192,23177,1,0,0:0:0:0:
256,192,23606,1,8,0:0:0:0:
256,192,24034,1,0,0:0:0:0:
256,192,24249,1,0,0:0:0:0:
256,192,24463,1,0,0:0:0:0:
256,192,24892,1,0,0:0:0:0:
256,192,25320,1,8,0:0:0:0:
256,192,25749,1,0,0:0:0:0:
256,192,26177,1,0,0:0:0:0:
256,192,26606,1,8,0:0:0:0:
256,192,27034,1,0,0:0:0:0:
256,192,27249,1,0,0:0:0:0:
256,192,27463,1,8,0:0:0:0:
256,192,27677,1,8,0:0:0:0:
256,192,27892,1,0,0:0:0:0:
256,192,28320,1,8,0:0:0:0:
256,192,28749,1,0,0:0:0:0:
256,192,29177,1,8,0:0:0:0:
256,192,29606,1,8,0:0:0:0:
256,192,29820,1,0,0:0:0:0:
256,192,30034,1,8,0:0:0:0:
256,192,30463,1,0,0:0:0:0:
256,192,30892,1,8,0:0:0:0:
256,192,31106,1,8,0:0:0:0:
256,192,31320,1,0,0:0:0:0:
256,192,31749,1,0,0:0:0:0:
256,192,32177,1,0,0:0:0:0:
256,192,32606,1,8,0:0:0:0:
256,192,32820,1,8,0:0:0:0:
256,192,33034,1,0,0:0:0:0:
256,192,33463,1,0,0:0:0:0:
256,192,33892,1,8,0:0:0:0:
256,192,34106,1,0,0:0:0:0:
256,192,34320,1,8,0:0:0:0:
256,192,34534,1,8,0:0:0:0:
256,192,34749,1,0,0:0:0:0:
256,192,35177,1,0,0:0:0:0:
256,192,35606,1,0,0:0:0:0:
256,192,36034,1,8,0:0:0:0:
256,192,36463,1,0,0:0:0:0:
256,192,36677,1,0,0:0:0:0:
256,192,36892,1,8,0:0:0:0:
256,192,37320,1,0,0:0:0:0:
256,192,37534,1,0,0:0:0:0:
256,192,37749,1,8,0:0:0:0:
256,192,38177,1,8,0:0:0:0:
256,192,38606,1,8,0:0:0:0:
256,192,39034,1,8,0:0:0:0:
256,192,39463,1,8,0:0:0:0:
256,192,39892,1,8,0:0:0:0:
256,192,40320,1,8,0:0:0:0:
256,192,40749,1,8,0:0:0:0:
256,192,41177,1,4,0:0:0:0:
256,192,41606,1,8,0:0:0:0:
256,192,41820,1,0,0:0:0:0:
256,192,42034,1,8,0:0:0:0:
256,192,42463,1,4,0:0:0:0:
256,192,42892,1,8,0:0:0:0:
256,192,43106,1,0,0:0:0:0:
256,192,43320,1,8,0:0:0:0:
256,192,43534,1,8,0:0:0:0:
256,192,43749,1,0,0:0:0:0:
256,192,44177,1,0,0:0:0:0:
256,192,44606,1,12,0:0:0:0:
256,192,44820,1,0,0:0:0:0:
256,192,45034,1,8,0:0:0:0:
256,192,45463,1,0,0:0:0:0:
256,192,45892,1,4,0:0:0:0:
256,192,46320,1,8,0:0:0:0:
256,192,46749,1,8,0:0:0:0:
256,192,46963,1,8,0:0:0:0:
256,192,47177,1,0,0:0:0:0:
256,192,47392,1,0,0:0:0:0:
256,192,47606,1,8,0:0:0:0:
256,192,47820,1,8,0:0:0:0:
256,192,48034,1,4,0:0:0:0:
256,192,48463,1,0,0:0:0:0:
256,192,48892,1,0,0:0:0:0:
256,192,49320,1,12,0:0:0:0:
256,192,49749,1,8,0:0:0:0:
256,192,49963,1,0,0:0:0:0:
256,192,50177,1,8,0:0:0:0:
256,192,50392,1,8,0:0:0:0:
256,192,50606,1,0,0:0:0:0:
256,192,51034,1,0,0:0:0:0:
256,192,51463,1,12,0:0:0:0:
256,192,51677,1,0,0:0:0:0:
256,192,51892,1,8,0:0:0:0:
256,192,52320,1,4,0:0:0:0:
256,192,52749,1,8,0:0:0:0:
256,192,52963,1,0,0:0:0:0:
256,192,53177,1,8,0:0:0:0:
256,192,53606,1,8,0:0:0:0:
256,192,53820,1,8,0:0:0:0:
256,192,54034,1,0,0:0:0:0:
256,192,54463,2,0,B|316:190|316:188|316:185|316:182|319:185|322:188|325:191|325:185|325:188|325:181|335:181|338:185|338:188|338:191|338:185|341:182|350:181|349:184|348:187|347:190|351:187|354:187|356:189|355:186|354:184|353:181|415:191,1,161.000003070831
256,192,55320,1,0,0:0:0:0:
256,192,55749,1,12,0:0:0:0:
256,192,56177,1,4,0:0:0:0:
256,192,56606,1,8,0:0:0:0:
256,192,57034,1,8,0:0:0:0:
256,192,57249,1,0,0:0:0:0:
256,192,57463,1,8,0:0:0:0:
256,192,57677,1,8,0:0:0:0:
256,192,57892,1,0,0:0:0:0:
256,192,58320,1,4,0:0:0:0:
256,192,58534,1,8,0:0:0:0:
256,192,58749,1,8,0:0:0:0:
256,192,59177,1,0,0:0:0:0:
256,192,59606,1,4,0:0:0:0:
256,192,60034,1,8,0:0:0:0:
256,192,60463,1,8,0:0:0:0:
256,192,60677,1,8,0:0:0:0:
256,192,60892,1,0,0:0:0:0:
256,192,61106,1,0,0:0:0:0:
256,192,61320,1,8,0:0:0:0:
256,192,61534,1,8,0:0:0:0:
256,192,61749,1,4,0:0:0:0:
256,192,62177,1,0,0:0:0:0:
256,192,62606,1,8,0:0:0:0:
256,192,63034,1,4,0:0:0:0:
256,192,63463,1,12,0:0:0:0:
256,192,63892,1,0,0:0:0:0:
256,192,64320,1,8,0:0:0:0:
256,192,64749,1,8,0:0:0:0:
256,192,65177,1,4,0:0:0:0:
256,192,65392,1,8,0:0:0:0:
256,192,65606,1,8,0:0:0:0:
256,192,66034,1,0,0:0:0:0:
256,192,66463,1,8,0:0:0:0:
256,192,66892,1,4,0:0:0:0:
256,192,67106,1,8,0:0:0:0:
256,192,67320,1,0,0:0:0:0:
256,192,67749,1,8,0:0:0:0:
256,192,68177,1,8,0:0:0:0:
256,192,68606,1,4,0:0:0:0:
256,192,68820,1,8,0:0:0:0:
256,192,69034,1,8,0:0:0:0:
256,192,69463,1,0,0:0:0:0:
256,192,69892,1,8,0:0:0:0:
256,192,70320,1,4,0:0:0:0:
256,192,70749,1,8,0:0:0:0:
256,192,70963,1,8,0:0:0:0:
256,192,71177,1,0,0:0:0:0:
256,192,71392,1,0,0:0:0:0:
256,192,71606,1,8,0:0:0:0:
256,192,71820,1,8,0:0:0:0:
256,192,72034,1,0,0:0:0:0:
256,192,73749,12,0,75249,0:0:0:0:
256,192,75463,5,12,0:0:0:0:
256,192,75892,1,8,0:0:0:0:
256,192,76106,1,0,0:0:0:0:
256,192,76320,1,8,0:0:0:0:
256,192,76749,1,4,0:0:0:0:
256,192,77177,1,8,0:0:0:0:
256,192,77392,1,0,0:0:0:0:
256,192,77606,1,8,0:0:0:0:
256,192,77820,1,8,0:0:0:0:
256,192,78034,1,0,0:0:0:0:
256,192,78463,1,8,0:0:0:0:
256,192,78892,1,4,0:0:0:0:
256,192,79320,1,8,0:0:0:0:
256,192,79534,1,8,0:0:0:0:
256,192,79749,1,0,0:0:0:0:
256,192,80177,1,4,0:0:0:0:
256,192,80606,1,8,0:0:0:0:
256,192,81034,1,8,0:0:0:0:
256,192,81463,1,0,0:0:0:0:
256,192,81892,1,0,0:0:0:0:
256,192,82106,1,8,0:0:0:0:
256,192,82320,1,4,0:0:0:0:
256,192,82749,1,8,0:0:0:0:
256,192,82963,1,0,0:0:0:0:
256,192,83177,1,8,0:0:0:0:
256,192,83606,1,4,0:0:0:0:
256,192,84034,1,8,0:0:0:0:
256,192,84249,1,0,0:0:0:0:
256,192,84463,1,8,0:0:0:0:
256,192,84677,1,8,0:0:0:0:
256,192,84892,1,0,0:0:0:0:
256,192,85320,1,0,0:0:0:0:
256,192,85534,1,8,0:0:0:0:
256,192,85749,1,4,0:0:0:0:
256,192,85963,1,8,0:0:0:0:
256,192,86177,1,8,0:0:0:0:
256,192,86606,1,0,0:0:0:0:
256,192,87034,1,12,0:0:0:0:
256,192,87463,1,8,0:0:0:0:
256,192,87892,1,8,0:0:0:0:
256,192,88320,1,0,0:0:0:0:
256,192,88534,1,0,0:0:0:0:
256,192,88749,1,8,0:0:0:0:
256,192,88963,1,0,0:0:0:0:
256,192,89177,1,12,0:0:0:0:
256,192,89606,1,8,0:0:0:0:
256,192,89820,1,0,0:0:0:0:
256,192,90034,1,8,0:0:0:0:
256,192,90463,1,4,0:0:0:0:
256,192,90892,1,8,0:0:0:0:
256,192,91106,1,8,0:0:0:0:
256,192,91320,1,8,0:0:0:0:
256,192,91534,1,0,0:0:0:0:
256,192,91749,1,8,0:0:0:0:
256,192,92177,1,8,0:0:0:0:
256,192,92606,1,4,0:0:0:0:
256,192,93034,1,8,0:0:0:0:
256,192,93249,1,8,0:0:0:0:
256,192,93463,1,0,0:0:0:0:
256,192,93892,1,4,0:0:0:0:
256,192,94320,1,8,0:0:0:0:
256,192,94749,1,8,0:0:0:0:
256,192,95177,1,0,0:0:0:0:
256,192,95392,1,0,0:0:0:0:
256,192,95606,1,8,0:0:0:0:
256,192,95820,1,8,0:0:0:0:
256,192,96034,1,4,0:0:0:0:
256,192,96463,1,0,0:0:0:0:
256,192,96677,1,8,0:0:0:0:
256,192,96892,1,0,0:0:0:0:
256,192,97320,1,4,0:0:0:0:
256,192,97749,1,8,0:0:0:0:
256,192,97963,1,0,0:0:0:0:
256,192,98177,1,8,0:0:0:0:
256,192,98392,1,8,0:0:0:0:
256,192,98606,1,0,0:0:0:0:
256,192,99034,1,0,0:0:0:0:
256,192,99249,1,8,0:0:0:0:
256,192,99463,1,4,0:0:0:0:
256,192,99677,1,8,0:0:0:0:
256,192,99892,1,8,0:0:0:0:
256,192,100320,1,0,0:0:0:0:
256,192,100749,1,4,0:0:0:0:
256,192,101177,1,8,0:0:0:0:
256,192,101606,1,8,0:0:0:0:
256,192,102034,1,8,0:0:0:0:
256,192,102249,1,0,0:0:0:0:
256,192,102463,1,8,0:0:0:0:
256,192,102677,1,8,0:0:0:0:
256,192,102892,1,4,0:0:0:0:
256,192,103106,1,8,0:0:0:0:
256,192,103320,1,8,0:0:0:0:
256,192,103534,1,8,0:0:0:0:
256,192,103749,1,0,0:0:0:0:
256,192,103963,1,8,0:0:0:0:
256,192,104177,1,4,0:0:0:0:
256,192,104392,1,8,0:0:0:0:
256,192,104606,1,8,0:0:0:0:
256,192,104820,1,8,0:0:0:0:
256,192,105034,1,0,0:0:0:0:
256,192,105463,1,8,0:0:0:0:
256,192,105892,1,0,0:0:0:0:
256,192,106106,1,0,0:0:0:0:
256,192,106320,1,12,0:0:0:0:
256,192,106534,1,0,0:0:0:0:
256,192,106749,1,8,0:0:0:0:
256,192,106963,1,8,0:0:0:0:
256,192,107177,1,0,0:0:0:0:
256,192,107392,1,8,0:0:0:0:
256,192,107606,1,4,0:0:0:0:
256,192,107820,1,8,0:0:0:0:
256,192,108034,1,8,0:0:0:0:
256,192,108463,1,0,0:0:0:0:
256,192,108892,1,8,0:0:0:0:
256,192,109106,1,0,0:0:0:0:
256,192,109320,1,8,0:0:0:0:
256,192,109534,1,8,0:0:0:0:
256,192,109749,1,4,0:0:0:0:
256,192,109963,1,8,0:0:0:0:
256,192,110177,1,8,0:0:0:0:
256,192,110392,1,8,0:0:0:0:
256,192,110606,1,0,0:0:0:0:
256,192,110820,1,8,0:0:0:0:
256,192,111034,1,4,0:0:0:0:
256,192,111249,1,8,0:0:0:0:
256,192,111463,1,8,0:0:0:0:
256,192,111892,1,0,0:0:0:0:
256,192,112320,1,8,0:0:0:0:
256,192,112534,1,0,0:0:0:0:
256,192,112749,1,0,0:0:0:0:
256,192,112963,1,8,0:0:0:0:
256,192,113177,1,4,0:0:0:0:
256,192,113392,1,8,0:0:0:0:
256,192,113606,1,8,0:0:0:0:
256,192,113820,1,8,0:0:0:0:
256,192,114034,1,0,0:0:0:0:
256,192,114249,1,0,0:0:0:0:
256,192,114463,1,12,0:0:0:0:
256,192,114677,1,0,0:0:0:0:
256,192,114892,1,8,0:0:0:0:
256,192,115320,1,0,0:0:0:0:
256,192,115749,1,8,0:0:0:0:
256,192,115963,1,8,0:0:0:0:
256,192,116177,1,0,0:0:0:0:
256,192,116392,1,0,0:0:0:0:
256,192,117034,1,8,0:0:0:0:
256,192,117463,1,0,0:0:0:0:
256,192,117892,1,8,0:0:0:0:
256,192,118320,1,8,0:0:0:0:
256,192,119177,1,0,0:0:0:0:
256,192,119606,1,8,0:0:0:0:
256,192,120034,1,8,0:0:0:0:
256,192,120249,1,0,0:0:0:0:
256,192,120463,1,8,0:0:0:0:
256,192,120892,1,0,0:0:0:0:
256,192,123463,1,0,0:0:0:0:
256,192,123892,1,8,0:0:0:0:
256,192,124320,1,8,0:0:0:0:
256,192,124749,1,0,0:0:0:0:
256,192,125177,1,8,0:0:0:0:
256,192,125606,1,8,0:0:0:0:
256,192,126034,1,8,0:0:0:0:
256,192,126892,1,8,0:0:0:0:
256,192,127106,1,0,0:0:0:0:
256,192,127320,1,8,0:0:0:0:
256,192,127749,1,0,0:0:0:0:
