osu file format v14

[General]
AudioFilename: audio.mp3
AudioLeadIn: 0
PreviewTime: 45070
Countdown: 0
SampleSet: Soft
StackLeniency: 0.7
Mode: 0
LetterboxInBreaks: 0
WidescreenStoryboard: 1

[Editor]
DistanceSpacing: 1.6
BeatDivisor: 4
GridSize: 32
TimelineZoom: 2.1

[Metadata]
Title:Liquid Future
TitleUnicode:Liquid Future
Artist:nekodex
ArtistUnicode:nekodex
Creator:AncuL
Version:Hard
Source:osu!stream
Tags:featured artist electronic instrumental
BeatmapID:1877451
BeatmapSetID:898734

[Difficulty]
HPDrainRate:4
CircleSize:4.2
OverallDifficulty:7
ApproachRate:8
SliderMultiplier:1.5
SliderTickRate:1

[Events]
//Background and Video events
0,0,"bg.jpg",0,0
//Break Periods
2,67946,72643
//Storyboard Layer 0 (Background)
//Storyboard Layer 1 (Fail)
//Storyboard Layer 2 (Pass)
//Storyboard Layer 3 (Foreground)
//Storyboard Sound Samples

[TimingPoints]
-18,352.941176470588,4,2,1,10,1,0
11276,-133.333333333333,4,2,1,50,0,0
22570,-111.111111111111,4,2,1,60,0,0
33864,-133.333333333333,4,3,1,50,0,0
42334,-133.333333333333,4,2,1,50,0,0
45158,-100,4,2,1,75,0,1
67746,-100,4,2,1,75,0,0
73393,-133.333333333333,4,2,1,60,0,0
79040,-100,4,2,1,75,0,1
101629,-111.111111111111,4,2,1,60,0,0
113099,-133.333333333333,4,2,1,50,0,0

[Colours]
Combo1 : 38,102,149
Combo2 : 91,213,238
Combo3 : 46,173,222
Combo4 : 77,138,206

[HitObjects]
256,192,8452,12,0,10923,0:0:0:0:
286,149,11276,6,0,L|400:137,1,112.500004291535,0|8,1:0|0:0,0:0:0:0:
478,171,11805,2,0,L|488:115,2,56.2500021457673,2|2|0,0:0|0:0|1:0,0:0:0:0:
390,232,12334,2,0,L|382:294,1,56.2500021457673,8|0,0:0|0:0,0:0:0:0:
456,361,12687,6,0,P|432:343|347:338,1,112.500004291535,0|8,1:0|0:0,0:0:0:0:
264,327,13217,2,0,P|265:355|276:381,2,56.2500021457673,2|2|0,0:0|0:0|1:0,0:0:0:0:
162,294,13746,2,0,P|176:262|195:244,1,56.2500021457673,8|0,0:0|0:0,0:0:0:0:
264,154,14099,6,0,L|147:146,1,112.500004291535,0|8,1:0|0:0,0:0:0:0:
59,123,14629,2,0,L|70:181,2,56.2500021457673,2|2|0,0:0|0:0|1:0,0:0:0:0:
152,65,15158,2,0,P|124:62|100:47,1,56.2500021457673,8|0,0:0|0:0,0:0:0:0:
277,9,15511,6,0,P|243:53|233:115,1,112.500004291535,0|8,1:0|0:0,0:0:0:0:
304,163,16040,2,0,L|359:155,2,56.2500021457673,2|2|0,0:0|0:0|1:0,0:0:0:0:
406,90,16570,2,0,P|427:107|441:132,1,56.2500021457673,8|0,0:0|0:0,0:0:0:0:
485,270,16923,6,0,B|424:268|440:233|381:232,1,112.500004291535,0|8,1:0|0:0,0:0:0:0:
320,294,17452,2,0,L|327:349,2,56.2500021457673,2|2|0,0:0|0:0|1:0,0:0:0:0:
230,315,17981,2,0,P|222:341|204:363,1,56.2500021457673,8|0,0:0|0:0,0:0:0:0:
67,270,18335,6,0,B|128:268|112:233|171:232,1,112.500004291535,0|8,1:0|0:0,0:0:0:0:
232,294,18864,2,0,L|225:349,2,56.2500021457673,2|2|0,0:0|0:0|1:0,0:0:0:0:
320,315,19393,2,0,P|329:342|348:363,1,56.2500021457673,8|0,0:0|0:0,0:0:0:0:
450,257,19746,6,0,P|463:232|464:203,1,56.2500021457673,0|0,1:0|0:0,0:0:0:0:
360,194,20099,1,8,0:0:0:0:
339,96,20276,2,0,L|348:156,1,56.2500021457673,2|0,0:0|0:0,0:0:0:0:
438,55,20629,2,0,L|429:115,1,56.2500021457673,0|8,1:2|0:0,0:0:0:0:
329,24,20981,2,0,B|271:27|288:72|229:68,3,112.500004291535,2|0|2|0,0:0|0:0|0:0|1:0,0:0:0:0:
163,24,22217,2,0,L|105:29,1,56.2500021457673,8|2,0:0|0:0,0:0:0:0:
20,124,22570,6,0,P|42:147|62:229,1,101.249996910095,0|0,1:0|0:0,0:0:0:0:
81,221,22923,2,0,L|58:296,2,67.4999979400635,8|2|2,0:0|0:0|0:0,0:0:0:0:
162,200,23452,1,0,1:0:0:0:
211,267,23629,2,0,L|286:261,1,67.4999979400635,8|0,0:0|0:0,0:0:0:0:
444,368,23981,6,0,P|399:341|322:376,1,134.999995880127,0|8,1:0|0:0,0:0:0:0:
229,350,24511,1,2,0:0:0:0:
289,284,24687,2,0,L|298:214,1,67.4999979400635,2|0,0:0|1:0,0:0:0:0:
400,241,25040,2,0,L|392:311,1,67.4999979400635,8|0,0:0|0:0,0:0:0:0:
368,168,25393,6,0,P|419:162|463:192,1,101.249996910095,0|0,1:0|0:0,0:0:0:0:
478,206,25746,2,0,L|495:133,1,67.4999979400635,8|2,0:0|0:0,0:0:0:0:
385,28,26099,2,0,P|411:47|426:77,2,67.4999979400635,2|0|8,0:0|1:0|0:0,0:0:0:0:
308,89,26629,1,0,0:0:0:0:
232,27,26805,6,0,B|171:63|217:102|152:139,1,134.999995880127,0|8,1:0|0:0,0:0:0:0:
110,240,27334,1,2,0:0:0:0:
220,230,27511,2,0,L|297:220,1,67.4999979400635,2|0,0:0|1:0,0:0:0:0:
219,357,27864,2,0,P|185:343|165:313,1,67.4999979400635,8|0,0:0|0:0,0:0:0:0:
40,349,28217,6,0,P|41:293|78:252,1,101.249996910095,0|0,1:0|0:0,0:0:0:0:
70,236,28570,2,0,L|146:241,2,67.4999979400635,8|2|2,0:0|0:0|0:0,0:0:0:0:
22,146,29099,1,0,1:0:0:0:
120,116,29276,2,0,P|148:142|179:153,1,67.4999979400635,8|0,0:0|0:0,0:0:0:0:
236,234,29629,6,0,P|270:202|363:205,1,134.999995880127,0|8,1:0|0:0,0:0:0:0:
414,338,30158,2,0,P|384:319|370:284,2,67.4999979400635,2|2|0,0:0|0:0|1:0,0:0:0:0:
450,192,30687,2,0,L|446:266,1,67.4999979400635,8|0,0:0|0:0,0:0:0:0:
323,358,31040,6,0,B|294:337|294:337|224:345,1,101.249996910095,0|0,1:0|0:0,0:0:0:0:
206,349,31393,1,8,0:0:0:0:
132,252,31570,2,0,P|174:256|198:275,1,67.4999979400635,2|0,0:0|0:0,0:0:0:0:
275,185,31923,2,0,P|292:224|288:255,1,67.4999979400635,0|8,1:0|0:0,0:0:0:0:
187,175,32276,2,0,L|199:26,2,134.999995880127,2|0|2,0:0|0:0|0:0,0:0:0:0:
114,203,33158,1,0,0:0:0:0:
50,155,33334,2,0,P|80:129|112:123,1,67.4999979400635,0|8,1:0|0:0,0:0:0:0:
239,127,33687,1,2,0:0:0:0:
221,9,33864,6,0,L|230:68,3,56.2500021457673,4|2|0|0,0:1|0:0|0:0|0:0,0:0:0:0:
328,140,35276,5,0,0:0:0:0:
328,140,35452,2,0,L|337:78,2,56.2500021457673,2|0|2,0:0|0:0|0:0,0:0:0:0:
383,200,36687,6,0,L|444:192,3,56.2500021457673,0|2|0|0,0:0|0:0|0:0|0:0,0:0:0:0:
272,241,38099,5,0,0:0:0:0:
272,241,38276,2,0,L|281:306,2,56.2500021457673,2|0|2,0:0|0:0|0:0,0:0:0:0:
181,179,39511,6,0,L|117:185,3,56.2500021457673,0|2|0|0,0:0|0:0|0:0|0:0,0:0:0:0:
72,273,40923,5,0,0:0:0:0:
72,273,41099,2,0,L|135:277,2,56.2500021457673,2|0|2,0:0|0:0|0:0,0:0:0:0:
106,366,42334,6,0,P|128:315|182:293,1,112.500004291535,4|2,0:3|0:0,0:0:0:0:
310,345,42864,2,0,L|254:337,1,56.2500021457673,2|4,0:0|0:3,0:0:0:0:
349,251,43217,2,0,L|239:236,1,112.500004291535,2|2,0:0|0:0,0:0:0:0:
100,215,43746,6,0,B|91:164|91:164|85:161|85:161|76:108,2,112.500004291535,4|4|4,0:0|0:3|0:0,0:0:0:0:
185,140,44629,1,4,0:3:0:0:
153,72,44805,1,4,0:3:0:0:
91,33,44981,1,4,0:3:0:0:
17,33,45158,6,0,P|102:24|164:1,1,150,4|0,0:0|1:0,0:0:0:0:
237,63,45687,1,2,0:0:0:0:
316,17,45864,2,0,L|397:25,1,75,2|4,0:0|0:3,0:0:0:0:
428,125,46217,1,0,1:0:0:0:
324,171,46393,6,0,P|328:134|349:103,1,75,0|4,0:0|0:3,0:0:0:0:
499,68,46746,2,0,L|513:146,1,75,2|0,0:0|1:0,0:0:0:0:
456,220,47099,2,0,L|474:371,1,150,2|4,0:0|0:3,0:0:0:0:
378,332,47629,1,0,1:0:0:0:
291,384,47805,5,0,0:0:0:0:
291,384,47981,2,0,P|250:367|209:369,1,75,4|0,0:3|0:0,0:0:0:0:
143,315,48334,2,0,L|68:324,1,75,0|2,1:0|0:0,0:0:0:0:
0,236,48687,2,0,P|37:239|72:227,1,75,2|4,0:0|0:3,0:0:0:0:
152,172,49040,2,0,L|227:181,1,75,0|0,1:0|0:0,0:0:0:0:
347,185,49393,6,0,P|305:164|247:233,1,150,4|0,0:3|1:0,0:0:0:0:
336,280,49923,1,0,0:0:0:0:
437,240,50099,2,0,L|418:127,1,112.5,2|0,0:0|0:0,0:0:0:0:
424,113,50452,2,0,P|388:103|365:74,1,75,2|2,1:2|0:0,0:0:0:0:
270,22,50805,5,4,0:3:0:0:
196,77,50981,2,0,B|115:84|133:30|52:38,2,150,2|2|4,0:0|0:0|0:3,0:0:0:0:
278,114,51864,1,0,1:0:0:0:
217,179,52040,1,0,0:0:0:0:
131,150,52217,2,0,P|64:180|40:249,1,150,4|0,0:3|1:0,0:0:0:0:
147,321,52746,2,0,L|153:242,1,75,2|0,0:0|0:0,0:0:0:0:
217,179,53099,2,0,P|258:189|282:212,1,75,4|0,0:3|1:0,0:0:0:0:
252,292,53452,1,0,0:0:0:0:
325,348,53629,6,0,P|397:320|477:325,1,150,4|0,0:3|1:0,0:0:0:0:
486,196,54158,2,0,P|460:223|419:236,1,75,2|0,0:0|0:0,0:0:0:0:
344,184,54511,2,0,P|307:174|275:145,1,75,4|0,0:3|1:0,0:0:0:0:
321,6,54864,2,0,L|315:82,1,75,2|4,0:0|0:3,0:0:0:0:
189,84,55217,2,0,L|183:9,1,75,2|0,0:0|1:0,0:0:0:0:
67,114,55570,2,0,P|112:103|188:170,1,150,2|4,0:0|0:3,0:0:0:0:
97,221,56099,2,0,L|14:209,2,75,0|0|4,1:0|1:0|0:3,0:0:0:0:
176,268,56629,5,0,0:0:0:0:
257,242,56805,1,0,1:0:0:0:
316,297,56981,2,0,L|321:342,2,37.5,0|0|2,0:0|0:0|0:0,0:0:0:0:
391,240,57334,2,0,L|402:285,1,37.5,4|0,0:3|0:0,0:0:0:0:
414,309,57511,2,0,P|455:318|494:318,1,75,0|0,1:0|0:0,0:0:0:0:
506,179,57864,6,0,B|430:194|443:133|362:149,1,150,4|0,0:3|1:0,0:0:0:0:
207,78,58393,2,0,P|257:132|276:203,1,150,2|4,0:0|0:3,0:0:0:0:
302,310,58923,2,0,P|278:343|235:362,1,75,0|0,1:0|0:0,0:0:0:0:
77,242,59276,2,0,B|147:214|147:214|199:266,1,150,4|0,0:3|1:0,0:0:0:0:
115,383,59805,2,0,L|127:309,2,75,2|2|4,0:0|0:0|0:3,0:0:0:0:
17,351,60334,2,0,L|8:266,1,75,0|0,1:0|0:0,0:0:0:0:
22,165,60687,5,4,0:3:0:0:
101,195,60864,1,2,0:0:0:0:
150,125,61040,2,0,L|225:113,2,75,0|2|2,1:0|0:0|0:0,0:0:0:0:
75,22,61570,2,0,L|0:34,2,75,4|0|2,0:3|1:0|0:0,0:0:0:0:
188,39,62099,6,0,P|219:65|291:52,1,112.5,4|0,0:3|0:0,0:0:0:0:
295,38,62452,1,0,1:0:0:0:
383,81,62629,2,0,L|377:163,1,75,2|0,0:0|0:0,0:0:0:0:
474,24,62981,2,0,L|480:106,1,75,4|0,0:3|1:0,0:0:0:0:
511,218,63334,2,0,P|439:222|405:285,3,150,2|2|2|4,0:0|0:0|0:0|0:3,0:0:0:0:
342,364,64570,1,0,1:0:0:0:
262,322,64746,2,0,L|180:334,1,75,0|4,0:0|0:3,0:0:0:0:
299,242,65099,5,2,0:0:0:0:
299,242,65187,1,0,0:0:0:0:
299,242,65276,2,0,L|305:201,3,37.5,0|0|2|0,1:0|0:0|0:0|0:0,0:0:0:0:
255,168,65629,2,0,L|250:126,3,37.5,2|0|4|0,0:0|0:0|0:3|0:0,0:0:0:0:
195,107,65981,2,0,L|179:68,4,37.5,0|2|0|0|4,1:0|0:0|0:0|0:0|0:3,0:0:0:0:
269,17,66511,5,2,0:0:0:0:
351,73,66687,2,0,L|338:155,1,75,0|4,1:0|0:3,0:0:0:0:
240,191,67040,2,0,L|227:273,1,75,2|4,0:0|0:3,0:0:0:0:
158,340,67393,1,0,1:0:0:0:
158,340,67481,1,0,0:0:0:0:
158,340,67570,2,0,L|110:346,1,37.5,0|0,1:0|0:0,0:0:0:0:
44,357,67746,1,4,0:0:0:0:
99,12,73393,6,0,L|107:71,3,56.2500021457673,2|0|0|2,0:0|0:0|0:0|0:0,0:0:0:0:
28,132,74276,1,0,0:0:0:0:
28,132,74453,1,2,0:0:0:0:
139,202,74805,1,0,0:0:0:0:
139,202,74981,2,0,L|197:199,2,56.2500021457673,2|0|0,0:0|0:0|0:0,0:0:0:0:
66,255,75511,2,0,P|49:308|14:352,1,112.500004291535,2|2,0:0|0:0,0:0:0:0:
219,371,76217,6,0,P|211:345|196:322,2,56.2500021457673,2|0|0,0:0|0:0|0:0,0:0:0:0:
138,376,76746,1,2,0:0:0:0:
316,262,77099,2,0,P|302:209|305:150,1,112.500004291535,0|2,0:0|0:0,0:0:0:0:
361,78,77629,1,0,0:0:0:0:
438,136,77805,2,0,L|475:131,4,28.1250010728836,2|2|2|0|0,0:0|0:0|0:0|0:0|3:0,0:0:0:0:
488,21,78334,2,0,L|460:24,6,28.1250010728836,2|2|0|0|2|0|0,0:0|0:0|0:0|0:0|0:0|0:0|3:0,0:0:0:0:
360,77,79040,6,0,P|294:46|220:51,1,150,4|0,0:0|1:0,0:0:0:0:
125,19,79570,1,2,0:0:0:0:
74,103,79746,2,0,L|-3:107,1,75,2|4,0:0|0:3,0:0:0:0:
26,214,80099,1,0,1:0:0:0:
106,177,80276,2,0,P|130:204|143:239,1,75,0|4,0:0|0:3,0:0:0:0:
76,335,80629,2,0,L|153:324,1,75,2|0,0:0|1:0,0:0:0:0:
248,358,80981,2,0,L|406:340,1,150,2|4,0:0|0:3,0:0:0:0:
447,260,81511,1,0,1:0:0:0:
356,251,81687,5,0,0:0:0:0:
356,251,81864,2,0,P|344:215|350:175,1,75,4|0,0:3|0:0,0:0:0:0:
437,130,82217,2,0,L|424:49,1,75,0|2,1:0|0:0,0:0:0:0:
316,4,82570,2,0,P|327:39|322:80,1,75,2|4,0:0|0:3,0:0:0:0:
235,125,82923,2,0,L|248:206,1,75,0|0,1:0|0:0,0:0:0:0:
148,79,83276,2,0,P|126:129|38:152,1,150,4|0,0:3|1:0,0:0:0:0:
64,66,83805,1,0,0:0:0:0:
143,180,83981,2,0,L|122:299,1,112.5,2|0,0:0|0:0,0:0:0:0:
116,309,84334,2,0,P|77:316|46:340,1,75,2|2,1:2|0:0,0:0:0:0:
191,369,84687,5,4,0:3:0:0:
268,307,84864,2,0,B|349:300|331:354|412:346,2,150,2|2|4,0:0|0:0|0:3,0:0:0:0:
207,235,85746,1,0,1:0:0:0:
292,190,85923,1,0,0:0:0:0:
234,120,86099,2,0,P|280:63|352:65,1,150,4|0,0:3|1:0,0:0:0:0:
433,147,86629,2,0,L|354:140,1,75,2|0,0:0|0:0,0:0:0:0:
347,272,86981,2,0,P|385:248|418:244,1,75,4|0,0:3|1:0,0:0:0:0:
507,221,87334,1,0,0:0:0:0:
441,152,87511,6,0,P|367:159|303:122,1,150,4|0,0:3|1:0,0:0:0:0:
248,188,88040,2,0,P|211:183|175:194,1,75,2|0,0:0|0:0,0:0:0:0:
124,107,88393,2,0,P|94:129|77:162,1,75,4|0,0:3|1:0,0:0:0:0:
26,255,88746,2,0,L|33:338,1,75,2|4,0:0|0:3,0:0:0:0:
131,366,89099,2,0,L|138:283,1,75,2|0,0:0|1:0,0:0:0:0:
231,379,89452,2,0,P|250:327|337:301,1,150,2|4,0:0|0:3,0:0:0:0:
385,203,89981,2,0,L|300:207,1,75,0|0,1:0|1:0,0:0:0:0:
230,164,90334,5,4,0:3:0:0:
306,102,90511,1,2,0:0:0:0:
400,128,90687,1,0,1:0:0:0:
476,67,90864,2,0,P|495:95|501:135,1,75,2|0,0:0|0:0,0:0:0:0:
351,31,91217,2,0,P|378:11|418:6,1,75,4|0,0:3|1:0,0:0:0:0:
306,102,91570,2,0,L|226:94,1,75,2|4,0:0|0:3,0:0:0:0:
166,31,91923,2,0,L|91:23,1,75,0|0,0:0|1:0,0:0:0:0:
19,111,92276,5,2,0:0:0:0:
38,196,92452,1,2,0:0:0:0:
57,281,92629,1,4,0:3:0:0:
140,233,92805,5,0,1:0:0:0:
193,313,92981,2,0,P|234:312|264:296,1,75,2|4,0:0|0:3,0:0:0:0:
376,216,93334,2,0,L|450:225,1,75,2|0,0:0|1:0,0:0:0:0:
466,358,93687,2,0,L|392:349,1,75,2|0,0:0|0:0,0:0:0:0:
263,296,94040,2,0,L|247:216,1,75,4|0,0:3|1:0,0:0:0:0:
361,133,94393,2,0,P|323:151|262:121,1,112.5,2|0,0:0|0:0,0:0:0:0:
263,107,94746,5,2,0:0:0:0:
343,24,94923,2,0,L|421:33,1,75,0|2,1:0|0:0,0:0:0:0:
486,109,95276,1,2,0:0:0:0:
426,180,95452,1,4,0:3:0:0:
486,251,95629,1,0,1:0:0:0:
426,322,95805,1,2,0:0:0:0:
355,262,95981,6,0,B|337:245|337:245|245:248,1,112.5,4|0,0:3|0:0,0:0:0:0:
229,257,96334,1,0,1:0:0:0:
169,364,96511,2,0,L|250:358,1,75,2|0,0:0|0:0,0:0:0:0:
114,295,96864,2,0,L|33:301,1,75,4|0,0:3|1:0,0:0:0:0:
124,148,97217,2,0,P|147:179|152:215,1,75,2|4,0:0|0:3,0:0:0:0:
244,104,97570,2,0,P|248:142|234:176,1,75,2|0,0:0|1:0,0:0:0:0:
139,65,97923,2,0,L|59:63,1,75,2|0,0:0|0:0,0:0:0:0:
227,22,98276,2,0,B|311:10|297:66|372:58,1,150,4|0,0:3|0:0,0:0:0:0:
438,9,98805,1,4,0:3:0:0:
486,93,98981,5,2,0:0:0:0:
486,93,99070,1,0,0:0:0:0:
486,93,99158,2,0,L|479:134,3,37.5,0|0|2|0,1:0|0:0|0:0|0:0,0:0:0:0:
443,178,99511,2,0,L|398:172,3,37.5,2|0|4|0,0:0|0:0|0:3|0:0,0:0:0:0:
358,211,99864,2,0,L|320:215,4,37.5,0|2|0|0|4,1:0|0:0|0:0|0:0|0:3,0:0:0:0:
346,67,100393,5,2,0:0:0:0:
264,16,100570,2,0,P|227:22|196:43,1,75,0|2,1:0|0:0,0:0:0:0:
109,82,100923,2,0,P|95:116|99:153,1,75,4|4,0:3|0:3,0:0:0:0:
173,209,101276,1,0,1:0:0:0:
173,209,101364,1,0,0:0:0:0:
173,209,101452,2,0,L|188:249,1,37.5,0|0,1:0|0:0,0:0:0:0:
222,317,101629,1,4,0:0:0:0:
76,372,101981,5,0,1:0:0:0:
76,372,102157,2,0,L|7:364,1,67.4999979400635,2|0,0:0|0:0,0:0:0:0:
138,310,102511,1,4,0:3:0:0:
138,310,102687,2,0,L|73:284,1,67.4999979400635,0|0,1:0|0:0,0:0:0:0:
213,266,103041,1,0,0:0:0:0:
213,266,103217,2,0,L|173:207,1,67.4999979400635,2|0,0:0|1:0,0:0:0:0:
296,242,103570,1,0,0:0:0:0:
296,242,103746,2,0,L|318:104,2,134.999995880127,2|0|2,0:0|1:0|0:0,0:0:0:0:
473,377,104805,5,0,1:0:0:0:
426,317,104981,2,0,P|366:308|299:334,1,134.999995880127,2|4,0:0|0:3,0:0:0:0:
215,285,105511,2,0,P|224:225|198:158,1,134.999995880127,0|4,1:0|0:3,0:0:0:0:
247,74,106040,2,0,P|307:83|374:57,1,134.999995880127,2|0,0:0|0:0,0:0:0:0:
458,106,106570,2,0,P|449:166|475:233,2,134.999995880127,2|0|4,0:0|1:0|0:3,0:0:0:0:
351,9,107629,5,0,1:0:0:0:
351,9,107805,2,0,L|365:79,1,67.4999979400635,2|0,0:0|0:0,0:0:0:0:
265,69,108158,1,4,0:3:0:0:
265,69,108334,2,0,L|260:136,1,67.4999979400635,0|0,1:0|0:0,0:0:0:0:
166,104,108688,1,4,0:3:0:0:
166,104,108864,2,0,L|144:167,1,67.4999979400635,2|0,0:0|1:0,0:0:0:0:
61,112,109217,1,0,0:0:0:0:
61,112,109393,2,0,B|19:169|19:169|35:231,2,134.999995880127,2|0|4,0:0|1:0|0:3,0:0:0:0:
182,199,110452,5,0,1:0:0:0:
258,253,110629,2,0,P|326:248|398:228,2,134.999995880127,2|4|2,0:0|0:3|0:0,0:0:0:0:
343,343,111687,2,0,P|275:348|203:368,2,134.999995880127,0|2|4,0:0|0:0|0:3,0:0:0:0:
417,308,112570,2,0,P|455:319|490:319,2,67.4999979400635,0|0|4,1:0|1:0|0:3,0:0:0:0:
327,196,113276,5,0,1:0:0:0:
358,114,113452,1,0,0:0:0:0:
283,67,113629,2,0,L|227:73,1,56.2500021457673,0|4,0:0|0:3,0:0:0:0:
201,156,113981,2,0,L|264:151,1,56.2500021457673,0|0,1:0|0:0,0:0:0:0:
220,237,114334,2,0,B|134:254|146:184|60:201,2,168.750006437302,4|0|0,0:3|0:0|1:0,0:0:0:0:
297,364,115746,1,4,0:3:0:0:
104,326,116099,5,0,1:0:0:0:
165,273,116276,2,0,P|144:218|142:159,2,112.500004291535,0|4|2,0:0|0:3|0:0,0:0:0:0:
251,145,117334,2,0,P|272:200|274:258,2,112.500004291535,0|2|4,0:0|0:0|0:3,0:0:0:0:
312,93,118216,1,0,1:0:0:0:
363,294,118570,6,0,P|398:289|424:276,1,56.2500021457673,4|0,0:3|0:0,0:0:0:0:
476,217,118923,1,0,1:0:0:0:
396,196,119099,2,0,P|408:152|465:117,2,112.500004291535,2|4|2,0:0|0:3|0:0,0:0:0:0:
290,111,120158,2,0,P|274:163|298:213,2,112.500004291535,0|2|4,0:0|0:0|0:3,0:0:0:0:
362,71,121040,2,0,L|244:59,1,112.500004291535,0|4,1:0|0:3,0:0:0:0:
172,146,121570,5,0,0:0:0:0:
172,146,121658,1,0,0:0:0:0:
172,146,121746,2,0,L|133:139,3,28.1250010728836,0|0|0|0,1:0|0:0|0:0|0:0,0:0:0:0:
80,85,122099,2,0,L|41:78,3,28.1250010728836,0|0|4|0,0:0|0:0|0:3|0:0,0:0:0:0:
147,37,122452,2,0,L|186:44,4,28.1250010728836,0|2|0|0|4,1:0|0:0|0:0|0:0|0:3,0:0:0:0:
244,106,122981,5,0,0:0:0:0:
293,29,123158,2,0,L|355:19,1,56.2500021457673,0|0,1:0|0:0,0:0:0:0:
389,113,123511,2,0,L|326:122,1,56.2500021457673,4|4,0:3|0:3,0:0:0:0:
431,40,123864,1,0,1:0:0:0:
437,39,123952,1,0,0:0:0:0:
444,39,124040,1,0,1:0:0:0:
452,39,124128,1,0,0:0:0:0:
459,38,124216,1,4,0:0:0:0:
