osu file format v14

[General]
AudioFilename: audio.mp3
AudioLeadIn: 0
PreviewTime: 186297
Countdown: 0
SampleSet: Soft
StackLeniency: 0.7
Mode: 3
LetterboxInBreaks: 0
EpilepsyWarning: 1
SpecialStyle: 0
WidescreenStoryboard: 1

[Editor]
Bookmarks: 919,1746,14987,19125,27814,41470,53056,54711,67952,81194,92780,94435,98573,120918,134159,145746,147401,160642,173883,187125,200360,211952,213608,226849,238435,240090,253332,259952,263263,264090,266573,279814,291401,293470,306297,312918,319539
DistanceSpacing: 0.1
BeatDivisor: 4
GridSize: 32
TimelineZoom: 2.299998

[Metadata]
Title:Stray Star
TitleUnicode:Stray Star
Artist:nayuta
ArtistUnicode:nayuta
Creator:Virtue-
Version:Deviant Star
Source:東方怪綺談 ~ Mystic Square.
Tags:不思議の国のアリス Tracy Amateras Records 海兎 零 -zero- ZUN [上海アリス幻樂団] C90 Touhou Kaikidan~ Mystic Square 東方Project Ex面道中のテーマです AMRC-0035_Sparkling Alteration_XFD TohoArrange a-53b fadillsan
BeatmapID:1428213
BeatmapSetID:675074

[Difficulty]
HPDrainRate:8.5
CircleSize:4
OverallDifficulty:8.5
ApproachRate:5
SliderMultiplier:1.4
SliderTickRate:1

[Events]
//Background and Video events
0,0,"bg.jpg",0,0
//Break Periods
//Storyboard Layer 0 (Background)
//Storyboard Layer 1 (Fail)
//Storyboard Layer 2 (Pass)
//Storyboard Layer 3 (Foreground)
//Storyboard Sound Samples

[TimingPoints]
919,413.793103448276,4,2,1,60,1,0
919,-125,4,2,1,60,0,0
1746,413.793103448276,4,2,1,60,1,0
1746,-125,4,2,1,60,0,0
2573,-123.456790123457,4,2,1,60,0,0
4228,-121.951219512195,4,2,1,60,0,0
5055,-120.481927710843,4,2,1,60,0,0
5883,-119.047619047619,4,2,1,60,0,0
8366,-117.64705882353,4,2,1,60,0,0
9193,-116.279069767442,4,2,1,60,0,0
10849,-114.942528735633,4,2,1,60,0,0
11676,-113.636363636364,4,2,1,60,0,0
12504,-112.359550561798,4,2,1,60,0,0
14987,-111.111111111111,4,2,1,60,0,0
15608,-109.89010989011,4,2,1,60,0,0
17470,-108.695652173913,4,2,1,60,0,0
18297,-107.52688172043,4,2,1,60,0,0
19125,-106.382978723404,4,2,1,60,0,0
20780,-105.263157894737,4,2,1,60,0,0
21194,-104.166666666667,4,2,1,60,0,0
21608,-103.092783505155,4,2,1,60,0,0
24918,-102.040816326531,4,2,1,60,0,0
25746,-100,4,2,1,60,0,0
27814,-66.6666666666667,4,2,1,60,0,0
27918,-200,4,2,1,60,0,0
28021,-66.6666666666667,4,2,1,60,0,0
28124,-200,4,2,1,60,0,0
28228,-100,4,2,1,60,0,0
54297,-66.6666666666667,4,2,1,60,0,0
54401,-200,4,2,1,60,0,0
54504,-66.6666666666667,4,2,1,60,0,0
54608,-200,4,2,1,60,0,0
54711,-100,4,2,1,60,0,0
94435,-125,4,2,1,60,0,0
96090,-123.456790123457,4,2,1,60,0,0
97746,-121.951219512195,4,2,1,60,0,0
99401,-120.481927710843,4,2,1,60,0,0
100228,-119.047619047619,4,2,1,60,0,0
101056,-117.64705882353,4,2,1,60,0,0
101883,-116.279069767442,4,2,1,60,0,0
102711,-114.942528735633,4,2,1,60,0,0
103539,-113.636363636364,4,2,1,60,0,0
105194,-112.359550561798,4,2,1,60,0,0
106021,-111.111111111111,4,2,1,60,0,0
107470,-80,4,2,1,60,0,0
107573,-181.818181818181,4,2,1,60,0,0
107677,-111.111111111111,4,2,1,60,0,0
109332,-109.89010989011,4,2,1,60,0,0
110987,-108.695652173913,4,2,1,60,0,0
112642,-107.52688172043,4,2,1,60,0,0
113470,-106.382978723404,4,2,1,60,0,0
114297,-105.263157894737,4,2,1,60,0,0
115125,-104.166666666667,4,2,1,60,0,0
115952,-103.092783505155,4,2,1,60,0,0
116780,-102.040816326531,4,2,1,60,0,0
117608,-101.010101010101,4,2,1,60,0,0
118435,-100,4,2,1,60,0,0
120504,-66.6666666666667,4,2,1,60,0,0
120607,-200,4,2,1,60,0,0
120711,-66.6666666666667,4,2,1,60,0,0
120814,-200,4,2,1,60,0,0
120918,-100,4,2,1,60,0,1
146987,-66.6666666666667,4,2,1,60,0,1
147090,-200,4,2,1,60,0,1
147194,-66.6666666666667,4,2,1,60,0,1
147297,-200,4,2,1,60,0,1
147401,-100,4,2,1,60,0,0
186711,-66.6666666666667,4,2,1,60,0,0
186814,-200,4,2,1,60,0,0
186918,-66.6666666666667,4,2,1,60,0,0
187021,-200,4,2,1,60,0,0
187125,-100,4,2,1,60,0,1
213194,-66.6666666666667,4,2,1,60,0,1
213297,-200,4,2,1,60,0,1
213401,-66.6666666666667,4,2,1,60,0,1
213504,-200,4,2,1,60,0,1
213608,-100,4,2,1,60,0,0
240090,-125,4,2,1,60,0,0
240918,-125,4,2,2,60,0,0
241746,-123.456790123457,4,2,2,60,0,0
243401,-121.951219512195,4,2,2,60,0,0
245056,-120.481927710843,4,2,2,60,0,0
245883,-119.047619047619,4,2,2,60,0,0
246711,-117.647058823529,4,2,2,60,0,0
247539,-116.279069767442,4,2,2,60,0,0
247952,-114.942528735632,4,2,2,60,0,0
248366,-113.636363636364,4,2,2,60,0,0
249194,-112.359550561798,4,2,2,60,0,0
249608,-111.111111111111,4,2,2,60,0,0
250021,-108.695652173913,4,2,2,60,0,0
250849,-106.382978723404,4,2,2,60,0,0
251677,-104.166666666667,4,2,2,60,0,0
252504,-103.092783505155,4,2,2,60,0,0
252814,-102.040816326531,4,2,2,60,0,0
253125,-101.010101010101,4,2,2,60,0,0
253332,-100,4,2,1,60,0,0
259952,-58.8235294117647,4,2,1,60,0,0
259978,-100,4,2,1,60,0,0
260780,-58.8235294117647,4,2,1,60,0,0
260806,-100,4,2,1,60,0,0
261608,-58.8235294117647,4,2,1,60,0,0
261633,-100,4,2,1,60,0,0
262435,-58.8235294117647,4,2,1,60,0,0
262461,-100,4,2,1,60,0,0
262849,-58.8235294117647,4,2,1,60,0,0
262875,-100,4,2,1,60,0,0
266159,-66.6666666666667,4,2,1,60,0,0
266263,-200,4,2,1,60,0,0
266366,-66.6666666666667,4,2,1,60,0,0
266470,-200,4,2,1,60,0,0
266573,-100,4,2,1,60,0,1
291401,-100,4,2,1,60,0,0
292642,-66.6666666666667,4,2,1,60,0,0
292746,-200,4,2,1,60,0,0
292849,-66.6666666666667,4,2,1,60,0,0
292952,-200,4,2,1,60,0,0
293056,-66.6666666666667,4,2,1,60,0,0
293159,-200,4,2,1,60,0,0
293366,-66.6666666666667,4,2,1,60,0,0
293470,-100,4,2,1,60,0,1
319539,-125,4,2,1,60,0,0
331125,-123.456790123457,4,2,1,60,0,0
331194,-121.951219512195,4,2,1,60,0,0
331263,-120.481927710843,4,2,1,60,0,0
331332,-119.047619047619,4,2,1,60,0,0
331401,-117.647058823529,4,2,1,60,0,0
331470,-116.279069767442,4,2,1,60,0,0
331539,-114.942528735632,4,2,1,60,0,0
331608,-113.636363636364,4,2,1,60,0,0
331677,-112.359550561798,4,2,1,60,0,0
331746,-111.111111111111,4,2,1,60,0,0
331814,-109.89010989011,4,2,1,60,0,0
331883,-108.695652173913,4,2,1,60,0,0
331952,-107.52688172043,4,2,1,60,0,0
332021,-106.382978723404,4,2,1,60,0,0
332090,-105.263157894737,4,2,1,60,0,0
332159,-104.166666666667,4,2,1,60,0,0
332228,-103.092783505155,4,2,1,60,0,0
332297,-102.040816326531,4,2,1,60,0,0
332366,-101.010101010101,4,2,1,60,0,0
332435,-100,4,2,1,60,0,0

[HitObjects]
64,192,919,128,0,1332:0:0:0:0:
192,192,1332,128,0,1746:0:0:0:40:kick 2.wav
320,192,1436,1,0,0:0:0:40:kick 2.wav
448,192,1539,1,0,0:0:0:40:kick 2.wav
64,192,1643,1,0,0:0:0:40:kick 2.wav
320,192,1746,1,4,0:0:0:0:
448,192,1746,128,0,2366:0:0:0:0:
64,192,2366,128,0,3401:0:0:0:0:
448,192,2573,1,0,0:0:0:0:
192,192,2780,1,0,0:0:0:0:
448,192,2987,1,0,0:0:0:0:
320,192,3194,1,0,0:0:0:0:
192,192,3401,128,0,3711:0:0:0:0:
320,192,3711,128,0,4021:0:0:0:0:
448,192,4021,128,0,4228:0:0:0:0:
64,192,4228,128,0,4539:0:0:0:0:
448,192,4539,128,0,4849:0:0:0:0:
320,192,4642,1,0,0:0:0:40:kick 2.wav
64,192,4746,1,0,0:0:0:40:kick 2.wav
192,192,4849,128,0,5056:0:0:0:40:kick 2.wav
320,192,4952,1,0,0:0:0:40:kick 2.wav
448,192,5056,128,0,5677:0:0:0:40:kick 2.wav
64,192,5470,1,0,0:0:0:0:
320,192,5677,128,0,5883:0:0:0:0:
192,192,5883,128,0,7539:0:0:0:0:
64,192,6090,1,0,0:0:0:0:
320,192,6297,1,0,0:0:0:0:
448,192,6504,1,0,0:0:0:0:
64,192,6711,1,0,0:0:0:0:
320,192,6918,1,0,0:0:0:0:
448,192,7125,1,0,0:0:0:0:
64,192,7539,128,0,7952:0:0:0:0:
192,192,7746,1,0,0:0:0:0:
448,192,7952,128,0,8366:0:0:0:40:kick 2.wav
320,192,8056,1,0,0:0:0:40:kick 2.wav
64,192,8159,1,0,0:0:0:40:kick 2.wav
192,192,8263,1,0,0:0:0:40:kick 2.wav
320,192,8366,128,0,8987:0:0:0:40:kick 2.wav
192,192,8987,128,0,10021:0:0:0:0:
448,192,9194,1,0,0:0:0:0:
320,192,9401,1,0,0:0:0:0:
64,192,9608,1,0,0:0:0:0:
448,192,9814,1,0,0:0:0:0:
320,192,10021,128,0,10332:0:0:0:0:
64,192,10332,128,0,10642:0:0:0:0:
448,192,10642,128,0,10849:0:0:0:0:
320,192,10849,128,0,11159:0:0:0:0:
192,192,11159,128,0,11470:0:0:0:0:
448,192,11263,1,0,0:0:0:40:kick 2.wav
320,192,11366,1,0,0:0:0:40:kick 2.wav
64,192,11470,128,0,11677:0:0:0:40:kick 2.wav
448,192,11573,1,0,0:0:0:40:kick 2.wav
320,192,11677,128,0,12297:0:0:0:40:kick 2.wav
64,192,12090,1,0,0:0:0:0:
192,192,12297,128,0,12504:0:0:0:0:
448,192,12504,128,0,14159:0:0:0:0:
320,192,12711,1,0,0:0:0:0:
192,192,12918,1,0,0:0:0:0:
64,192,13125,1,0,0:0:0:0:
320,192,13332,1,0,0:0:0:0:
192,192,13539,1,0,0:0:0:0:
64,192,13642,1,0,0:0:0:0:
320,192,13746,1,0,0:0:0:0:
192,192,13952,1,0,0:0:0:0:
64,192,14159,128,0,14573:0:0:0:0:
448,192,14366,1,0,0:0:0:0:
320,192,14573,128,0,14987:0:0:0:40:kick 2.wav
192,192,14677,1,0,0:0:0:40:kick 2.wav
64,192,14780,1,0,0:0:0:40:kick 2.wav
448,192,14883,1,0,0:0:0:40:kick 2.wav
64,192,14987,128,4,15608:0:0:0:0:
192,192,14987,1,2,0:0:0:0:
320,192,15401,1,0,0:0:0:0:
448,192,15608,128,0,16642:0:0:0:0:
64,192,15814,1,0,0:0:0:0:
192,192,16228,1,0,0:0:0:0:
320,192,16642,128,0,16952:0:0:0:0:
192,192,16952,128,0,17263:0:0:0:0:
448,192,17056,1,0,0:0:0:0:
64,192,17263,128,0,17470:0:0:0:0:
448,192,17470,128,0,17780:0:0:0:0:
64,192,17780,128,0,18090:0:0:0:0:
192,192,17883,1,0,0:0:0:40:kick 2.wav
448,192,17987,1,0,0:0:0:40:kick 2.wav
320,192,18090,128,0,18297:0:0:0:40:kick 2.wav
192,192,18194,1,0,0:0:0:40:kick 2.wav
64,192,18297,128,0,18918:0:0:0:40:kick 2.wav
448,192,18711,1,0,0:0:0:0:
192,192,18918,128,0,19125:0:0:0:0:
320,192,19125,128,0,20780:0:0:0:0:
448,192,19228,1,0,0:0:0:0:
64,192,19332,1,0,0:0:0:0:
192,192,19539,1,0,0:0:0:0:
448,192,19642,1,0,0:0:0:0:
64,192,19746,1,0,0:0:0:0:
448,192,19952,1,0,0:0:0:0:
192,192,20056,1,0,0:0:0:0:
64,192,20159,1,0,0:0:0:0:
192,192,20366,1,0,0:0:0:0:
448,192,20470,1,0,0:0:0:0:
64,192,20573,1,0,0:0:0:0:
448,192,20780,128,0,21194:0:0:0:0:
192,192,20883,1,0,0:0:0:0:
320,192,20987,1,0,0:0:0:0:
64,192,21194,128,0,21608:0:0:0:40:kick 2.wav
192,192,21297,1,0,0:0:0:40:kick 2.wav
448,192,21401,1,0,0:0:0:40:kick 2.wav
320,192,21504,1,0,0:0:0:40:kick 2.wav
192,192,21608,128,0,22228:0:0:0:40:kick 2.wav
320,192,21711,1,0,0:0:0:0:
448,192,21814,1,0,0:0:0:0:
64,192,22021,1,0,0:0:0:0:
448,192,22125,1,0,0:0:0:0:
320,192,22228,128,0,23263:0:0:0:0:
64,192,22435,1,0,0:0:0:0:
192,192,22539,1,0,0:0:0:0:
448,192,22642,1,0,0:0:0:0:
192,192,22849,1,0,0:0:0:0:
64,192,22952,1,0,0:0:0:0:
448,192,23056,1,0,0:0:0:0:
192,192,23263,128,0,23573:0:0:0:0:
64,192,23366,1,0,0:0:0:0:
320,192,23470,1,0,0:0:0:0:
448,192,23573,128,0,23883:0:0:0:0:
64,192,23677,1,0,0:0:0:0:
320,192,23780,1,0,0:0:0:0:
64,192,23883,128,0,24090:0:0:0:0:
192,192,24090,128,0,24401:0:0:0:0:
448,192,24194,1,0,0:0:0:0:
64,192,24297,1,0,0:0:0:0:
320,192,24401,128,0,24711:0:0:0:0:
64,192,24504,1,0,0:0:0:40:kick 2.wav
192,192,24608,1,0,0:0:0:40:kick 2.wav
448,192,24711,128,0,24918:0:0:0:40:kick 2.wav
64,192,24814,1,0,0:0:0:40:kick 2.wav
192,192,24918,128,0,25539:0:0:0:40:kick 2.wav
320,192,25021,1,0,0:0:0:0:
448,192,25125,1,0,0:0:0:0:
64,192,25228,1,0,0:0:0:0:
320,192,25332,1,0,0:0:0:0:
448,192,25435,1,0,0:0:0:0:
320,192,25539,128,0,25746:0:0:0:0:
192,192,25642,1,0,0:0:0:0:
64,192,25746,128,0,26573:0:0:0:0:
448,192,25849,1,0,0:0:0:0:
192,192,25952,1,0,0:0:0:0:
448,192,26056,1,0,0:0:0:0:
320,192,26159,1,0,0:0:0:0:
192,192,26263,1,0,0:0:0:0:
320,192,26366,1,0,0:0:0:0:
192,192,26470,1,0,0:0:0:0:
448,192,26573,1,0,0:0:0:0:
320,192,26625,1,0,0:0:0:0:
192,192,26677,1,0,0:0:0:0:
64,192,26728,1,0,0:0:0:0:
320,192,26780,1,0,0:0:0:0:
448,192,26832,1,0,0:0:0:0:
64,192,26883,1,0,0:0:0:0:
192,192,26935,1,0,0:0:0:0:
320,192,26987,1,0,0:0:0:0:
448,192,27039,1,0,0:0:0:0:
192,192,27090,1,0,0:0:0:0:
64,192,27142,1,0,0:0:0:0:
448,192,27194,1,0,0:0:0:0:
320,192,27246,1,0,0:0:0:0:
192,192,27297,1,0,0:0:0:0:
64,192,27349,1,0,0:0:0:0:
448,192,27401,1,0,0:0:0:0:
320,192,27452,1,0,0:0:0:0:
64,192,27504,1,0,0:0:0:0:
192,192,27556,1,0,0:0:0:0:
320,192,27608,1,0,0:0:0:0:
448,192,27659,1,0,0:0:0:0:
64,192,27711,1,0,0:0:0:0:
192,192,27763,1,0,0:0:0:0:
448,192,27814,1,0,0:0:0:0:
320,192,27814,1,0,0:0:0:100:clap 1.wav
64,192,28021,1,0,0:0:0:0:
192,192,28021,1,0,0:0:0:100:clap 2.wav
320,192,28021,1,0,0:0:0:0:
64,192,28228,1,2,0:0:0:0:
192,192,28228,1,4,0:0:0:0:
448,192,28228,1,0,0:0:0:0:
320,192,28332,1,0,0:0:0:0:
448,192,28435,1,0,0:0:0:0:
64,192,28539,1,0,0:0:0:0:
320,192,28642,1,0,0:0:0:0:
192,192,28642,1,8,0:0:0:0:
448,192,28642,1,0,0:0:0:0:
64,192,28746,1,0,0:0:0:0:
320,192,28849,1,0,0:0:0:0:
192,192,28952,1,0,0:0:0:0:
320,192,29056,1,2,0:0:0:0:
448,192,29056,1,0,0:0:0:0:
64,192,29159,1,0,0:0:0:0:
192,192,29263,1,0,0:0:0:0:
448,192,29366,1,0,0:0:0:0:
320,192,29470,1,8,0:0:0:0:
192,192,29470,1,0,0:0:0:0:
64,192,29470,1,0,0:0:0:0:
448,192,29573,1,0,0:0:0:0:
64,192,29677,1,0,0:0:0:0:
320,192,29780,1,0,0:0:0:0:
448,192,29883,1,0,0:0:0:0:
192,192,29883,1,2,0:0:0:0:
64,192,29987,1,0,0:0:0:0:
320,192,30090,1,0,0:0:0:0:
192,192,30194,1,0,0:0:0:0:
64,192,30297,1,8,0:0:0:0:
448,192,30297,1,0,0:0:0:0:
320,192,30297,1,0,0:0:0:0:
192,192,30401,1,0,0:0:0:0:
448,192,30504,1,0,0:0:0:0:
64,192,30608,1,0,0:0:0:0:
320,192,30711,1,2,0:0:0:0:
192,192,30711,1,0,0:0:0:0:
448,192,30814,1,0,0:0:0:0:
64,192,30918,1,0,0:0:0:0:
320,192,31021,1,0,0:0:0:0:
192,192,31125,1,8,0:0:0:0:
64,192,31125,1,0,0:0:0:0:
448,192,31125,1,0,0:0:0:0:
320,192,31228,1,0,0:0:0:0:
64,192,31332,1,0,0:0:0:0:
192,192,31435,1,0,0:0:0:0:
320,192,31539,1,2,0:0:0:0:
448,192,31539,1,0,0:0:0:0:
64,192,31642,1,0,0:0:0:0:
192,192,31746,1,0,0:0:0:0:
448,192,31849,1,0,0:0:0:0:
320,192,31952,1,0,0:0:0:0:
192,192,31952,1,8,0:0:0:0:
64,192,31952,1,0,0:0:0:0:
448,192,32056,1,0,0:0:0:0:
64,192,32159,1,0,0:0:0:0:
320,192,32263,1,0,0:0:0:0:
192,192,32366,1,2,0:0:0:0:
448,192,32366,1,0,0:0:0:0:
64,192,32470,1,0,0:0:0:0:
320,192,32573,1,0,0:0:0:0:
192,192,32677,1,0,0:0:0:0:
64,192,32780,1,0,0:0:0:0:
320,192,32780,1,8,0:0:0:0:
448,192,32780,1,0,0:0:0:0:
192,192,32883,1,0,0:0:0:0:
448,192,32987,1,0,0:0:0:0:
64,192,33090,1,0,0:0:0:0:
192,192,33194,1,2,0:0:0:0:
320,192,33194,1,0,0:0:0:0:
448,192,33297,1,0,0:0:0:0:
64,192,33401,1,0,0:0:0:0:
320,192,33504,1,0,0:0:0:0:
64,192,33608,1,0,0:0:0:0:
192,192,33608,1,8,0:0:0:0:
448,192,33608,1,0,0:0:0:0:
320,192,33711,1,0,0:0:0:0:
192,192,33814,1,0,0:0:0:0:
448,192,33918,1,0,0:0:0:0:
64,192,34021,1,0,0:0:0:0:
320,192,34021,1,2,0:0:0:0:
192,192,34125,1,0,0:0:0:0:
448,192,34228,1,0,0:0:0:0:
64,192,34332,1,0,0:0:0:0:
192,192,34435,1,8,0:0:0:0:
320,192,34435,1,0,0:0:0:0:
448,192,34435,1,0,0:0:0:0:
64,192,34539,1,0,0:0:0:0:
320,192,34642,1,0,0:0:0:0:
192,192,34746,1,0,0:0:0:0:
64,192,34849,1,0,0:0:0:0:
448,192,34849,1,2,0:0:0:0:
320,192,34952,1,0,0:0:0:0:
64,192,35056,1,0,0:0:0:0:
448,192,35159,1,0,0:0:0:0:
320,192,35263,1,0,0:0:0:0:
192,192,35263,1,8,0:0:0:0:
64,192,35263,1,0,0:0:0:0:
448,192,35366,1,0,0:0:0:0:
192,192,35470,1,0,0:0:0:0:
320,192,35573,1,0,0:0:0:0:
448,192,35677,1,2,0:0:0:0:
64,192,35677,1,0,0:0:0:0:
192,192,35780,1,0,0:0:0:0:
448,192,35883,1,0,0:0:0:0:
320,192,35987,1,0,0:0:0:0:
192,192,36090,1,0,0:0:0:0:
64,192,36090,1,8,0:0:0:0:
448,192,36090,1,0,0:0:0:0:
320,192,36194,1,0,0:0:0:0:
192,192,36297,1,0,0:0:0:0:
64,192,36401,1,0,0:0:0:0:
320,192,36504,1,2,0:0:0:0:
448,192,36504,1,0,0:0:0:0:
192,192,36608,1,0,0:0:0:0:
64,192,36711,1,0,0:0:0:0:
320,192,36814,1,0,0:0:0:0:
64,192,36918,1,0,0:0:0:0:
192,192,36918,1,8,0:0:0:0:
448,192,36918,1,0,0:0:0:0:
320,192,37021,1,0,0:0:0:0:
192,192,37125,1,0,0:0:0:0:
448,192,37228,1,0,0:0:0:0:
64,192,37332,1,2,0:0:0:0:
320,192,37332,1,0,0:0:0:0:
192,192,37435,1,0,0:0:0:0:
448,192,37539,1,0,0:0:0:0:
64,192,37642,1,0,0:0:0:0:
192,192,37746,1,0,0:0:0:0:
320,192,37746,1,0,0:0:0:0:
448,192,37746,1,8,0:0:0:0:
64,192,37849,1,0,0:0:0:0:
320,192,37952,1,0,0:0:0:0:
192,192,38056,1,0,0:0:0:0:
64,192,38159,1,0,0:0:0:0:
448,192,38159,1,2,0:0:0:0:
320,192,38263,1,0,0:0:0:0:
64,192,38366,1,0,0:0:0:0:
192,192,38470,1,0,0:0:0:0:
320,192,38573,1,8,0:0:0:0:
64,192,38573,1,0,0:0:0:0:
448,192,38573,1,0,0:0:0:0:
192,192,38677,1,0,0:0:0:0:
448,192,38780,1,0,0:0:0:0:
64,192,38883,1,0,0:0:0:0:
192,192,38987,1,2,0:0:0:0:
320,192,38987,1,0,0:0:0:0:
448,192,39090,1,0,0:0:0:0:
64,192,39194,1,0,0:0:0:0:
320,192,39297,1,0,0:0:0:0:
448,192,39401,1,0,0:0:0:0:
64,192,39401,1,0,0:0:0:0:
192,192,39401,1,8,0:0:0:0:
320,192,39504,1,0,0:0:0:0:
192,192,39608,1,0,0:0:0:0:
448,192,39711,1,0,0:0:0:0:
64,192,39814,1,2,0:0:0:0:
320,192,39814,1,0,0:0:0:0:
192,192,39918,1,0,0:0:0:0:
448,192,40021,1,0,0:0:0:0:
320,192,40125,1,0,0:0:0:0:
64,192,40228,1,0,0:0:0:0:
192,192,40228,1,8,0:0:0:0:
448,192,40228,1,0,0:0:0:0:
320,192,40332,1,0,0:0:0:0:
64,192,40435,1,0,0:0:0:0:
192,192,40539,1,0,0:0:0:0:
320,192,40642,1,2,0:0:0:0:
448,192,40642,1,0,0:0:0:0:
64,192,40746,1,0,0:0:0:0:
448,192,40849,1,0,0:0:0:0:
192,192,40952,1,0,0:0:0:0:
320,192,41056,1,0,0:0:0:0:
448,192,41159,1,0,0:0:0:0:
192,192,41263,1,0,0:0:0:0:
320,192,41366,1,0,0:0:0:0:
448,192,41470,1,0,0:0:0:0:
64,192,41470,1,4,0:0:0:0:
192,192,41470,1,2,0:0:0:0:
320,192,41573,1,0,0:0:0:0:
64,192,41677,1,0,0:0:0:0:
192,192,41780,1,0,0:0:0:0:
320,192,41883,1,8,0:0:0:0:
448,192,41883,1,0,0:0:0:0:
64,192,41883,1,0,0:0:0:0:
192,192,41987,1,0,0:0:0:0:
448,192,42090,1,0,0:0:0:0:
64,192,42194,1,0,0:0:0:0:
192,192,42297,1,2,0:0:0:0:
320,192,42297,1,0,0:0:0:0:
448,192,42401,1,0,0:0:0:0:
64,192,42504,1,0,0:0:0:0:
320,192,42608,1,0,0:0:0:0:
448,192,42711,1,0,0:0:0:0:
192,192,42711,1,8,0:0:0:0:
64,192,42711,1,0,0:0:0:0:
320,192,42814,1,0,0:0:0:0:
192,192,42918,1,0,0:0:0:0:
448,192,43021,1,0,0:0:0:0:
64,192,43125,1,2,0:0:0:0:
320,192,43125,1,0,0:0:0:0:
192,192,43228,1,0,0:0:0:0:
448,192,43332,1,0,0:0:0:0:
320,192,43435,1,0,0:0:0:0:
192,192,43539,1,8,0:0:0:0:
64,192,43539,1,0,0:0:0:0:
448,192,43539,1,0,0:0:0:0:
320,192,43642,1,0,0:0:0:0:
64,192,43746,1,0,0:0:0:0:
192,192,43849,1,0,0:0:0:0:
320,192,43952,1,2,0:0:0:0:
448,192,43952,1,0,0:0:0:0:
64,192,44056,1,0,0:0:0:0:
192,192,44159,1,0,0:0:0:0:
448,192,44263,1,0,0:0:0:0:
320,192,44366,1,0,0:0:0:0:
192,192,44366,1,0,0:0:0:0:
64,192,44366,1,8,0:0:0:0:
448,192,44470,1,0,0:0:0:0:
64,192,44573,1,0,0:0:0:0:
320,192,44677,1,0,0:0:0:0:
192,192,44780,1,2,0:0:0:0:
448,192,44780,1,0,0:0:0:0:
64,192,44883,1,0,0:0:0:0:
320,192,44987,1,0,0:0:0:0:
192,192,45090,1,0,0:0:0:0:
64,192,45194,1,0,0:0:0:0:
320,192,45194,1,8,0:0:0:0:
448,192,45194,1,0,0:0:0:0:
192,192,45297,1,0,0:0:0:0:
448,192,45401,1,0,0:0:0:0:
64,192,45504,1,0,0:0:0:0:
192,192,45608,1,0,0:0:0:0:
320,192,45608,1,2,0:0:0:0:
448,192,45711,1,0,0:0:0:0:
64,192,45814,1,0,0:0:0:0:
192,192,45918,1,0,0:0:0:0:
320,192,46021,1,0,0:0:0:0:
448,192,46021,1,0,0:0:0:0:
64,192,46021,1,8,0:0:0:0:
192,192,46125,1,0,0:0:0:0:
448,192,46228,1,0,0:0:0:0:
320,192,46332,1,0,0:0:0:0:
192,192,46435,1,2,0:0:0:0:
64,192,46435,1,0,0:0:0:0:
448,192,46539,1,0,0:0:0:0:
64,192,46642,1,0,0:0:0:0:
320,192,46746,1,0,0:0:0:0:
192,192,46849,1,8,0:0:0:0:
64,192,46849,1,0,0:0:0:0:
448,192,46849,1,0,0:0:0:0:
320,192,46952,1,0,0:0:0:0:
192,192,47056,1,0,0:0:0:0:
448,192,47159,1,0,0:0:0:0:
320,192,47263,1,0,0:0:0:0:
64,192,47263,1,2,0:0:0:0:
192,192,47366,1,0,0:0:0:0:
448,192,47470,1,0,0:0:0:0:
320,192,47573,1,0,0:0:0:0:
192,192,47677,1,0,0:0:0:0:
64,192,47677,1,0,0:0:0:0:
448,192,47677,1,8,0:0:0:0:
320,192,47780,1,0,0:0:0:0:
64,192,47883,1,0,0:0:0:0:
192,192,47987,1,0,0:0:0:0:
320,192,48090,1,2,0:0:0:0:
448,192,48090,1,0,0:0:0:0:
64,192,48194,1,0,0:0:0:0:
448,192,48297,1,0,0:0:0:0:
192,192,48401,1,0,0:0:0:0:
448,192,48504,1,0,0:0:0:0:
320,192,48504,1,8,0:0:0:0:
64,192,48504,1,0,0:0:0:0:
192,192,48608,1,0,0:0:0:0:
320,192,48711,1,0,0:0:0:0:
64,192,48814,1,0,0:0:0:0:
192,192,48918,1,2,0:0:0:0:
448,192,48918,1,0,0:0:0:0:
320,192,49021,1,0,0:0:0:0:
64,192,49125,1,0,0:0:0:0:
448,192,49228,1,0,0:0:0:0:
320,192,49332,1,0,0:0:0:0:
192,192,49332,1,0,0:0:0:0:
64,192,49332,1,8,0:0:0:0:
448,192,49435,1,0,0:0:0:0:
192,192,49539,1,0,0:0:0:0:
320,192,49642,1,0,0:0:0:0:
64,192,49746,1,0,0:0:0:0:
448,192,49746,1,2,0:0:0:0:
192,192,49849,1,0,0:0:0:0:
320,192,49952,1,0,0:0:0:0:
64,192,50056,1,0,0:0:0:0:
192,192,50159,1,8,0:0:0:0:
448,192,50159,1,0,0:0:0:0:
320,192,50159,1,0,0:0:0:0:
64,192,50263,1,0,0:0:0:0:
448,192,50366,1,0,0:0:0:0:
320,192,50470,1,0,0:0:0:0:
192,192,50573,1,2,0:0:0:0:
64,192,50573,1,0,0:0:0:0:
448,192,50677,1,0,0:0:0:0:
64,192,50780,1,0,0:0:0:0:
192,192,50883,1,0,0:0:0:0:
320,192,50987,1,8,0:0:0:0:
448,192,50987,1,0,0:0:0:0:
64,192,50987,1,0,0:0:0:0:
192,192,51090,1,0,0:0:0:0:
448,192,51194,1,0,0:0:0:0:
64,192,51297,1,0,0:0:0:0:
192,192,51401,1,2,0:0:0:0:
320,192,51401,1,0,0:0:0:0:
448,192,51504,1,0,0:0:0:0:
64,192,51608,1,0,0:0:0:0:
320,192,51711,1,0,0:0:0:0:
192,192,51814,1,8,0:0:0:0:
448,192,51814,1,0,0:0:0:0:
64,192,51814,1,0,0:0:0:0:
320,192,51918,5,0,0:0:0:0:
64,192,52021,1,0,0:0:0:0:
448,192,52125,1,0,0:0:0:0:
192,192,52228,1,2,0:0:0:0:
320,192,52228,1,0,0:0:0:0:
64,192,52332,1,0,0:0:0:0:
448,192,52435,1,0,0:0:0:0:
192,192,52539,1,0,0:0:0:0:
64,192,52642,1,0,0:0:0:0:
320,192,52642,1,8,0:0:0:0:
448,192,52642,1,0,0:0:0:0:
192,192,52746,1,0,0:0:0:0:
448,192,52849,5,0,0:0:0:0:
320,192,52952,1,0,0:0:0:0:
192,192,53056,128,0,54297:0:0:0:0:
64,192,53056,128,0,54297:0:0:0:0:
320,192,54297,1,0,0:0:0:100:clap 1.wav
448,192,54297,1,0,0:0:0:0:
64,192,54504,1,0,0:0:0:0:
192,192,54504,1,0,0:0:0:100:clap 2.wav
320,192,54504,1,0,0:0:0:0:
192,192,54711,1,2,0:0:0:0:
64,192,54711,1,4,0:0:0:0:
448,192,54711,128,0,54918:0:0:0:0:
320,192,54918,1,0,0:0:0:0:
192,192,55021,1,0,0:0:0:0:
64,192,55125,1,0,0:0:0:0:
320,192,55125,1,8,0:0:0:0:
448,192,55125,1,0,0:0:0:0:
192,192,55332,128,0,55539:0:0:0:0:
448,192,55539,1,2,0:0:0:0:
64,192,55539,1,0,0:0:0:0:
320,192,55642,1,0,0:0:0:0:
192,192,55746,1,0,0:0:0:0:
448,192,55952,1,0,0:0:0:0:
320,192,55952,1,8,0:0:0:0:
64,192,55952,128,0,56159:0:0:0:0:
192,192,56159,1,0,0:0:0:0:
320,192,56263,1,0,0:0:0:0:
64,192,56366,1,0,0:0:0:0:
448,192,56366,1,2,0:0:0:0:
192,192,56470,1,0,0:0:0:0:
320,192,56573,128,0,56780:0:0:0:0:
64,192,56780,1,0,0:0:0:0:
192,192,56780,1,0,0:0:0:0:
448,192,56780,1,8,0:0:0:0:
320,192,56883,1,0,0:0:0:0:
192,192,56987,1,0,0:0:0:0:
448,192,57090,1,0,0:0:0:0:
320,192,57194,1,2,0:0:0:0:
64,192,57194,128,0,57401:0:0:0:0:
192,192,57401,1,0,0:0:0:0:
64,192,57608,1,0,0:0:0:0:
320,192,57608,1,8,0:0:0:0:
448,192,57608,128,0,57814:0:0:0:0:
192,192,57814,1,0,0:0:0:0:
320,192,57918,1,0,0:0:0:0:
448,192,58021,1,2,0:0:0:0:
64,192,58021,128,0,58228:0:0:0:0:
320,192,58228,1,0,0:0:0:0:
192,192,58332,1,0,0:0:0:0:
64,192,58435,1,0,0:0:0:0:
448,192,58435,1,0,0:0:0:0:
320,192,58435,1,8,0:0:0:0:
192,192,58642,128,0,58849:0:0:0:0:
448,192,58849,1,0,0:0:0:0:
64,192,58849,1,2,0:0:0:0:
320,192,58952,1,0,0:0:0:0:
64,192,59056,1,0,0:0:0:0:
192,192,59159,1,0,0:0:0:0:
320,192,59263,1,8,0:0:0:0:
448,192,59263,1,0,0:0:0:0:
64,192,59263,128,0,59470:0:0:0:0:
448,192,59470,1,0,0:0:0:0:
64,192,59573,1,0,0:0:0:0:
320,192,59677,1,0,0:0:0:0:
192,192,59677,1,2,0:0:0:0:
448,192,59883,128,0,60090:0:0:0:0:
192,192,60090,1,0,0:0:0:0:
320,192,60090,1,8,0:0:0:0:
64,192,60090,1,0,0:0:0:0:
448,192,60194,1,0,0:0:0:0:
64,192,60297,1,0,0:0:0:0:
320,192,60401,1,0,0:0:0:0:
448,192,60504,1,2,0:0:0:0:
192,192,60504,128,0,60711:0:0:0:0:
448,192,60711,1,0,0:0:0:0:
320,192,60918,1,8,0:0:0:0:
192,192,60918,1,0,0:0:0:0:
64,192,60918,128,0,61125:0:0:0:0:
448,192,61125,1,0,0:0:0:0:
64,192,61228,1,0,0:0:0:0:
192,192,61332,1,2,0:0:0:0:
320,192,61332,128,0,61539:0:0:0:0:
64,192,61539,1,0,0:0:0:0:
448,192,61642,1,0,0:0:0:0:
320,192,61746,1,8,0:0:0:0:
64,192,61746,1,0,0:0:0:0:
192,192,61746,1,0,0:0:0:0:
192,192,61952,128,0,62159:0:0:0:0:
64,192,62159,1,0,0:0:0:0:
320,192,62159,1,2,0:0:0:0:
448,192,62263,1,0,0:0:0:0:
192,192,62366,1,0,0:0:0:0:
320,192,62573,1,8,0:0:0:0:
64,192,62573,1,0,0:0:0:0:
448,192,62573,128,0,62780:0:0:0:0:
64,192,62780,1,0,0:0:0:0:
320,192,62883,1,0,0:0:0:0:
448,192,62987,1,0,0:0:0:0:
192,192,62987,1,2,0:0:0:0:
64,192,63194,128,0,63401:0:0:0:0:
192,192,63401,1,0,0:0:0:0:
448,192,63401,1,0,0:0:0:0:
320,192,63401,1,8,0:0:0:0:
64,192,63504,1,0,0:0:0:0:
448,192,63608,1,0,0:0:0:0:
320,192,63711,1,0,0:0:0:0:
64,192,63814,1,2,0:0:0:0:
192,192,63814,128,0,64021:0:0:0:0:
320,192,64021,1,0,0:0:0:0:
192,192,64228,1,8,0:0:0:0:
64,192,64228,1,0,0:0:0:0:
448,192,64228,128,0,64435:0:0:0:0:
320,192,64435,1,0,0:0:0:0:
192,192,64539,1,0,0:0:0:0:
448,192,64642,1,2,0:0:0:0:
64,192,64642,128,0,64849:0:0:0:0:
320,192,64849,1,0,0:0:0:0:
192,192,64952,1,0,0:0:0:0:
448,192,65056,1,0,0:0:0:0:
320,192,65056,1,8,0:0:0:0:
64,192,65056,1,0,0:0:0:0:
192,192,65159,1,0,0:0:0:0:
448,192,65263,128,0,65470:0:0:0:0:
64,192,65470,1,0,0:0:0:0:
192,192,65470,1,2,0:0:0:0:
320,192,65573,1,0,0:0:0:0:
64,192,65677,128,0,65780:0:0:0:0:
192,192,65780,1,0,0:0:0:0:
448,192,65883,1,8,0:0:0:0:
320,192,65883,1,0,0:0:0:0:
64,192,65883,128,0,66090:0:0:0:0:
192,192,66090,1,0,0:0:0:0:
64,192,66297,1,2,0:0:0:0:
320,192,66297,128,0,66504:0:0:0:0:
448,192,66504,1,0,0:0:0:0:
64,192,66608,1,0,0:0:0:0:
320,192,66711,1,8,0:0:0:0:
192,192,66711,1,0,0:0:0:0:
448,192,66711,1,0,0:0:0:0:
64,192,66918,128,0,67125:0:0:0:0:
320,192,67125,1,2,0:0:0:0:
448,192,67125,1,0,0:0:0:0:
192,192,67228,1,0,0:0:0:0:
448,192,67332,128,0,67435:0:0:0:0:
64,192,67435,1,0,0:0:0:0:
448,192,67539,128,0,67746:0:0:0:0:
320,192,67539,1,0,0:0:0:0:
320,192,67746,128,0,67952:0:0:0:0:
64,192,67746,1,0,0:0:0:0:
192,192,67952,1,2,0:0:0:0:
448,192,67952,1,4,0:0:0:0:
64,192,67952,128,0,68159:0:0:0:0:
320,192,68159,1,0,0:0:0:0:
192,192,68263,1,0,0:0:0:0:
64,192,68366,1,0,0:0:0:0:
320,192,68366,1,8,0:0:0:0:
448,192,68366,1,0,0:0:0:0:
448,192,68573,128,0,68780:0:0:0:0:
192,192,68780,1,2,0:0:0:0:
320,192,68780,1,0,0:0:0:0:
64,192,68883,1,0,0:0:0:0:
448,192,68987,1,0,0:0:0:0:
192,192,69194,1,8,0:0:0:0:
64,192,69194,1,0,0:0:0:0:
320,192,69194,128,0,69401:0:0:0:0:
64,192,69401,1,0,0:0:0:0:
192,192,69504,1,0,0:0:0:0:
320,192,69608,1,2,0:0:0:0:
448,192,69608,1,0,0:0:0:0:
64,192,69814,128,0,70021:0:0:0:0:
192,192,70021,1,8,0:0:0:0:
320,192,70021,1,0,0:0:0:0:
448,192,70021,1,0,0:0:0:0:
64,192,70125,1,0,0:0:0:0:
320,192,70228,1,0,0:0:0:0:
192,192,70332,1,0,0:0:0:0:
64,192,70435,1,2,0:0:0:0:
448,192,70435,128,0,70642:0:0:0:0:
320,192,70642,1,0,0:0:0:0:
448,192,70849,1,0,0:0:0:0:
64,192,70849,1,0,0:0:0:0:
192,192,70849,128,8,71056:0:0:0:0:
320,192,71056,1,0,0:0:0:0:
64,192,71263,1,2,0:0:0:0:
448,192,71263,128,0,71470:0:0:0:0:
192,192,71470,1,0,0:0:0:0:
320,192,71573,1,0,0:0:0:0:
192,192,71677,1,8,0:0:0:0:
64,192,71677,1,0,0:0:0:0:
448,192,71677,1,0,0:0:0:0:
320,192,71883,128,0,72090:0:0:0:0:
448,192,72090,1,2,0:0:0:0:
64,192,72090,1,0,0:0:0:0:
192,192,72194,1,0,0:0:0:0:
320,192,72297,1,0,0:0:0:0:
192,192,72401,1,0,0:0:0:0:
320,192,72504,1,8,0:0:0:0:
448,192,72504,1,0,0:0:0:0:
64,192,72504,128,0,72711:0:0:0:0:
448,192,72711,1,0,0:0:0:0:
192,192,72814,1,0,0:0:0:0:
320,192,72918,1,2,0:0:0:0:
64,192,72918,1,0,0:0:0:0:
192,192,73125,128,0,73332:0:0:0:0:
448,192,73332,1,0,0:0:0:0:
320,192,73332,1,8,0:0:0:0:
64,192,73332,1,0,0:0:0:0:
192,192,73435,1,0,0:0:0:0:
448,192,73539,1,0,0:0:0:0:
320,192,73642,1,0,0:0:0:0:
192,192,73746,1,2,0:0:0:0:
64,192,73746,128,0,73952:0:0:0:0:
320,192,73952,1,0,0:0:0:0:
64,192,74159,1,0,0:0:0:0:
192,192,74159,1,8,0:0:0:0:
448,192,74159,128,0,74366:0:0:0:0:
192,192,74366,1,0,0:0:0:0:
64,192,74573,1,2,0:0:0:0:
320,192,74573,128,0,74780:0:0:0:0:
192,192,74780,1,0,0:0:0:0:
448,192,74883,1,0,0:0:0:0:
64,192,74987,1,0,0:0:0:0:
192,192,74987,1,0,0:0:0:0:
320,192,74987,1,8,0:0:0:0:
448,192,75194,128,0,75401:0:0:0:0:
320,192,75401,1,2,0:0:0:0:
64,192,75401,1,0,0:0:0:0:
192,192,75504,1,0,0:0:0:0:
320,192,75608,1,0,0:0:0:0:
64,192,75711,1,0,0:0:0:0:
320,192,75814,1,0,0:0:0:0:
448,192,75814,1,8,0:0:0:0:
192,192,75814,128,0,76021:0:0:0:0:
64,192,76021,1,0,0:0:0:0:
448,192,76125,1,0,0:0:0:0:
320,192,76228,1,2,0:0:0:0:
192,192,76228,1,0,0:0:0:0:
64,192,76435,128,0,76642:0:0:0:0:
192,192,76642,1,8,0:0:0:0:
320,192,76642,1,0,0:0:0:0:
448,192,76642,1,0,0:0:0:0:
64,192,76746,1,0,0:0:0:0:
448,192,76849,1,0,0:0:0:0:
320,192,76952,1,0,0:0:0:0:
64,192,77056,1,2,0:0:0:0:
192,192,77056,128,0,77263:0:0:0:0:
320,192,77263,1,0,0:0:0:0:
64,192,77470,1,8,0:0:0:0:
448,192,77470,128,0,77677:0:0:0:0:
320,192,77470,1,0,0:0:0:0:
192,192,77677,1,0,0:0:0:0:
320,192,77883,1,2,0:0:0:0:
64,192,77883,128,0,78090:0:0:0:0:
448,192,78090,1,0,0:0:0:0:
192,192,78194,1,0,0:0:0:0:
64,192,78297,1,8,0:0:0:0:
320,192,78297,1,0,0:0:0:0:
448,192,78297,1,0,0:0:0:0:
192,192,78401,1,0,0:0:0:0:
320,192,78504,128,0,78711:0:0:0:0:
64,192,78711,1,2,0:0:0:0:
448,192,78711,1,0,0:0:0:0:
192,192,78814,1,0,0:0:0:0:
448,192,78918,128,0,79021:0:0:0:0:
64,192,79021,1,0,0:0:0:0:
448,192,79125,128,0,79332:0:0:0:0:
192,192,79125,1,8,0:0:0:0:
320,192,79125,1,0,0:0:0:0:
64,192,79332,1,0,0:0:0:0:
192,192,79539,128,0,79746:0:0:0:0:
320,192,79539,1,0,0:0:0:0:
448,192,79746,1,0,0:0:0:0:
320,192,79849,1,0,0:0:0:0:
64,192,79952,1,0,0:0:0:0:
192,192,79952,1,0,0:0:0:0:
448,192,80159,128,0,80366:0:0:0:0:
320,192,80366,1,0,0:0:0:0:
192,192,80470,1,0,0:0:0:0:
64,192,80573,128,0,80677:0:0:0:0:
448,192,80677,1,0,0:0:0:0:
64,192,80780,128,0,80987:0:0:0:0:
320,192,80780,1,0,0:0:0:0:
448,192,80987,128,0,81194:0:0:0:0:
192,192,80987,1,0,0:0:0:0:
64,192,81194,128,0,82021:0:0:0:0:
192,192,81194,1,2,0:0:0:0:
320,192,81194,1,4,0:0:0:0:
448,192,81401,1,0,0:0:0:0:
192,192,81608,1,0,0:0:0:0:
320,192,81608,1,8,0:0:0:0:
448,192,81608,1,0,0:0:0:0:
320,192,81814,1,0,0:0:0:0:
448,192,82021,128,0,82849:0:0:0:0:
192,192,82021,1,2,0:0:0:0:
320,192,82228,1,0,0:0:0:0:
64,192,82435,1,0,0:0:0:0:
192,192,82435,1,8,0:0:0:0:
320,192,82435,1,0,0:0:0:0:
64,192,82642,1,0,0:0:0:0:
320,192,82849,128,0,83263:0:0:0:0:
192,192,82849,1,2,0:0:0:0:
448,192,83056,1,0,0:0:0:0:
64,192,83263,1,0,0:0:0:0:
192,192,83263,1,8,0:0:0:0:
448,192,83263,1,0,0:0:0:0:
64,192,83470,1,0,0:0:0:0:
192,192,83677,128,0,84297:0:0:0:0:
448,192,83677,1,2,0:0:0:0:
320,192,83883,1,0,0:0:0:0:
64,192,84090,1,0,0:0:0:0:
320,192,84090,1,8,0:0:0:0:
448,192,84090,1,0,0:0:0:0:
64,192,84297,128,0,84504:0:0:0:0:
448,192,84504,128,0,84918:0:0:0:0:
320,192,84504,1,2,0:0:0:0:
192,192,84711,1,0,0:0:0:0:
192,192,84918,1,8,0:0:0:0:
320,192,84918,1,0,0:0:0:0:
64,192,84918,1,0,0:0:0:0:
64,192,85125,128,0,85539:0:0:0:0:
320,192,85332,1,2,0:0:0:0:
448,192,85332,1,0,0:0:0:0:
192,192,85539,1,0,0:0:0:0:
320,192,85746,128,0,86159:0:0:0:0:
64,192,85746,1,8,0:0:0:0:
448,192,85746,1,0,0:0:0:0:
64,192,85952,1,0,0:0:0:0:
448,192,86159,128,0,86573:0:0:0:0:
192,192,86159,1,2,0:0:0:0:
320,192,86366,1,0,0:0:0:0:
64,192,86573,1,0,0:0:0:0:
192,192,86573,1,8,0:0:0:0:
320,192,86573,1,0,0:0:0:0:
448,192,86780,1,0,0:0:0:0:
64,192,86987,1,2,0:0:0:0:
192,192,86987,128,0,87401:0:0:0:0:
448,192,87194,1,0,0:0:0:0:
320,192,87401,128,0,87814:0:0:0:0:
448,192,87401,1,8,0:0:0:0:
64,192,87401,1,0,0:0:0:0:
64,192,87608,1,0,0:0:0:0:
448,192,87814,128,0,88228:0:0:0:0:
192,192,87814,1,2,0:0:0:0:
320,192,88021,1,0,0:0:0:0:
64,192,88228,1,0,0:0:0:0:
320,192,88228,1,8,0:0:0:0:
192,192,88228,128,0,88435:0:0:0:0:
64,192,88435,128,0,89470:0:0:0:0:
192,192,88642,1,2,0:0:0:0:
320,192,88642,1,0,0:0:0:0:
448,192,88849,1,0,0:0:0:0:
192,192,89056,1,0,0:0:0:0:
320,192,89056,1,8,0:0:0:0:
448,192,89056,1,0,0:0:0:0:
192,192,89263,1,0,0:0:0:0:
320,192,89470,1,2,0:0:0:0:
448,192,89470,1,0,0:0:0:0:
192,192,89677,1,0,0:0:0:0:
64,192,89883,1,8,0:0:0:0:
448,192,89883,1,0,0:0:0:0:
320,192,89883,128,0,90297:0:0:0:0:
448,192,90090,1,0,0:0:0:0:
192,192,90297,128,0,90918:0:0:0:0:
64,192,90297,1,2,0:0:0:0:
320,192,90504,1,0,0:0:0:0:
64,192,90711,1,0,0:0:0:0:
320,192,90711,1,8,0:0:0:0:
448,192,90711,1,0,0:0:0:0:
448,192,90918,128,0,91125:0:0:0:0:
64,192,91125,128,0,92780:0:0:0:0:
320,192,91125,1,2,0:0:0:0:
192,192,91332,1,0,0:0:0:0:
192,192,91539,1,8,0:0:0:0:
320,192,91539,1,0,0:0:0:0:
448,192,91539,1,0,0:0:0:0:
448,192,91746,1,0,0:0:0:0:
192,192,91952,1,0,0:0:0:0:
320,192,91952,1,2,0:0:0:0:
448,192,92159,1,0,0:0:0:0:
192,192,92366,1,0,0:0:0:0:
448,192,92366,1,8,0:0:0:0:
320,192,92366,1,0,0:0:0:0:
192,192,92573,1,0,0:0:0:0:
448,192,92780,1,0,0:0:0:0:
320,192,92832,1,0,0:0:0:0:
192,192,92883,1,0,0:0:0:0:
64,192,92935,1,0,0:0:0:0:
320,192,92987,1,0,0:0:0:0:
448,192,93039,1,0,0:0:0:0:
64,192,93090,1,0,0:0:0:0:
192,192,93142,1,0,0:0:0:0:
320,192,93194,1,0,0:0:0:0:
448,192,93246,1,0,0:0:0:0:
192,192,93297,1,0,0:0:0:0:
64,192,93349,1,0,0:0:0:0:
448,192,93401,1,0,0:0:0:0:
320,192,93452,1,0,0:0:0:0:
192,192,93504,1,0,0:0:0:0:
64,192,93556,1,0,0:0:0:0:
320,192,93608,1,0,0:0:0:0:
448,192,93659,1,0,0:0:0:0:
64,192,93711,1,0,0:0:0:0:
192,192,93763,1,0,0:0:0:0:
320,192,93814,1,0,0:0:0:0:
448,192,93866,1,0,0:0:0:0:
64,192,93918,1,0,0:0:0:0:
192,192,93970,1,0,0:0:0:0:
448,192,94021,1,0,0:0:0:0:
320,192,94073,1,0,0:0:0:0:
192,192,94125,1,0,0:0:0:0:
64,192,94177,1,0,0:0:0:0:
320,192,94228,1,0,0:0:0:0:
448,192,94280,1,0,0:0:0:0:
64,192,94332,1,0,0:0:0:0:
192,192,94383,1,0,0:0:0:0:
320,192,94435,1,4,0:0:0:0:
448,192,94435,128,2,95263:0:0:0:0:
320,192,95263,128,0,95573:0:0:0:0:
192,192,95573,128,0,95883:0:0:0:0:
64,192,95883,128,0,96090:0:0:0:0:
320,192,96090,128,0,96918:0:0:0:0:
192,192,96918,128,0,97228:0:0:0:0:
64,192,97228,128,0,97539:0:0:0:0:
448,192,97539,128,0,97746:0:0:0:0:
320,192,97746,128,0,98573:0:0:0:0:
64,192,98573,128,0,98883:0:0:0:0:
192,192,98677,1,0,0:0:0:0:
320,192,98780,1,0,0:0:0:0:
448,192,98883,128,0,99194:0:0:0:0:
192,192,98987,1,0,0:0:0:0:
64,192,99090,1,0,0:0:0:0:
320,192,99194,128,0,99401:0:0:0:0:
192,192,99401,128,0,100021:0:0:0:0:
64,192,99504,1,0,0:0:0:0:
448,192,99608,1,0,0:0:0:0:
320,192,99814,1,0,0:0:0:0:
64,192,99918,1,0,0:0:0:0:
448,192,100021,128,0,100125:0:0:0:0:
448,192,100228,128,0,101056:0:0:0:0:
192,192,100332,1,0,0:0:0:0:
64,192,100435,1,0,0:0:0:0:
320,192,100642,1,0,0:0:0:0:
64,192,100746,1,0,0:0:0:0:
192,192,100849,1,0,0:0:0:0:
64,192,101056,128,0,101883:0:0:0:0:
320,192,101159,1,0,0:0:0:0:
448,192,101263,1,0,0:0:0:0:
192,192,101470,1,0,0:0:0:0:
320,192,101573,1,0,0:0:0:0:
448,192,101677,1,0,0:0:0:0:
192,192,101883,128,0,102297:0:0:0:0:
448,192,101987,1,0,0:0:0:0:
64,192,102090,1,0,0:0:0:0:
320,192,102297,128,0,102711:0:0:0:0:
192,192,102401,1,0,0:0:0:0:
64,192,102504,1,0,0:0:0:0:
448,192,102711,128,0,103021:0:0:0:0:
64,192,102814,1,0,0:0:0:0:
320,192,102918,1,0,0:0:0:0:
192,192,103021,128,0,103332:0:0:0:0:
320,192,103125,1,0,0:0:0:0:
448,192,103228,1,0,0:0:0:0:
64,192,103332,128,0,103539:0:0:0:0:
320,192,103539,128,0,103952:0:0:0:0:
192,192,103642,1,0,0:0:0:0:
64,192,103746,1,0,0:0:0:0:
448,192,103952,128,0,104366:0:0:0:0:
64,192,104056,1,0,0:0:0:0:
320,192,104159,1,0,0:0:0:0:
64,192,104366,128,0,104677:0:0:0:0:
192,192,104470,1,0,0:0:0:0:
448,192,104573,1,0,0:0:0:0:
320,192,104677,128,0,104987:0:0:0:0:
64,192,104780,1,0,0:0:0:0:
448,192,104883,1,0,0:0:0:0:
192,192,104987,128,0,105194:0:0:0:0:
448,192,105194,128,0,105814:0:0:0:0:
320,192,105297,5,0,0:0:0:0:
64,192,105401,1,0,0:0:0:0:
192,192,105608,1,0,0:0:0:0:
320,192,105711,1,0,0:0:0:0:
64,192,105814,128,0,105918:0:0:0:0:
64,192,106021,128,0,106849:0:0:0:0:
192,192,106125,1,0,0:0:0:0:
448,192,106228,1,0,0:0:0:0:
320,192,106435,1,0,0:0:0:0:
192,192,106539,1,0,0:0:0:0:
448,192,106642,1,0,0:0:0:0:
192,192,106849,128,0,107159:0:0:0:0:
448,192,106952,1,0,0:0:0:0:
64,192,107056,1,0,0:0:0:0:
320,192,107159,128,0,107470:0:0:0:0:
448,192,107263,1,0,0:0:0:0:
64,192,107366,1,0,0:0:0:0:
192,192,107470,1,2,0:0:0:0:
64,192,107470,1,0,0:0:0:0:
448,192,107470,1,0,0:0:0:0:
64,192,107677,1,4,0:0:0:0:
192,192,107677,1,2,0:0:0:0:
448,192,107677,128,0,109332:0:0:0:0:
320,192,107677,128,0,108504:0:0:0:0:
192,192,107883,1,0,0:0:0:0:
64,192,108297,1,0,0:0:0:0:
192,192,108504,128,0,108814:0:0:0:0:
320,192,108711,1,0,0:0:0:0:
64,192,108814,128,0,109125:0:0:0:0:
192,192,109125,128,0,109332:0:0:0:0:
320,192,109332,128,0,110987:0:0:0:0:
64,192,109332,128,0,110159:0:0:0:0:
192,192,109539,1,0,0:0:0:0:
448,192,109952,1,0,0:0:0:0:
192,192,110159,128,0,110470:0:0:0:0:
64,192,110366,1,0,0:0:0:0:
448,192,110470,128,0,110780:0:0:0:0:
64,192,110780,128,0,110987:0:0:0:0:
192,192,110987,128,0,112642:0:0:0:0:
448,192,110987,128,0,111814:0:0:0:0:
320,192,111194,1,0,0:0:0:0:
64,192,111608,1,0,0:0:0:0:
320,192,111814,128,0,112125:0:0:0:0:
448,192,112021,1,0,0:0:0:0:
64,192,112125,128,0,112435:0:0:0:0:
320,192,112435,128,0,112642:0:0:0:0:
64,192,112642,128,0,114297:0:0:0:0:
448,192,112642,128,0,113263:0:0:0:0:
320,192,112849,1,0,0:0:0:0:
192,192,113263,128,0,113366:0:0:0:0:
192,192,113470,128,0,114297:0:0:0:0:
448,192,113677,1,0,0:0:0:0:
320,192,114090,1,0,0:0:0:0:
320,192,114297,128,0,115125:0:0:0:0:
448,192,114297,128,0,115539:0:0:0:0:
64,192,114504,1,0,0:0:0:0:
192,192,114918,1,0,0:0:0:0:
192,192,115125,128,0,115952:0:0:0:0:
64,192,115125,128,0,115539:0:0:0:0:
320,192,115332,1,0,0:0:0:0:
320,192,115539,128,0,115952:0:0:0:0:
448,192,115746,1,0,0:0:0:0:
448,192,115952,128,0,116780:0:0:0:0:
64,192,115952,128,0,116263:0:0:0:0:
320,192,116159,1,0,0:0:0:0:
192,192,116263,128,0,116573:0:0:0:0:
320,192,116573,128,0,116780:0:0:0:0:
64,192,116780,128,0,117608:0:0:0:0:
192,192,116780,128,0,117194:0:0:0:0:
448,192,116987,1,0,0:0:0:0:
448,192,117194,128,0,117608:0:0:0:0:
320,192,117401,1,0,0:0:0:0:
192,192,117608,128,0,119263:0:0:0:0:
320,192,117608,128,0,117918:0:0:0:0:
448,192,117814,1,0,0:0:0:0:
64,192,117918,128,0,118228:0:0:0:0:
448,192,118228,128,0,118435:0:0:0:0:
320,192,118435,128,0,119056:0:0:0:0:
64,192,118642,1,0,0:0:0:0:
448,192,119056,1,0,0:0:0:0:
64,192,119263,5,0,0:0:0:0:
320,192,119263,1,0,0:0:0:0:
448,192,119263,1,4,0:0:0:0:
192,192,119470,1,0,0:0:0:0:
320,192,119573,1,0,0:0:0:0:
448,192,119677,1,0,0:0:0:0:
64,192,119677,1,0,0:0:0:0:
320,192,119883,128,0,120090:0:0:0:0:
192,192,119987,1,0,0:0:0:0:
64,192,120090,128,0,120401:0:0:0:0:
448,192,120194,1,0,0:0:0:0:
320,192,120297,1,0,0:0:0:0:
192,192,120401,128,0,120711:0:0:0:0:
64,192,120504,1,0,0:0:0:0:
448,192,120504,1,0,0:0:0:100:clap 1.wav
448,192,120711,128,0,120918:0:0:0:0:
320,192,120711,1,0,0:0:0:100:clap 2.wav
192,192,120918,1,4,0:0:0:0:
320,192,120918,1,2,0:0:0:0:
64,192,120918,128,0,121746:0:0:0:0:
448,192,121021,1,0,0:0:0:0:
192,192,121125,1,0,0:0:0:0:
320,192,121228,1,0,0:0:0:0:
448,192,121332,1,0,0:0:0:0:
192,192,121332,1,8,0:0:0:0:
320,192,121435,1,0,0:0:0:0:
448,192,121539,1,0,0:0:0:0:
192,192,121642,1,0,0:0:0:0:
320,192,121746,1,2,0:0:0:0:
448,192,121746,128,0,122056:0:0:0:0:
64,192,121849,1,0,0:0:0:0:
320,192,121952,1,0,0:0:0:0:
192,192,122056,128,0,122366:0:0:0:0:
64,192,122159,1,8,0:0:0:0:
448,192,122159,1,0,0:0:0:0:
320,192,122263,1,0,0:0:0:0:
64,192,122366,128,0,122573:0:0:0:0:
448,192,122470,1,0,0:0:0:0:
192,192,122573,1,2,0:0:0:0:
320,192,122573,128,0,123401:0:0:0:0:
64,192,122677,1,0,0:0:0:0:
448,192,122780,1,0,0:0:0:0:
192,192,122883,1,0,0:0:0:0:
64,192,122987,1,0,0:0:0:0:
448,192,122987,1,8,0:0:0:0:
192,192,123090,1,0,0:0:0:0:
448,192,123194,1,0,0:0:0:0:
64,192,123297,1,0,0:0:0:0:
192,192,123401,1,2,0:0:0:0:
448,192,123401,128,0,123711:0:0:0:0:
320,192,123504,1,0,0:0:0:0:
64,192,123608,1,0,0:0:0:0:
192,192,123711,128,0,124021:0:0:0:0:
320,192,123814,1,8,0:0:0:0:
448,192,123814,1,0,0:0:0:0:
64,192,123918,1,0,0:0:0:0:
448,192,124021,128,0,124228:0:0:0:0:
320,192,124125,1,0,0:0:0:0:
192,192,124228,1,2,0:0:0:0:
64,192,124228,128,0,125056:0:0:0:0:
448,192,124332,1,0,0:0:0:0:
320,192,124435,1,0,0:0:0:0:
192,192,124539,1,0,0:0:0:0:
320,192,124642,1,8,0:0:0:0:
448,192,124642,1,0,0:0:0:0:
192,192,124746,1,0,0:0:0:0:
448,192,124849,1,0,0:0:0:0:
320,192,124952,1,0,0:0:0:0:
448,192,125056,1,2,0:0:0:0:
192,192,125056,128,0,125366:0:0:0:0:
64,192,125159,1,0,0:0:0:0:
448,192,125263,1,0,0:0:0:0:
320,192,125366,128,0,125677:0:0:0:0:
192,192,125470,1,8,0:0:0:0:
64,192,125470,1,0,0:0:0:0:
448,192,125573,1,0,0:0:0:0:
192,192,125677,128,0,125883:0:0:0:0:
64,192,125780,1,0,0:0:0:0:
320,192,125883,1,2,0:0:0:0:
448,192,125883,128,0,126504:0:0:0:0:
192,192,125987,1,0,0:0:0:0:
64,192,126090,1,0,0:0:0:0:
320,192,126194,1,0,0:0:0:0:
192,192,126297,1,8,0:0:0:0:
64,192,126297,1,0,0:0:0:0:
320,192,126401,1,0,0:0:0:0:
192,192,126504,128,0,126608:0:0:0:0:
448,192,126608,1,0,0:0:0:0:
192,192,126711,128,0,127539:0:0:0:0:
64,192,126711,1,2,0:0:0:0:
320,192,126814,1,0,0:0:0:0:
448,192,126918,1,0,0:0:0:0:
64,192,127021,1,0,0:0:0:0:
320,192,127125,1,8,0:0:0:0:
448,192,127125,1,0,0:0:0:0:
64,192,127228,1,0,0:0:0:0:
448,192,127332,1,0,0:0:0:0:
320,192,127435,1,0,0:0:0:0:
448,192,127539,1,2,0:0:0:0:
64,192,127539,128,0,127849:0:0:0:0:
320,192,127642,1,0,0:0:0:0:
192,192,127746,1,0,0:0:0:0:
320,192,127849,128,0,128159:0:0:0:0:
64,192,127952,1,8,0:0:0:0:
448,192,127952,1,0,0:0:0:0:
192,192,128056,1,0,0:0:0:0:
448,192,128159,128,0,128366:0:0:0:0:
64,192,128263,1,0,0:0:0:0:
320,192,128366,1,2,0:0:0:0:
192,192,128366,128,0,128677:0:0:0:0:
448,192,128470,1,0,0:0:0:0:
64,192,128573,1,0,0:0:0:0:
320,192,128677,128,0,128780:0:0:0:0:
64,192,128780,1,8,0:0:0:0:
448,192,128780,128,0,128987:0:0:0:0:
192,192,128883,1,0,0:0:0:0:
64,192,128987,128,0,129090:0:0:0:0:
448,192,129090,1,0,0:0:0:0:
192,192,129194,1,2,0:0:0:0:
64,192,129194,128,0,129504:0:0:0:0:
448,192,129297,1,0,0:0:0:0:
320,192,129401,1,0,0:0:0:0:
192,192,129504,128,0,129814:0:0:0:0:
64,192,129608,1,0,0:0:0:0:
448,192,129608,1,8,0:0:0:0:
320,192,129711,1,0,0:0:0:0:
448,192,129814,128,0,130021:0:0:0:0:
64,192,129918,1,0,0:0:0:0:
192,192,130021,1,2,0:0:0:0:
320,192,130021,128,0,130435:0:0:0:0:
448,192,130125,1,0,0:0:0:0:
64,192,130228,1,0,0:0:0:0:
192,192,130332,1,0,0:0:0:0:
448,192,130435,1,8,0:0:0:0:
64,192,130435,128,0,130849:0:0:0:0:
320,192,130539,1,0,0:0:0:0:
192,192,130642,1,0,0:0:0:0:
448,192,130746,1,0,0:0:0:0:
320,192,130849,1,2,0:0:0:0:
192,192,130849,128,0,131159:0:0:0:0:
64,192,130952,1,0,0:0:0:0:
448,192,131056,1,0,0:0:0:0:
320,192,131159,128,0,131470:0:0:0:0:
64,192,131263,1,8,0:0:0:0:
448,192,131263,1,0,0:0:0:0:
192,192,131366,1,0,0:0:0:0:
448,192,131470,128,0,131677:0:0:0:0:
320,192,131573,1,0,0:0:0:0:
64,192,131677,128,0,132504:0:0:0:0:
192,192,131677,1,2,0:0:0:0:
320,192,131780,1,0,0:0:0:0:
448,192,131883,1,0,0:0:0:0:
192,192,131987,1,0,0:0:0:0:
320,192,132090,1,8,0:0:0:0:
448,192,132090,1,0,0:0:0:0:
192,192,132194,1,0,0:0:0:0:
320,192,132297,1,0,0:0:0:0:
448,192,132401,1,0,0:0:0:0:
320,192,132504,1,2,0:0:0:0:
192,192,132504,128,0,133332:0:0:0:0:
64,192,132608,1,0,0:0:0:0:
448,192,132711,1,0,0:0:0:0:
320,192,132814,1,0,0:0:0:0:
64,192,132918,1,0,0:0:0:0:
448,192,132918,1,8,0:0:0:0:
320,192,133021,1,0,0:0:0:0:
64,192,133125,1,0,0:0:0:0:
448,192,133228,1,0,0:0:0:0:
64,192,133332,1,2,0:0:0:0:
320,192,133332,128,0,133642:0:0:0:0:
448,192,133435,1,0,0:0:0:0:
64,192,133539,1,0,0:0:0:0:
192,192,133642,128,0,133952:0:0:0:0:
320,192,133746,1,0,0:0:0:0:
448,192,133849,1,0,0:0:0:0:
64,192,133952,128,0,134159:0:0:0:0:
448,192,134056,1,0,0:0:0:0:
320,192,134159,1,4,0:0:0:0:
192,192,134159,1,2,0:0:0:0:
448,192,134159,128,0,134987:0:0:0:0:
64,192,134263,1,0,0:0:0:0:
320,192,134366,1,0,0:0:0:0:
192,192,134470,1,0,0:0:0:0:
64,192,134573,1,0,0:0:0:0:
320,192,134573,1,8,0:0:0:0:
192,192,134677,1,0,0:0:0:0:
64,192,134780,1,0,0:0:0:0:
320,192,134883,1,0,0:0:0:0:
192,192,134987,1,2,0:0:0:0:
64,192,134987,128,0,135297:0:0:0:0:
448,192,135090,1,0,0:0:0:0:
192,192,135194,1,0,0:0:0:0:
320,192,135297,128,0,135608:0:0:0:0:
448,192,135401,1,8,0:0:0:0:
64,192,135401,1,0,0:0:0:0:
192,192,135504,1,0,0:0:0:0:
448,192,135608,128,0,135814:0:0:0:0:
64,192,135711,1,0,0:0:0:0:
320,192,135814,1,2,0:0:0:0:
192,192,135814,128,0,136642:0:0:0:0:
448,192,135918,1,0,0:0:0:0:
64,192,136021,1,0,0:0:0:0:
320,192,136125,1,0,0:0:0:0:
448,192,136228,1,0,0:0:0:0:
64,192,136228,1,8,0:0:0:0:
320,192,136332,1,0,0:0:0:0:
64,192,136435,1,0,0:0:0:0:
448,192,136539,1,0,0:0:0:0:
320,192,136642,1,2,0:0:0:0:
64,192,136642,128,0,136952:0:0:0:0:
192,192,136746,1,0,0:0:0:0:
448,192,136849,1,0,0:0:0:0:
320,192,136952,128,0,137263:0:0:0:0:
192,192,137056,1,8,0:0:0:0:
64,192,137056,1,0,0:0:0:0:
448,192,137159,1,0,0:0:0:0:
64,192,137263,128,0,137470:0:0:0:0:
192,192,137366,1,0,0:0:0:0:
320,192,137470,1,2,0:0:0:0:
448,192,137470,128,0,138297:0:0:0:0:
64,192,137573,1,0,0:0:0:0:
192,192,137677,1,0,0:0:0:0:
320,192,137780,1,0,0:0:0:0:
192,192,137883,1,8,0:0:0:0:
64,192,137883,1,0,0:0:0:0:
320,192,137987,1,0,0:0:0:0:
64,192,138090,1,0,0:0:0:0:
192,192,138194,1,0,0:0:0:0:
64,192,138297,1,2,0:0:0:0:
320,192,138297,128,0,138608:0:0:0:0:
448,192,138401,1,0,0:0:0:0:
64,192,138504,1,0,0:0:0:0:
192,192,138608,128,0,138918:0:0:0:0:
320,192,138711,1,8,0:0:0:0:
448,192,138711,1,0,0:0:0:0:
64,192,138814,1,0,0:0:0:0:
320,192,138918,128,0,139125:0:0:0:0:
448,192,139021,1,0,0:0:0:0:
192,192,139125,1,2,0:0:0:0:
64,192,139125,128,0,139746:0:0:0:0:
320,192,139228,1,0,0:0:0:0:
448,192,139332,1,0,0:0:0:0:
192,192,139435,1,0,0:0:0:0:
320,192,139539,1,8,0:0:0:0:
448,192,139539,1,0,0:0:0:0:
192,192,139642,1,0,0:0:0:0:
320,192,139746,128,0,139849:0:0:0:0:
64,192,139849,1,0,0:0:0:0:
320,192,139952,128,0,140780:0:0:0:0:
448,192,139952,1,2,0:0:0:0:
192,192,140056,1,0,0:0:0:0:
64,192,140159,1,0,0:0:0:0:
448,192,140263,1,0,0:0:0:0:
192,192,140366,1,8,0:0:0:0:
64,192,140366,1,0,0:0:0:0:
448,192,140470,1,0,0:0:0:0:
64,192,140573,1,0,0:0:0:0:
192,192,140677,1,0,0:0:0:0:
64,192,140780,1,2,0:0:0:0:
448,192,140780,128,0,141090:0:0:0:0:
192,192,140883,1,0,0:0:0:0:
320,192,140987,1,0,0:0:0:0:
192,192,141090,128,0,141401:0:0:0:0:
448,192,141194,1,8,0:0:0:0:
64,192,141194,1,0,0:0:0:0:
320,192,141297,1,0,0:0:0:0:
64,192,141401,128,0,141608:0:0:0:0:
448,192,141504,1,0,0:0:0:0:
192,192,141608,1,2,0:0:0:0:
320,192,141608,128,0,141918:0:0:0:0:
64,192,141711,1,0,0:0:0:0:
448,192,141814,1,0,0:0:0:0:
192,192,141918,128,0,142228:0:0:0:0:
64,192,142021,1,8,0:0:0:0:
448,192,142021,1,0,0:0:0:0:
320,192,142125,1,0,0:0:0:0:
448,192,142228,128,0,142332:0:0:0:0:
64,192,142332,1,0,0:0:0:0:
320,192,142435,1,2,0:0:0:0:
448,192,142435,128,0,142746:0:0:0:0:
64,192,142539,1,0,0:0:0:0:
192,192,142642,1,0,0:0:0:0:
320,192,142746,128,0,143056:0:0:0:0:
448,192,142849,1,8,0:0:0:0:
64,192,142849,1,0,0:0:0:0:
192,192,142952,1,0,0:0:0:0:
64,192,143056,128,0,143263:0:0:0:0:
448,192,143159,1,0,0:0:0:0:
320,192,143263,1,2,0:0:0:0:
192,192,143263,128,0,143677:0:0:0:0:
64,192,143366,1,0,0:0:0:0:
448,192,143470,1,0,0:0:0:0:
320,192,143573,1,0,0:0:0:0:
64,192,143677,1,8,0:0:0:0:
448,192,143677,128,0,144090:0:0:0:0:
192,192,143780,1,0,0:0:0:0:
320,192,143883,1,0,0:0:0:0:
64,192,143987,1,0,0:0:0:0:
192,192,144090,1,2,0:0:0:0:
320,192,144090,128,0,144401:0:0:0:0:
448,192,144194,1,0,0:0:0:0:
64,192,144297,1,0,0:0:0:0:
192,192,144401,128,0,144711:0:0:0:0:
448,192,144504,1,8,0:0:0:0:
64,192,144504,1,0,0:0:0:0:
320,192,144608,1,0,0:0:0:0:
64,192,144711,128,0,144918:0:0:0:0:
192,192,144814,1,0,0:0:0:0:
448,192,144918,128,0,145746:0:0:0:0:
320,192,144918,1,2,0:0:0:0:
192,192,145021,1,0,0:0:0:0:
64,192,145125,1,0,0:0:0:0:
320,192,145228,1,0,0:0:0:0:
192,192,145332,1,8,0:0:0:0:
64,192,145332,1,0,0:0:0:0:
320,192,145435,1,0,0:0:0:0:
192,192,145539,1,0,0:0:0:0:
64,192,145642,1,0,0:0:0:0:
320,192,145746,128,0,146987:0:0:0:0:
64,192,145952,128,0,146159:0:0:0:0:
192,192,146366,128,0,146573:0:0:0:0:
448,192,146780,128,0,146987:0:0:0:0:
64,192,146987,1,0,0:0:0:0:
192,192,146987,1,0,0:0:0:100:clap 1.wav
320,192,147194,1,0,0:0:0:100:clap 2.wav
448,192,147194,1,0,0:0:0:0:
192,192,147194,1,0,0:0:0:0:
320,192,147401,1,2,0:0:0:0:
448,192,147401,1,4,0:0:0:0:
64,192,147401,128,0,147608:0:0:0:0:
192,192,147608,1,0,0:0:0:0:
320,192,147711,1,0,0:0:0:0:
448,192,147814,1,0,0:0:0:0:
192,192,147814,1,8,0:0:0:0:
64,192,147814,1,0,0:0:0:0:
320,192,148021,128,0,148228:0:0:0:0:
64,192,148228,1,2,0:0:0:0:
448,192,148228,1,0,0:0:0:0:
192,192,148332,1,0,0:0:0:0:
320,192,148435,1,0,0:0:0:0:
64,192,148642,1,0,0:0:0:0:
192,192,148642,1,8,0:0:0:0:
448,192,148642,128,0,148849:0:0:0:0:
320,192,148849,1,0,0:0:0:0:
192,192,148952,1,0,0:0:0:0:
448,192,149056,1,0,0:0:0:0:
64,192,149056,1,2,0:0:0:0:
320,192,149159,1,0,0:0:0:0:
192,192,149263,128,0,149470:0:0:0:0:
448,192,149470,1,0,0:0:0:0:
320,192,149470,1,0,0:0:0:0:
64,192,149470,1,8,0:0:0:0:
192,192,149573,1,0,0:0:0:0:
320,192,149677,1,0,0:0:0:0:
64,192,149780,1,0,0:0:0:0:
192,192,149883,1,2,0:0:0:0:
448,192,149883,128,0,150090:0:0:0:0:
320,192,150090,1,0,0:0:0:0:
448,192,150297,1,0,0:0:0:0:
192,192,150297,1,8,0:0:0:0:
64,192,150297,128,0,150504:0:0:0:0:
320,192,150504,1,0,0:0:0:0:
192,192,150608,1,0,0:0:0:0:
64,192,150711,1,2,0:0:0:0:
448,192,150711,128,0,150918:0:0:0:0:
192,192,150918,1,0,0:0:0:0:
320,192,151021,1,0,0:0:0:0:
448,192,151125,1,0,0:0:0:0:
64,192,151125,1,0,0:0:0:0:
192,192,151125,1,8,0:0:0:0:
320,192,151332,128,0,151539:0:0:0:0:
64,192,151539,1,0,0:0:0:0:
448,192,151539,1,2,0:0:0:0:
192,192,151642,1,0,0:0:0:0:
448,192,151746,1,0,0:0:0:0:
320,192,151849,1,0,0:0:0:0:
192,192,151952,1,8,0:0:0:0:
64,192,151952,1,0,0:0:0:0:
448,192,151952,128,0,152159:0:0:0:0:
64,192,152159,1,0,0:0:0:0:
448,192,152263,1,0,0:0:0:0:
192,192,152366,1,0,0:0:0:0:
320,192,152366,1,2,0:0:0:0:
64,192,152573,128,0,152780:0:0:0:0:
320,192,152780,1,0,0:0:0:0:
192,192,152780,1,8,0:0:0:0:
448,192,152780,1,0,0:0:0:0:
64,192,152883,1,0,0:0:0:0:
448,192,152987,1,0,0:0:0:0:
192,192,153090,1,0,0:0:0:0:
64,192,153194,1,2,0:0:0:0:
320,192,153194,128,0,153401:0:0:0:0:
64,192,153401,1,0,0:0:0:0:
192,192,153608,1,8,0:0:0:0:
320,192,153608,1,0,0:0:0:0:
448,192,153608,128,0,153814:0:0:0:0:
64,192,153814,1,0,0:0:0:0:
448,192,153918,1,0,0:0:0:0:
320,192,154021,1,2,0:0:0:0:
192,192,154021,128,0,154228:0:0:0:0:
448,192,154228,1,0,0:0:0:0:
64,192,154332,1,0,0:0:0:0:
192,192,154435,1,8,0:0:0:0:
448,192,154435,1,0,0:0:0:0:
320,192,154435,1,0,0:0:0:0:
320,192,154642,128,0,154849:0:0:0:0:
448,192,154849,1,0,0:0:0:0:
192,192,154849,1,2,0:0:0:0:
64,192,154952,1,0,0:0:0:0:
320,192,155056,1,0,0:0:0:0:
192,192,155263,1,8,0:0:0:0:
448,192,155263,1,0,0:0:0:0:
64,192,155263,128,0,155470:0:0:0:0:
448,192,155470,1,0,0:0:0:0:
192,192,155573,1,0,0:0:0:0:
64,192,155677,1,0,0:0:0:0:
320,192,155677,1,2,0:0:0:0:
448,192,155883,128,0,156090:0:0:0:0:
320,192,156090,1,0,0:0:0:0:
64,192,156090,1,0,0:0:0:0:
192,192,156090,1,8,0:0:0:0:
448,192,156194,1,0,0:0:0:0:
64,192,156297,1,0,0:0:0:0:
192,192,156401,1,0,0:0:0:0:
448,192,156504,1,2,0:0:0:0:
320,192,156504,128,0,156711:0:0:0:0:
192,192,156711,1,0,0:0:0:0:
320,192,156918,1,8,0:0:0:0:
448,192,156918,1,0,0:0:0:0:
64,192,156918,128,0,157125:0:0:0:0:
192,192,157125,1,0,0:0:0:0:
320,192,157228,1,0,0:0:0:0:
64,192,157332,1,2,0:0:0:0:
448,192,157332,128,0,157539:0:0:0:0:
192,192,157539,1,0,0:0:0:0:
320,192,157642,1,0,0:0:0:0:
64,192,157746,1,0,0:0:0:0:
192,192,157746,1,8,0:0:0:0:
448,192,157746,1,0,0:0:0:0:
320,192,157849,1,0,0:0:0:0:
64,192,157952,128,0,158159:0:0:0:0:
448,192,158159,1,0,0:0:0:0:
320,192,158159,1,2,0:0:0:0:
192,192,158263,1,0,0:0:0:0:
448,192,158366,128,0,158470:0:0:0:0:
64,192,158470,1,0,0:0:0:0:
320,192,158573,1,8,0:0:0:0:
192,192,158573,1,0,0:0:0:0:
448,192,158573,128,0,158780:0:0:0:0:
64,192,158780,1,0,0:0:0:0:
320,192,158987,1,2,0:0:0:0:
192,192,158987,128,0,159194:0:0:0:0:
64,192,159194,1,0,0:0:0:0:
448,192,159297,1,0,0:0:0:0:
192,192,159401,1,8,0:0:0:0:
320,192,159401,1,0,0:0:0:0:
64,192,159401,1,0,0:0:0:0:
448,192,159608,128,0,159814:0:0:0:0:
192,192,159814,1,2,0:0:0:0:
64,192,159814,1,0,0:0:0:0:
320,192,159918,1,0,0:0:0:0:
64,192,160021,128,0,160125:0:0:0:0:
448,192,160125,1,0,0:0:0:0:
64,192,160228,128,0,160435:0:0:0:0:
320,192,160228,1,0,0:0:0:0:
192,192,160435,128,0,160642:0:0:0:0:
448,192,160435,1,0,0:0:0:0:
320,192,160642,1,2,0:0:0:0:
64,192,160642,1,4,0:0:0:0:
448,192,160642,128,0,160849:0:0:0:0:
192,192,160849,1,0,0:0:0:0:
320,192,160952,1,0,0:0:0:0:
448,192,161056,1,0,0:0:0:0:
192,192,161056,1,8,0:0:0:0:
64,192,161056,1,0,0:0:0:0:
64,192,161263,128,0,161470:0:0:0:0:
320,192,161470,1,2,0:0:0:0:
192,192,161470,1,0,0:0:0:0:
448,192,161573,1,0,0:0:0:0:
64,192,161677,1,0,0:0:0:0:
320,192,161883,1,8,0:0:0:0:
448,192,161883,1,0,0:0:0:0:
192,192,161883,128,0,162090:0:0:0:0:
448,192,162090,1,0,0:0:0:0:
320,192,162194,1,0,0:0:0:0:
192,192,162297,1,2,0:0:0:0:
64,192,162297,1,0,0:0:0:0:
448,192,162504,128,0,162711:0:0:0:0:
320,192,162711,1,8,0:0:0:0:
192,192,162711,1,0,0:0:0:0:
64,192,162711,1,0,0:0:0:0:
448,192,162814,1,0,0:0:0:0:
192,192,162918,1,0,0:0:0:0:
320,192,163021,1,0,0:0:0:0:
448,192,163125,1,2,0:0:0:0:
64,192,163125,128,0,163332:0:0:0:0:
192,192,163332,1,0,0:0:0:0:
64,192,163539,1,0,0:0:0:0:
448,192,163539,1,0,0:0:0:0:
320,192,163539,128,8,163746:0:0:0:0:
192,192,163746,1,0,0:0:0:0:
448,192,163952,1,2,0:0:0:0:
64,192,163952,128,0,164159:0:0:0:0:
320,192,164159,1,0,0:0:0:0:
192,192,164263,1,0,0:0:0:0:
320,192,164366,1,8,0:0:0:0:
448,192,164366,1,0,0:0:0:0:
64,192,164366,1,0,0:0:0:0:
192,192,164573,128,0,164780:0:0:0:0:
64,192,164780,1,2,0:0:0:0:
448,192,164780,1,0,0:0:0:0:
320,192,164883,1,0,0:0:0:0:
192,192,164987,1,0,0:0:0:0:
320,192,165090,1,0,0:0:0:0:
192,192,165194,1,8,0:0:0:0:
64,192,165194,1,0,0:0:0:0:
448,192,165194,128,0,165401:0:0:0:0:
64,192,165401,1,0,0:0:0:0:
320,192,165504,1,0,0:0:0:0:
192,192,165608,1,2,0:0:0:0:
448,192,165608,1,0,0:0:0:0:
320,192,165814,128,0,166021:0:0:0:0:
64,192,166021,1,0,0:0:0:0:
192,192,166021,1,8,0:0:0:0:
448,192,166021,1,0,0:0:0:0:
320,192,166125,1,0,0:0:0:0:
64,192,166228,1,0,0:0:0:0:
192,192,166332,1,0,0:0:0:0:
320,192,166435,1,2,0:0:0:0:
448,192,166435,128,0,166642:0:0:0:0:
192,192,166642,1,0,0:0:0:0:
448,192,166849,1,0,0:0:0:0:
320,192,166849,1,8,0:0:0:0:
64,192,166849,128,0,167056:0:0:0:0:
320,192,167056,1,0,0:0:0:0:
448,192,167263,1,2,0:0:0:0:
192,192,167263,128,0,167470:0:0:0:0:
320,192,167470,1,0,0:0:0:0:
64,192,167573,1,0,0:0:0:0:
448,192,167677,1,0,0:0:0:0:
320,192,167677,1,0,0:0:0:0:
192,192,167677,1,8,0:0:0:0:
64,192,167883,128,0,168090:0:0:0:0:
192,192,168090,1,2,0:0:0:0:
448,192,168090,1,0,0:0:0:0:
320,192,168194,1,0,0:0:0:0:
192,192,168297,1,0,0:0:0:0:
448,192,168401,1,0,0:0:0:0:
192,192,168504,1,0,0:0:0:0:
64,192,168504,1,8,0:0:0:0:
320,192,168504,128,0,168711:0:0:0:0:
448,192,168711,1,0,0:0:0:0:
64,192,168814,1,0,0:0:0:0:
192,192,168918,1,2,0:0:0:0:
320,192,168918,1,0,0:0:0:0:
448,192,169125,128,0,169332:0:0:0:0:
320,192,169332,1,8,0:0:0:0:
192,192,169332,1,0,0:0:0:0:
64,192,169332,1,0,0:0:0:0:
448,192,169435,1,0,0:0:0:0:
64,192,169539,1,0,0:0:0:0:
192,192,169642,1,0,0:0:0:0:
448,192,169746,1,2,0:0:0:0:
320,192,169746,128,0,169952:0:0:0:0:
192,192,169952,1,0,0:0:0:0:
448,192,170159,1,8,0:0:0:0:
64,192,170159,128,0,170366:0:0:0:0:
320,192,170366,1,0,0:0:0:0:
192,192,170573,1,2,0:0:0:0:
448,192,170573,128,0,170780:0:0:0:0:
64,192,170780,1,0,0:0:0:0:
320,192,170883,1,0,0:0:0:0:
448,192,170987,1,8,0:0:0:0:
192,192,170987,1,0,0:0:0:0:
64,192,170987,1,0,0:0:0:0:
320,192,171090,1,0,0:0:0:0:
192,192,171194,128,0,171401:0:0:0:0:
448,192,171401,1,2,0:0:0:0:
64,192,171401,1,0,0:0:0:0:
320,192,171504,1,0,0:0:0:0:
64,192,171608,128,0,171711:0:0:0:0:
448,192,171711,1,0,0:0:0:0:
64,192,171814,128,0,172021:0:0:0:0:
320,192,171814,1,8,0:0:0:0:
192,192,171814,1,0,0:0:0:0:
448,192,172021,1,0,0:0:0:0:
320,192,172228,128,0,172435:0:0:0:0:
192,192,172228,1,0,0:0:0:0:
64,192,172435,1,0,0:0:0:0:
192,192,172539,1,0,0:0:0:0:
448,192,172642,1,0,0:0:0:0:
320,192,172642,1,0,0:0:0:0:
64,192,172849,128,0,173056:0:0:0:0:
192,192,173056,1,0,0:0:0:0:
320,192,173159,1,0,0:0:0:0:
448,192,173263,128,0,173366:0:0:0:0:
64,192,173366,1,0,0:0:0:0:
448,192,173470,128,0,173677:0:0:0:0:
192,192,173470,1,0,0:0:0:0:
64,192,173677,128,0,173883:0:0:0:0:
192,192,173883,1,2,0:0:0:0:
320,192,173883,1,4,0:0:0:0:
448,192,173883,128,0,174711:0:0:0:0:
64,192,174090,1,0,0:0:0:0:
320,192,174297,1,8,0:0:0:0:
192,192,174297,1,0,0:0:0:0:
64,192,174297,1,0,0:0:0:0:
192,192,174504,1,0,0:0:0:0:
64,192,174711,128,0,175539:0:0:0:0:
320,192,174711,1,2,0:0:0:0:
192,192,174918,1,0,0:0:0:0:
448,192,175125,1,0,0:0:0:0:
320,192,175125,1,0,0:0:0:0:
192,192,175125,1,8,0:0:0:0:
448,192,175332,1,0,0:0:0:0:
192,192,175539,128,0,175952:0:0:0:0:
320,192,175539,1,2,0:0:0:0:
64,192,175746,1,0,0:0:0:0:
448,192,175952,1,0,0:0:0:0:
320,192,175952,1,8,0:0:0:0:
64,192,175952,1,0,0:0:0:0:
448,192,176159,1,0,0:0:0:0:
320,192,176366,128,0,176987:0:0:0:0:
64,192,176366,1,2,0:0:0:0:
192,192,176573,1,0,0:0:0:0:
448,192,176780,1,0,0:0:0:0:
192,192,176780,1,8,0:0:0:0:
64,192,176780,1,0,0:0:0:0:
448,192,176987,128,0,177194:0:0:0:0:
64,192,177194,128,0,177608:0:0:0:0:
192,192,177194,1,2,0:0:0:0:
320,192,177401,1,0,0:0:0:0:
320,192,177608,1,8,0:0:0:0:
192,192,177608,1,0,0:0:0:0:
448,192,177608,1,0,0:0:0:0:
448,192,177814,128,0,178228:0:0:0:0:
192,192,178021,1,2,0:0:0:0:
64,192,178021,1,0,0:0:0:0:
320,192,178228,1,0,0:0:0:0:
192,192,178435,128,0,178849:0:0:0:0:
448,192,178435,1,0,0:0:0:0:
64,192,178435,1,8,0:0:0:0:
448,192,178642,1,0,0:0:0:0:
64,192,178849,128,0,179263:0:0:0:0:
320,192,178849,1,2,0:0:0:0:
192,192,179056,1,0,0:0:0:0:
448,192,179263,1,0,0:0:0:0:
320,192,179263,1,8,0:0:0:0:
192,192,179263,1,0,0:0:0:0:
64,192,179470,1,0,0:0:0:0:
448,192,179677,1,2,0:0:0:0:
320,192,179677,128,0,180090:0:0:0:0:
64,192,179883,1,0,0:0:0:0:
192,192,180090,128,0,180504:0:0:0:0:
64,192,180090,1,8,0:0:0:0:
448,192,180090,1,0,0:0:0:0:
448,192,180297,1,0,0:0:0:0:
64,192,180504,128,0,180918:0:0:0:0:
320,192,180504,1,2,0:0:0:0:
192,192,180711,1,0,0:0:0:0:
448,192,180918,1,0,0:0:0:0:
320,192,180918,1,8,0:0:0:0:
192,192,180918,128,0,181125:0:0:0:0:
448,192,181125,128,0,182159:0:0:0:0:
320,192,181332,1,0,0:0:0:0:
64,192,181332,1,2,0:0:0:0:
192,192,181539,1,0,0:0:0:0:
320,192,181746,1,0,0:0:0:0:
192,192,181746,1,8,0:0:0:0:
64,192,181746,1,0,0:0:0:0:
320,192,181952,1,0,0:0:0:0:
192,192,182159,1,0,0:0:0:0:
64,192,182159,1,2,0:0:0:0:
320,192,182366,1,0,0:0:0:0:
448,192,182573,1,8,0:0:0:0:
64,192,182573,1,0,0:0:0:0:
192,192,182573,128,0,182987:0:0:0:0:
64,192,182780,1,0,0:0:0:0:
320,192,182987,128,0,183608:0:0:0:0:
448,192,182987,1,2,0:0:0:0:
192,192,183194,1,0,0:0:0:0:
448,192,183401,1,0,0:0:0:0:
192,192,183401,1,8,0:0:0:0:
64,192,183401,1,0,0:0:0:0:
64,192,183608,128,0,183814:0:0:0:0:
448,192,183814,128,0,185263:0:0:0:0:
192,192,183814,1,2,0:0:0:0:
320,192,184021,1,0,0:0:0:0:
320,192,184228,1,8,0:0:0:0:
192,192,184228,1,0,0:0:0:0:
64,192,184228,1,0,0:0:0:0:
64,192,184435,1,0,0:0:0:0:
320,192,184642,1,0,0:0:0:0:
192,192,184642,1,2,0:0:0:0:
64,192,184849,1,0,0:0:0:0:
320,192,185056,1,0,0:0:0:0:
64,192,185056,1,0,0:0:0:0:
192,192,185056,1,8,0:0:0:0:
320,192,185263,1,0,0:0:0:0:
64,192,185470,1,4,0:0:0:0:
192,192,185470,1,2,0:0:0:0:
448,192,185470,1,0,0:0:0:0:
320,192,185677,1,0,0:0:0:0:
192,192,185780,1,0,0:0:0:0:
64,192,185883,1,0,0:0:0:0:
448,192,185883,1,0,0:0:0:0:
192,192,186090,1,0,0:0:0:0:
320,192,186194,1,0,0:0:0:0:
192,192,186297,128,0,186711:0:0:0:0:
448,192,186401,1,0,0:0:0:0:
64,192,186504,1,0,0:0:0:0:
320,192,186608,1,0,0:0:0:0:
64,192,186711,128,0,187125:0:0:0:0:
448,192,186711,1,0,0:0:0:100:clap 1.wav
320,192,186918,1,0,0:0:0:100:clap 2.wav
192,192,186918,1,0,0:0:0:0:
320,192,187125,1,4,0:0:0:0:
192,192,187125,1,2,0:0:0:0:
448,192,187125,128,0,187539:0:0:0:0:
64,192,187332,1,0,0:0:0:0:
64,192,187539,1,8,0:0:0:0:
192,192,187539,128,0,187642:0:0:0:0:
448,192,187642,1,0,0:0:0:0:
192,192,187746,128,0,188366:0:0:0:0:
64,192,187849,1,0,0:0:0:0:
320,192,187952,1,2,0:0:0:0:
448,192,187952,1,0,0:0:0:0:
64,192,188056,1,0,0:0:0:0:
448,192,188159,1,0,0:0:0:0:
320,192,188263,1,0,0:0:0:0:
64,192,188366,1,8,0:0:0:0:
448,192,188366,1,0,0:0:0:0:
192,192,188470,1,0,0:0:0:0:
320,192,188573,128,0,188780:0:0:0:0:
64,192,188677,1,0,0:0:0:0:
192,192,188780,1,2,0:0:0:0:
448,192,188780,128,0,189401:0:0:0:0:
320,192,188883,1,0,0:0:0:0:
64,192,188987,1,0,0:0:0:0:
320,192,189090,1,0,0:0:0:0:
192,192,189194,1,0,0:0:0:0:
64,192,189194,1,8,0:0:0:0:
320,192,189297,1,0,0:0:0:0:
192,192,189401,128,0,189814:0:0:0:0:
64,192,189504,1,0,0:0:0:0:
320,192,189608,1,2,0:0:0:0:
448,192,189608,1,0,0:0:0:0:
64,192,189711,1,0,0:0:0:0:
448,192,189814,1,0,0:0:0:0:
320,192,189918,1,0,0:0:0:0:
64,192,190021,128,0,190435:0:0:0:0:
192,192,190021,1,8,0:0:0:0:
448,192,190125,1,0,0:0:0:0:
320,192,190228,1,0,0:0:0:0:
192,192,190332,1,0,0:0:0:0:
448,192,190435,128,0,190849:0:0:0:0:
320,192,190435,1,2,0:0:0:0:
192,192,190539,1,0,0:0:0:0:
64,192,190642,1,0,0:0:0:0:
320,192,190746,1,0,0:0:0:0:
64,192,190849,1,0,0:0:0:0:
192,192,190849,1,8,0:0:0:0:
448,192,190952,1,0,0:0:0:0:
320,192,191056,1,0,0:0:0:0:
64,192,191159,1,0,0:0:0:0:
448,192,191263,1,2,0:0:0:0:
192,192,191263,128,0,191573:0:0:0:0:
320,192,191366,1,0,0:0:0:0:
64,192,191470,1,0,0:0:0:0:
448,192,191573,128,0,191883:0:0:0:0:
64,192,191677,1,0,0:0:0:0:
192,192,191677,1,8,0:0:0:0:
320,192,191780,1,0,0:0:0:0:
64,192,191883,128,0,192090:0:0:0:0:
192,192,191987,1,0,0:0:0:0:
448,192,192090,1,2,0:0:0:0:
320,192,192090,128,0,192504:0:0:0:0:
192,192,192194,1,0,0:0:0:0:
64,192,192297,1,0,0:0:0:0:
448,192,192401,1,0,0:0:0:0:
192,192,192504,1,0,0:0:0:0:
64,192,192504,1,8,0:0:0:0:
448,192,192608,1,0,0:0:0:0:
192,192,192711,128,0,192918:0:0:0:0:
64,192,192814,1,0,0:0:0:0:
320,192,192918,1,2,0:0:0:0:
448,192,192918,128,0,193332:0:0:0:0:
192,192,193021,1,0,0:0:0:0:
64,192,193125,1,0,0:0:0:0:
320,192,193228,1,0,0:0:0:0:
192,192,193332,1,8,0:0:0:0:
64,192,193332,1,0,0:0:0:0:
448,192,193435,1,0,0:0:0:0:
192,192,193539,1,0,0:0:0:0:
320,192,193642,1,0,0:0:0:0:
64,192,193746,1,2,0:0:0:0:
448,192,193746,128,0,194056:0:0:0:0:
192,192,193849,1,0,0:0:0:0:
320,192,193952,1,0,0:0:0:0:
64,192,194056,128,0,194366:0:0:0:0:
192,192,194159,1,0,0:0:0:0:
448,192,194159,1,8,0:0:0:0:
320,192,194263,1,0,0:0:0:0:
192,192,194366,128,0,194573:0:0:0:0:
448,192,194470,1,0,0:0:0:0:
64,192,194573,1,2,0:0:0:0:
320,192,194573,128,0,194883:0:0:0:0:
192,192,194677,1,0,0:0:0:0:
448,192,194780,1,0,0:0:0:0:
64,192,194883,128,0,195194:0:0:0:0:
192,192,194987,1,8,0:0:0:0:
320,192,194987,1,0,0:0:0:0:
448,192,195090,1,0,0:0:0:0:
192,192,195194,128,0,195401:0:0:0:0:
320,192,195297,1,0,0:0:0:0:
64,192,195401,1,2,0:0:0:0:
448,192,195401,128,0,195711:0:0:0:0:
192,192,195504,1,0,0:0:0:0:
320,192,195608,1,0,0:0:0:0:
64,192,195711,128,0,196021:0:0:0:0:
320,192,195814,1,8,0:0:0:0:
448,192,195814,1,0,0:0:0:0:
192,192,195918,1,0,0:0:0:0:
320,192,196021,128,0,196228:0:0:0:0:
192,192,196125,1,0,0:0:0:0:
64,192,196228,1,2,0:0:0:0:
448,192,196228,128,0,196642:0:0:0:0:
320,192,196332,1,0,0:0:0:0:
192,192,196435,1,0,0:0:0:0:
64,192,196539,1,0,0:0:0:0:
320,192,196642,1,0,0:0:0:0:
192,192,196642,1,8,0:0:0:0:
448,192,196746,1,0,0:0:0:0:
64,192,196849,1,0,0:0:0:0:
192,192,196952,1,0,0:0:0:0:
448,192,197056,1,2,0:0:0:0:
320,192,197056,128,0,197470:0:0:0:0:
64,192,197159,1,0,0:0:0:0:
192,192,197263,1,0,0:0:0:0:
448,192,197366,1,0,0:0:0:0:
64,192,197470,1,0,0:0:0:0:
192,192,197470,1,8,0:0:0:0:
320,192,197573,1,0,0:0:0:0:
448,192,197677,1,0,0:0:0:0:
192,192,197780,1,0,0:0:0:0:
448,192,197883,1,2,0:0:0:0:
64,192,197883,128,0,198194:0:0:0:0:
320,192,197987,1,0,0:0:0:0:
192,192,198090,1,0,0:0:0:0:
320,192,198194,128,0,198504:0:0:0:0:
64,192,198297,1,0,0:0:0:0:
192,192,198297,1,8,0:0:0:0:
448,192,198401,1,0,0:0:0:0:
64,192,198504,128,0,198711:0:0:0:0:
192,192,198608,1,0,0:0:0:0:
320,192,198711,1,2,0:0:0:0:
448,192,198711,128,0,199125:0:0:0:0:
64,192,198814,1,0,0:0:0:0:
192,192,198918,1,0,0:0:0:0:
320,192,199021,1,0,0:0:0:0:
64,192,199125,1,0,0:0:0:0:
192,192,199125,1,8,0:0:0:0:
320,192,199228,1,0,0:0:0:0:
448,192,199332,1,0,0:0:0:0:
64,192,199435,1,0,0:0:0:0:
320,192,199539,1,2,0:0:0:0:
192,192,199539,128,0,199952:0:0:0:0:
448,192,199642,1,0,0:0:0:0:
64,192,199746,1,0,0:0:0:0:
320,192,199849,1,0,0:0:0:0:
64,192,199952,1,0,0:0:0:0:
448,192,199952,1,0,0:0:0:0:
320,192,200159,1,0,0:0:0:0:
448,192,200159,1,0,0:0:0:0:
64,192,200366,128,0,200780:0:0:0:0:
192,192,200366,1,2,0:0:0:0:
320,192,200366,1,4,0:0:0:0:
448,192,200573,1,0,0:0:0:0:
320,192,200780,128,0,200883:0:0:0:0:
448,192,200780,1,8,0:0:0:0:
64,192,200883,1,0,0:0:0:0:
320,192,200987,128,0,201608:0:0:0:0:
448,192,201090,1,0,0:0:0:0:
192,192,201194,1,2,0:0:0:0:
64,192,201194,1,0,0:0:0:0:
448,192,201297,1,0,0:0:0:0:
64,192,201401,1,0,0:0:0:0:
192,192,201504,1,0,0:0:0:0:
448,192,201608,1,8,0:0:0:0:
64,192,201608,1,0,0:0:0:0:
320,192,201711,1,0,0:0:0:0:
192,192,201814,128,0,202021:0:0:0:0:
448,192,201918,1,0,0:0:0:0:
64,192,202021,128,0,202642:0:0:0:0:
320,192,202021,1,2,0:0:0:0:
192,192,202125,1,0,0:0:0:0:
448,192,202228,1,0,0:0:0:0:
192,192,202332,1,0,0:0:0:0:
320,192,202435,1,8,0:0:0:0:
448,192,202435,1,0,0:0:0:0:
192,192,202539,1,0,0:0:0:0:
320,192,202642,128,0,203056:0:0:0:0:
448,192,202746,1,0,0:0:0:0:
192,192,202849,1,2,0:0:0:0:
64,192,202849,1,0,0:0:0:0:
448,192,202952,1,0,0:0:0:0:
64,192,203056,1,0,0:0:0:0:
192,192,203159,1,0,0:0:0:0:
448,192,203263,128,0,203677:0:0:0:0:
320,192,203263,1,8,0:0:0:0:
64,192,203366,1,0,0:0:0:0:
192,192,203470,1,0,0:0:0:0:
320,192,203573,1,0,0:0:0:0:
64,192,203677,128,0,204090:0:0:0:0:
192,192,203677,1,2,0:0:0:0:
320,192,203780,1,0,0:0:0:0:
448,192,203883,1,0,0:0:0:0:
192,192,203987,1,0,0:0:0:0:
448,192,204090,1,0,0:0:0:0:
320,192,204090,1,8,0:0:0:0:
64,192,204194,1,0,0:0:0:0:
192,192,204297,1,0,0:0:0:0:
448,192,204401,1,0,0:0:0:0:
320,192,204504,128,0,204814:0:0:0:0:
64,192,204504,1,2,0:0:0:0:
192,192,204608,1,0,0:0:0:0:
448,192,204711,1,0,0:0:0:0:
64,192,204814,128,0,205125:0:0:0:0:
448,192,204918,1,8,0:0:0:0:
320,192,204918,1,0,0:0:0:0:
192,192,205021,1,0,0:0:0:0:
448,192,205125,128,0,205332:0:0:0:0:
320,192,205228,1,0,0:0:0:0:
192,192,205332,128,0,205746:0:0:0:0:
64,192,205332,1,2,0:0:0:0:
320,192,205435,1,0,0:0:0:0:
448,192,205539,1,0,0:0:0:0:
64,192,205642,1,0,0:0:0:0:
320,192,205746,1,8,0:0:0:0:
448,192,205746,1,0,0:0:0:0:
64,192,205849,1,0,0:0:0:0:
320,192,205952,128,0,206159:0:0:0:0:
448,192,206056,1,0,0:0:0:0:
64,192,206159,128,0,206573:0:0:0:0:
192,192,206159,1,2,0:0:0:0:
320,192,206263,1,0,0:0:0:0:
448,192,206366,1,0,0:0:0:0:
192,192,206470,1,0,0:0:0:0:
320,192,206573,1,8,0:0:0:0:
448,192,206573,1,0,0:0:0:0:
64,192,206677,1,0,0:0:0:0:
320,192,206780,1,0,0:0:0:0:
192,192,206883,1,0,0:0:0:0:
64,192,206987,128,0,207297:0:0:0:0:
448,192,206987,1,2,0:0:0:0:
320,192,207090,1,0,0:0:0:0:
192,192,207194,1,0,0:0:0:0:
448,192,207297,128,0,207608:0:0:0:0:
320,192,207401,1,0,0:0:0:0:
64,192,207401,1,8,0:0:0:0:
192,192,207504,1,0,0:0:0:0:
320,192,207608,128,0,207814:0:0:0:0:
64,192,207711,1,0,0:0:0:0:
192,192,207814,128,0,208125:0:0:0:0:
448,192,207814,1,2,0:0:0:0:
320,192,207918,1,0,0:0:0:0:
64,192,208021,1,0,0:0:0:0:
448,192,208125,128,0,208435:0:0:0:0:
320,192,208228,1,8,0:0:0:0:
192,192,208228,1,0,0:0:0:0:
64,192,208332,1,0,0:0:0:0:
320,192,208435,128,0,208642:0:0:0:0:
192,192,208539,1,0,0:0:0:0:
64,192,208642,128,2,208952:0:0:0:0:
448,192,208642,1,0,0:0:0:0:
320,192,208746,1,0,0:0:0:0:
192,192,208849,1,0,0:0:0:0:
448,192,208952,128,0,209263:0:0:0:0:
192,192,209056,1,8,0:0:0:0:
64,192,209056,1,0,0:0:0:0:
320,192,209159,1,0,0:0:0:0:
192,192,209263,128,0,209470:0:0:0:0:
320,192,209366,1,0,0:0:0:0:
64,192,209470,128,0,209883:0:0:0:0:
448,192,209470,1,2,0:0:0:0:
192,192,209573,1,0,0:0:0:0:
320,192,209677,1,0,0:0:0:0:
448,192,209780,1,0,0:0:0:0:
192,192,209883,1,0,0:0:0:0:
320,192,209883,1,8,0:0:0:0:
64,192,209987,1,0,0:0:0:0:
448,192,210090,1,0,0:0:0:0:
320,192,210194,1,0,0:0:0:0:
192,192,210297,128,0,210711:0:0:0:0:
64,192,210297,1,2,0:0:0:0:
448,192,210401,1,0,0:0:0:0:
320,192,210504,1,0,0:0:0:0:
64,192,210608,1,0,0:0:0:0:
448,192,210711,1,0,0:0:0:0:
320,192,210711,1,8,0:0:0:0:
192,192,210814,1,0,0:0:0:0:
64,192,210918,1,0,0:0:0:0:
320,192,211021,1,0,0:0:0:0:
448,192,211125,128,0,211435:0:0:0:0:
64,192,211125,1,2,0:0:0:0:
192,192,211228,1,0,0:0:0:0:
320,192,211332,1,0,0:0:0:0:
192,192,211435,128,0,211746:0:0:0:0:
448,192,211539,1,0,0:0:0:0:
320,192,211539,1,8,0:0:0:0:
64,192,211642,1,0,0:0:0:0:
448,192,211746,128,0,211952:0:0:0:0:
320,192,211849,1,0,0:0:0:0:
64,192,211952,128,0,213401:0:0:0:0:
192,192,211952,1,2,0:0:0:0:
448,192,212056,1,0,0:0:0:0:
320,192,212159,1,0,0:0:0:0:
192,192,212263,1,0,0:0:0:0:
448,192,212366,1,0,0:0:0:0:
192,192,212470,1,0,0:0:0:0:
320,192,212573,1,0,0:0:0:0:
448,192,212677,1,0,0:0:0:0:
192,192,212780,128,0,213090:0:0:0:0:
448,192,213090,128,0,213401:0:0:0:0:
192,192,213194,1,0,0:0:0:100:clap 1.wav
320,192,213194,1,0,0:0:0:0:
192,192,213401,1,0,0:0:0:100:clap 2.wav
320,192,213401,128,0,213608:0:0:0:0:
64,192,213608,1,2,0:0:0:0:
448,192,213608,1,4,0:0:0:0:
192,192,213608,128,0,214228:0:0:0:0:
320,192,213711,1,0,0:0:0:0:
448,192,213814,1,0,0:0:0:0:
64,192,213918,1,0,0:0:0:0:
320,192,214021,1,8,0:0:0:0:
448,192,214021,1,0,0:0:0:0:
64,192,214125,1,0,0:0:0:0:
320,192,214228,128,0,214746:0:0:0:0:
448,192,214332,1,0,0:0:0:0:
64,192,214435,1,0,0:0:0:0:
192,192,214435,1,2,0:0:0:0:
448,192,214539,1,0,0:0:0:0:
64,192,214642,1,0,0:0:0:0:
192,192,214746,1,0,0:0:0:0:
320,192,214849,128,0,215470:0:0:0:0:
448,192,214849,1,8,0:0:0:0:
64,192,214952,1,0,0:0:0:0:
192,192,215056,1,0,0:0:0:0:
448,192,215159,1,0,0:0:0:0:
64,192,215263,1,0,0:0:0:0:
192,192,215263,1,2,0:0:0:0:
448,192,215366,1,0,0:0:0:0:
64,192,215470,128,0,215677:0:0:0:0:
192,192,215573,128,0,215677:0:0:0:0:
448,192,215677,128,0,215883:0:0:0:0:
320,192,215677,1,8,0:0:0:0:
192,192,215780,1,0,0:0:0:0:
64,192,215883,128,0,216504:0:0:0:0:
448,192,215987,1,0,0:0:0:0:
320,192,216090,1,2,0:0:0:0:
192,192,216090,1,0,0:0:0:0:
448,192,216194,1,0,0:0:0:0:
320,192,216297,1,0,0:0:0:0:
192,192,216401,1,0,0:0:0:0:
448,192,216504,1,8,0:0:0:0:
320,192,216504,128,0,216918:0:0:0:0:
192,192,216608,1,0,0:0:0:0:
64,192,216711,1,0,0:0:0:0:
448,192,216814,1,0,0:0:0:0:
192,192,216918,128,0,217539:0:0:0:0:
64,192,216918,1,2,0:0:0:0:
320,192,217021,1,0,0:0:0:0:
448,192,217125,1,0,0:0:0:0:
64,192,217228,1,0,0:0:0:0:
320,192,217332,1,8,0:0:0:0:
448,192,217332,1,0,0:0:0:0:
64,192,217435,1,0,0:0:0:0:
448,192,217539,128,0,217746:0:0:0:0:
320,192,217642,128,0,217746:0:0:0:0:
192,192,217746,1,2,0:0:0:0:
64,192,217746,128,0,217849:0:0:0:0:
320,192,217849,1,0,0:0:0:0:
448,192,217952,1,0,0:0:0:0:
192,192,218056,128,0,218263:0:0:0:0:
320,192,218159,1,8,0:0:0:0:
64,192,218159,1,0,0:0:0:0:
448,192,218263,1,0,0:0:0:0:
64,192,218366,128,0,218573:0:0:0:0:
192,192,218470,1,0,0:0:0:0:
448,192,218573,1,2,0:0:0:0:
320,192,218573,128,0,218883:0:0:0:0:
192,192,218677,1,0,0:0:0:0:
64,192,218780,1,0,0:0:0:0:
448,192,218883,128,0,219194:0:0:0:0:
192,192,218987,1,8,0:0:0:0:
64,192,218987,1,0,0:0:0:0:
320,192,219090,1,0,0:0:0:0:
192,192,219194,128,0,219401:0:0:0:0:
320,192,219297,1,0,0:0:0:0:
448,192,219401,1,2,0:0:0:0:
64,192,219401,128,0,220228:0:0:0:0:
192,192,219504,1,0,0:0:0:0:
320,192,219608,1,0,0:0:0:0:
448,192,219711,1,0,0:0:0:0:
192,192,219814,1,8,0:0:0:0:
320,192,219814,1,0,0:0:0:0:
448,192,219918,1,0,0:0:0:0:
192,192,220021,1,0,0:0:0:0:
320,192,220125,1,0,0:0:0:0:
192,192,220228,1,2,0:0:0:0:
448,192,220228,128,0,220332:0:0:0:0:
64,192,220332,128,0,220435:0:0:0:0:
320,192,220435,128,0,220539:0:0:0:0:
192,192,220539,128,0,220642:0:0:0:0:
448,192,220642,1,8,0:0:0:0:
64,192,220642,128,0,220746:0:0:0:0:
320,192,220746,128,0,220849:0:0:0:0:
192,192,220849,128,0,220952:0:0:0:0:
448,192,220952,128,0,221056:0:0:0:0:
320,192,221056,1,2,0:0:0:0:
64,192,221056,128,0,221159:0:0:0:0:
192,192,221159,128,0,221263:0:0:0:0:
448,192,221263,128,0,221366:0:0:0:0:
320,192,221366,128,0,221470:0:0:0:0:
64,192,221470,1,8,0:0:0:0:
192,192,221470,128,0,221573:0:0:0:0:
448,192,221573,128,0,221677:0:0:0:0:
64,192,221677,128,0,221780:0:0:0:0:
192,192,221780,128,0,221883:0:0:0:0:
448,192,221883,1,2,0:0:0:0:
320,192,221883,128,0,221987:0:0:0:0:
64,192,221987,128,0,222090:0:0:0:0:
192,192,222090,128,0,222194:0:0:0:0:
448,192,222194,128,0,222297:0:0:0:0:
64,192,222297,1,8,0:0:0:0:
320,192,222297,128,0,222401:0:0:0:0:
192,192,222401,128,0,222504:0:0:0:0:
448,192,222504,128,0,222608:0:0:0:0:
64,192,222608,128,0,222711:0:0:0:0:
192,192,222711,1,2,0:0:0:0:
320,192,222711,128,0,222814:0:0:0:0:
448,192,222814,128,0,222918:0:0:0:0:
64,192,222918,128,0,223021:0:0:0:0:
192,192,223021,128,0,223125:0:0:0:0:
320,192,223125,1,8,0:0:0:0:
448,192,223125,1,0,0:0:0:0:
64,192,223177,1,0,0:0:0:0:
192,192,223228,1,0,0:0:0:0:
320,192,223280,1,0,0:0:0:0:
448,192,223332,1,0,0:0:0:0:
64,192,223383,1,0,0:0:0:0:
192,192,223435,1,0,0:0:0:0:
320,192,223539,1,2,0:0:0:0:
448,192,223539,128,0,224159:0:0:0:0:
64,192,223642,1,0,0:0:0:0:
320,192,223746,1,0,0:0:0:0:
192,192,223849,1,0,0:0:0:0:
320,192,223952,1,0,0:0:0:0:
64,192,223952,1,8,0:0:0:0:
192,192,224056,1,0,0:0:0:0:
64,192,224159,1,0,0:0:0:0:
448,192,224263,1,0,0:0:0:0:
320,192,224366,1,2,0:0:0:0:
64,192,224366,128,0,224573:0:0:0:0:
192,192,224573,1,0,0:0:0:0:
320,192,224677,128,0,224987:0:0:0:0:
448,192,224780,1,0,0:0:0:0:
64,192,224780,1,8,0:0:0:0:
192,192,224883,1,0,0:0:0:0:
448,192,224987,128,0,225194:0:0:0:0:
64,192,225090,1,0,0:0:0:0:
192,192,225194,128,0,225504:0:0:0:0:
320,192,225194,1,2,0:0:0:0:
448,192,225297,1,0,0:0:0:0:
64,192,225401,1,0,0:0:0:0:
448,192,225504,1,0,0:0:0:0:
320,192,225608,128,0,226021:0:0:0:0:
64,192,225608,1,8,0:0:0:0:
192,192,225711,1,0,0:0:0:0:
448,192,225814,1,0,0:0:0:0:
64,192,225918,1,0,0:0:0:0:
192,192,226021,128,0,226435:0:0:0:0:
448,192,226021,1,2,0:0:0:0:
320,192,226125,1,0,0:0:0:0:
64,192,226228,1,0,0:0:0:0:
320,192,226332,1,0,0:0:0:0:
448,192,226435,128,0,226849:0:0:0:0:
64,192,226435,1,0,0:0:0:0:
320,192,226642,1,0,0:0:0:0:
192,192,226642,1,0,0:0:0:0:
64,192,226849,1,4,0:0:0:0:
192,192,226849,1,2,0:0:0:0:
320,192,226849,128,0,227263:0:0:0:0:
448,192,226952,1,0,0:0:0:0:
64,192,227056,1,0,0:0:0:0:
192,192,227159,1,0,0:0:0:0:
448,192,227263,1,0,0:0:0:0:
64,192,227263,128,0,227366:0:0:0:0:
320,192,227366,1,0,0:0:0:0:
64,192,227470,128,0,228090:0:0:0:0:
192,192,227573,1,0,0:0:0:0:
448,192,227677,1,0,0:0:0:0:
320,192,227780,1,0,0:0:0:0:
192,192,227883,1,0,0:0:0:0:
448,192,227987,1,0,0:0:0:0:
192,192,228090,1,0,0:0:0:0:
320,192,228090,1,0,0:0:0:0:
64,192,228194,1,0,0:0:0:0:
448,192,228297,128,0,228504:0:0:0:0:
320,192,228401,1,0,0:0:0:0:
192,192,228504,128,0,229125:0:0:0:0:
64,192,228608,1,0,0:0:0:0:
448,192,228711,1,0,0:0:0:0:
320,192,228814,1,0,0:0:0:0:
64,192,228918,1,0,0:0:0:0:
448,192,228918,1,0,0:0:0:0:
320,192,229021,1,0,0:0:0:0:
64,192,229125,128,0,229539:0:0:0:0:
448,192,229228,1,0,0:0:0:0:
192,192,229332,1,0,0:0:0:0:
320,192,229435,1,0,0:0:0:0:
448,192,229539,128,0,229952:0:0:0:0:
192,192,229642,1,0,0:0:0:0:
64,192,229746,1,0,0:0:0:0:
320,192,229746,1,0,0:0:0:0:
192,192,229849,1,0,0:0:0:0:
320,192,229952,128,0,230159:0:0:0:0:
192,192,230056,128,0,230159:0:0:0:0:
64,192,230159,128,0,230780:0:0:0:0:
320,192,230263,1,0,0:0:0:0:
448,192,230366,1,0,0:0:0:0:
192,192,230470,1,0,0:0:0:0:
320,192,230573,1,0,0:0:0:0:
448,192,230573,1,0,0:0:0:0:
192,192,230677,1,0,0:0:0:0:
320,192,230780,1,0,0:0:0:0:
448,192,230883,1,0,0:0:0:0:
64,192,230987,128,0,231194:0:0:0:0:
320,192,231090,1,0,0:0:0:0:
192,192,231194,128,0,231297:0:0:0:0:
448,192,231297,1,0,0:0:0:0:
64,192,231401,1,0,0:0:0:0:
320,192,231401,128,0,231504:0:0:0:0:
192,192,231504,128,0,231608:0:0:0:0:
448,192,231608,1,0,0:0:0:0:
320,192,231711,1,0,0:0:0:0:
64,192,231814,128,0,231918:0:0:0:0:
192,192,231918,1,0,0:0:0:0:
320,192,232021,1,0,0:0:0:0:
448,192,232125,128,0,232228:0:0:0:0:
64,192,232228,1,0,0:0:0:0:
192,192,232228,1,0,0:0:0:0:
320,192,232332,1,0,0:0:0:0:
192,192,232435,128,0,232539:0:0:0:0:
448,192,232539,1,0,0:0:0:0:
64,192,232642,128,0,233470:0:0:0:0:
320,192,232746,1,0,0:0:0:0:
448,192,232849,1,0,0:0:0:0:
192,192,232952,1,0,0:0:0:0:
320,192,233056,1,0,0:0:0:0:
448,192,233056,1,0,0:0:0:0:
192,192,233159,1,0,0:0:0:0:
448,192,233263,1,0,0:0:0:0:
192,192,233366,1,0,0:0:0:0:
320,192,233470,128,0,233573:0:0:0:0:
448,192,233573,128,0,233677:0:0:0:0:
64,192,233677,128,0,233780:0:0:0:0:
320,192,233780,128,0,233883:0:0:0:0:
448,192,233883,128,0,233987:0:0:0:0:
192,192,233987,128,0,234090:0:0:0:0:
64,192,234090,128,0,234194:0:0:0:0:
448,192,234194,128,0,234297:0:0:0:0:
320,192,234297,128,0,234401:0:0:0:0:
192,192,234401,128,0,234504:0:0:0:0:
64,192,234504,128,0,234608:0:0:0:0:
320,192,234608,128,0,234711:0:0:0:0:
448,192,234711,128,0,234814:0:0:0:0:
64,192,234814,128,0,234918:0:0:0:0:
192,192,234918,128,0,235021:0:0:0:0:
320,192,235021,128,0,235125:0:0:0:0:
64,192,235125,1,0,0:0:0:0:
192,192,235194,1,0,0:0:0:0:
448,192,235263,1,0,0:0:0:0:
320,192,235332,1,0,0:0:0:0:
192,192,235401,1,0,0:0:0:0:
64,192,235470,1,0,0:0:0:0:
320,192,235539,1,0,0:0:0:0:
448,192,235642,1,0,0:0:0:0:
192,192,235694,1,0,0:0:0:0:
64,192,235746,1,0,0:0:0:0:
448,192,235849,1,0,0:0:0:0:
320,192,235901,1,0,0:0:0:0:
192,192,235952,128,0,236263:0:0:0:0:
64,192,236263,128,0,236573:0:0:0:0:
448,192,236573,128,0,236780:0:0:0:0:
320,192,236677,128,0,236780:0:0:0:0:
64,192,236780,128,0,237608:0:0:0:0:
320,192,237608,128,0,238228:0:0:0:0:
448,192,238228,128,0,238435:0:0:0:0:
64,192,238435,1,0,0:0:0:0:
192,192,238487,1,0,0:0:0:0:
320,192,238539,1,0,0:0:0:0:
448,192,238590,1,0,0:0:0:0:
192,192,238642,1,0,0:0:0:0:
64,192,238694,1,0,0:0:0:0:
448,192,238746,1,0,0:0:0:0:
320,192,238797,1,0,0:0:0:0:
192,192,238849,1,0,0:0:0:0:
64,192,238901,1,0,0:0:0:0:
448,192,238952,1,0,0:0:0:0:
320,192,239004,1,0,0:0:0:0:
64,192,239056,1,0,0:0:0:0:
192,192,239108,1,0,0:0:0:0:
320,192,239159,1,0,0:0:0:0:
448,192,239211,1,0,0:0:0:0:
64,192,239263,1,0,0:0:0:0:
192,192,239314,1,0,0:0:0:0:
448,192,239366,1,0,0:0:0:0:
320,192,239418,1,0,0:0:0:0:
192,192,239470,1,0,0:0:0:0:
64,192,239521,1,0,0:0:0:0:
320,192,239573,1,0,0:0:0:0:
448,192,239625,1,0,0:0:0:0:
64,192,239677,1,0,0:0:0:0:
192,192,239728,1,0,0:0:0:0:
320,192,239780,1,0,0:0:0:0:
448,192,239832,1,0,0:0:0:0:
64,192,239883,1,0,0:0:0:0:
192,192,239935,1,0,0:0:0:0:
448,192,239987,1,0,0:0:0:0:
320,192,240039,1,0,0:0:0:0:
64,192,240090,128,4,242883:0:0:0:0:
192,192,240090,128,2,240918:0:0:0:0:
448,192,240918,128,0,241228:0:0:0:0:
320,192,241228,128,0,241539:0:0:0:0:
192,192,241539,128,0,241746:0:0:0:0:
448,192,241746,128,0,242573:0:0:0:0:
320,192,241746,128,0,242573:0:0:0:0:
192,192,242573,128,0,242883:0:0:0:0:
320,192,242883,128,0,243194:0:0:0:0:
64,192,243194,128,0,243401:0:0:0:0:
320,192,243401,128,0,244228:0:0:0:0:
448,192,243401,128,0,244228:0:0:0:0:
192,192,244228,128,0,244539:0:0:0:0:
64,192,244539,128,0,244849:0:0:0:0:
192,192,244849,128,0,245056:0:0:0:0:
320,192,245056,128,0,245883:0:0:0:0:
448,192,245056,128,0,245883:0:0:0:0:
64,192,245677,128,0,245780:0:0:0:0:
64,192,245883,128,0,246711:0:0:0:0:
192,192,245883,128,0,246711:0:0:0:0:
320,192,246711,128,0,247021:0:0:0:0:
448,192,246711,128,0,247539:0:0:0:0:
192,192,247021,128,0,247332:0:0:0:0:
64,192,247332,128,0,247539:0:0:0:0:
192,192,247539,128,0,247952:0:0:0:0:
320,192,247539,128,0,248366:0:0:0:0:
448,192,247952,128,0,248366:0:0:0:0:
64,192,248366,128,0,248677:0:0:0:0:
192,192,248366,128,0,249194:0:0:0:0:
320,192,248677,128,0,248987:0:0:0:0:
448,192,248987,128,0,249194:0:0:0:0:
64,192,249194,128,0,250021:0:0:0:0:
320,192,249194,128,0,249608:0:0:0:0:
192,192,249608,128,0,250021:0:0:0:0:
448,192,250021,128,0,250849:0:0:0:0:
320,192,250021,128,0,250332:0:0:0:0:
64,192,250332,128,0,250642:0:0:0:0:
192,192,250642,128,0,250849:0:0:0:0:
320,192,250849,128,0,251677:0:0:0:0:
64,192,250849,128,0,251677:0:0:0:0:
192,192,251677,128,0,252504:0:0:0:0:
448,192,251677,128,0,252504:0:0:0:0:
320,192,252504,128,0,252814:0:0:0:0:
64,192,252814,128,0,253125:0:0:0:0:
192,192,253125,128,0,253332:0:0:0:0:
320,192,253332,1,2,0:0:0:0:
448,192,253332,128,4,254987:0:0:0:0:
64,192,253332,128,0,254159:0:0:0:0:
192,192,253746,1,0,0:0:0:0:
320,192,253746,1,2,0:0:0:0:
192,192,254159,128,0,254470:0:0:0:0:
320,192,254159,1,2,0:0:0:0:
320,192,254470,128,0,254780:0:0:0:0:
64,192,254573,1,0,0:0:0:0:
192,192,254573,1,2,0:0:0:0:
64,192,254780,128,0,254987:0:0:0:0:
320,192,254987,128,2,256435:0:0:0:0:
192,192,254987,128,0,255814:0:0:0:0:
64,192,255401,1,2,0:0:0:0:
448,192,255401,1,0,0:0:0:0:
448,192,255814,1,2,0:0:0:0:
64,192,255814,128,0,256125:0:0:0:0:
448,192,256125,128,0,256435:0:0:0:0:
64,192,256228,1,0,0:0:0:0:
192,192,256228,1,2,0:0:0:0:
64,192,256435,128,0,256642:0:0:0:0:
448,192,256642,1,4,0:0:0:0:
192,192,256642,128,0,258297:0:0:0:0:
320,192,256642,128,2,257470:0:0:0:0:
64,192,257056,1,2,0:0:0:0:
448,192,257056,1,0,0:0:0:0:
448,192,257470,128,0,257780:0:0:0:0:
64,192,257470,1,2,0:0:0:0:
64,192,257780,128,0,258090:0:0:0:0:
320,192,257883,1,2,0:0:0:0:
448,192,257883,1,0,0:0:0:0:
320,192,258090,128,0,258297:0:0:0:0:
64,192,258297,128,0,259125:0:0:0:0:
448,192,258297,128,2,259021:0:0:0:0:
192,192,258711,1,0,0:0:0:0:
320,192,258711,1,2,0:0:0:0:
320,192,258918,128,0,259021:0:0:0:0:
448,192,259125,128,0,259952:0:0:0:0:
320,192,259125,128,2,259746:0:0:0:0:
64,192,259539,1,0,0:0:0:0:
192,192,259539,1,2,0:0:0:0:
64,192,259952,1,0,0:0:0:0:
192,192,259952,1,4,0:0:0:0:
320,192,259952,1,2,0:0:0:0:
192,192,260159,1,2,0:0:0:0:
448,192,260159,1,0,0:0:0:0:
64,192,260366,1,0,0:0:0:0:
320,192,260366,1,2,0:0:0:0:
64,192,260573,1,2,0:0:0:0:
192,192,260573,1,0,0:0:0:0:
192,192,260780,1,2,0:0:0:0:
320,192,260780,1,4,0:0:0:0:
448,192,260780,1,0,0:0:0:0:
64,192,260987,1,0,0:0:0:0:
320,192,260987,1,2,0:0:0:0:
192,192,261194,1,0,0:0:0:0:
448,192,261194,1,2,0:0:0:0:
320,192,261401,1,2,0:0:0:0:
448,192,261401,1,0,0:0:0:0:
64,192,261608,1,2,0:0:0:0:
320,192,261608,1,0,0:0:0:0:
192,192,261608,1,4,0:0:0:0:
64,192,261814,1,2,0:0:0:0:
448,192,261814,1,0,0:0:0:0:
192,192,262021,1,2,0:0:0:0:
320,192,262021,1,0,0:0:0:0:
192,192,262228,1,2,0:0:0:0:
448,192,262228,1,0,0:0:0:0:
64,192,262435,1,0,0:0:0:0:
320,192,262435,1,2,0:0:0:0:
448,192,262435,1,4,0:0:0:0:
64,192,262642,1,0,0:0:0:0:
192,192,262642,1,2,0:0:0:0:
320,192,262849,1,4,0:0:0:0:
192,192,262849,1,0,0:0:0:0:
448,192,262849,1,2,0:0:0:0:
64,192,263056,1,2,0:0:0:0:
448,192,263056,1,0,0:0:0:0:
192,192,263263,1,2,0:0:0:0:
64,192,263263,1,0,0:0:0:0:
320,192,263366,1,2,0:0:0:0:
448,192,263366,1,0,0:0:0:0:
64,192,263470,1,0,0:0:0:0:
192,192,263470,1,2,0:0:0:0:
320,192,263573,1,2,0:0:0:0:
448,192,263573,1,0,0:0:0:0:
64,192,263677,1,0,0:0:0:0:
192,192,263677,1,2,0:0:0:0:
320,192,263780,1,2,0:0:0:0:
448,192,263780,1,0,0:0:0:0:
64,192,263883,1,0,0:0:0:0:
192,192,263883,1,2,0:0:0:0:
320,192,263987,1,2,0:0:0:0:
448,192,263987,1,0,0:0:0:0:
64,192,264090,1,0,0:0:0:0:
192,192,264142,1,0,0:0:0:0:
320,192,264194,1,0,0:0:0:0:
448,192,264246,1,0,0:0:0:0:
64,192,264297,1,0,0:0:0:0:
192,192,264349,1,0,0:0:0:0:
448,192,264401,1,0,0:0:0:0:
320,192,264452,1,0,0:0:0:0:
192,192,264504,1,0,0:0:0:0:
64,192,264556,1,0,0:0:0:0:
320,192,264608,1,0,0:0:0:0:
448,192,264659,1,0,0:0:0:0:
64,192,264711,1,0,0:0:0:0:
192,192,264763,1,0,0:0:0:0:
448,192,264814,1,0,0:0:0:0:
320,192,264866,1,0,0:0:0:0:
192,192,264918,1,2,0:0:0:0:
64,192,264918,1,0,0:0:0:0:
448,192,265125,1,0,0:0:0:0:
64,192,265228,1,0,0:0:0:0:
192,192,265332,1,0,0:0:0:0:
320,192,265332,1,0,0:0:0:0:
448,192,265539,1,0,0:0:0:0:
320,192,265642,1,0,0:0:0:0:
192,192,265746,128,0,266159:0:0:0:0:
64,192,265849,1,0,0:0:0:0:
320,192,266159,1,0,0:0:0:100:clap 1.wav
448,192,266159,1,0,0:0:0:0:
64,192,266366,1,0,0:0:0:0:
192,192,266366,1,0,0:0:0:100:clap 2.wav
448,192,266573,128,4,266987:0:0:0:0:
64,192,266573,1,0,0:0:0:0:
320,192,266573,1,2,0:0:0:0:
192,192,266677,1,0,0:0:0:0:
320,192,266780,1,0,0:0:0:0:
64,192,266883,1,0,0:0:0:0:
320,192,266987,1,8,0:0:0:0:
192,192,266987,128,0,267090:0:0:0:0:
448,192,267090,1,0,0:0:0:0:
192,192,267194,128,0,267814:0:0:0:0:
64,192,267297,1,0,0:0:0:0:
320,192,267401,1,2,0:0:0:0:
448,192,267401,1,0,0:0:0:0:
64,192,267504,1,0,0:0:0:0:
448,192,267608,1,0,0:0:0:0:
320,192,267711,1,0,0:0:0:0:
64,192,267814,1,8,0:0:0:0:
448,192,267814,1,0,0:0:0:0:
192,192,267918,1,0,0:0:0:0:
320,192,268021,128,0,268228:0:0:0:0:
64,192,268125,1,0,0:0:0:0:
192,192,268228,1,2,0:0:0:0:
448,192,268228,128,0,268642:0:0:0:0:
320,192,268332,1,0,0:0:0:0:
64,192,268435,1,0,0:0:0:0:
192,192,268539,1,0,0:0:0:0:
320,192,268642,1,8,0:0:0:0:
64,192,268642,1,0,0:0:0:0:
448,192,268746,1,0,0:0:0:0:
192,192,268849,128,0,269263:0:0:0:0:
320,192,268952,1,0,0:0:0:0:
448,192,269056,1,0,0:0:0:0:
64,192,269056,1,2,0:0:0:0:
320,192,269159,1,0,0:0:0:0:
64,192,269263,1,0,0:0:0:0:
448,192,269366,1,0,0:0:0:0:
64,192,269470,128,0,269883:0:0:0:0:
320,192,269470,1,8,0:0:0:0:
192,192,269573,1,0,0:0:0:0:
448,192,269677,1,0,0:0:0:0:
320,192,269780,1,0,0:0:0:0:
448,192,269883,128,0,270297:0:0:0:0:
192,192,269883,1,2,0:0:0:0:
64,192,269987,1,0,0:0:0:0:
320,192,270090,1,0,0:0:0:0:
192,192,270194,1,0,0:0:0:0:
320,192,270297,1,8,0:0:0:0:
64,192,270297,1,0,0:0:0:0:
448,192,270401,1,0,0:0:0:0:
64,192,270504,1,0,0:0:0:0:
192,192,270608,1,0,0:0:0:0:
448,192,270711,1,2,0:0:0:0:
320,192,270711,128,0,271021:0:0:0:0:
64,192,270814,1,0,0:0:0:0:
448,192,270918,1,0,0:0:0:0:
192,192,271021,128,0,271332:0:0:0:0:
64,192,271125,1,8,0:0:0:0:
320,192,271125,1,0,0:0:0:0:
448,192,271228,1,0,0:0:0:0:
64,192,271332,128,0,271539:0:0:0:0:
192,192,271435,1,0,0:0:0:0:
320,192,271539,1,2,0:0:0:0:
448,192,271539,128,0,271952:0:0:0:0:
192,192,271642,1,0,0:0:0:0:
64,192,271746,1,0,0:0:0:0:
320,192,271849,1,0,0:0:0:0:
192,192,271952,1,8,0:0:0:0:
64,192,271952,1,0,0:0:0:0:
448,192,272056,1,0,0:0:0:0:
320,192,272159,128,0,272366:0:0:0:0:
64,192,272263,1,0,0:0:0:0:
448,192,272366,1,2,0:0:0:0:
192,192,272366,128,0,272780:0:0:0:0:
320,192,272470,1,0,0:0:0:0:
64,192,272573,1,0,0:0:0:0:
320,192,272677,1,0,0:0:0:0:
448,192,272780,1,0,0:0:0:0:
64,192,272780,1,8,0:0:0:0:
192,192,272883,1,0,0:0:0:0:
448,192,272987,1,0,0:0:0:0:
320,192,273090,1,0,0:0:0:0:
64,192,273194,1,2,0:0:0:0:
192,192,273194,128,0,273504:0:0:0:0:
448,192,273297,1,0,0:0:0:0:
64,192,273401,1,0,0:0:0:0:
320,192,273504,128,0,273814:0:0:0:0:
192,192,273608,1,8,0:0:0:0:
448,192,273608,1,0,0:0:0:0:
64,192,273711,1,0,0:0:0:0:
448,192,273814,128,0,274021:0:0:0:0:
320,192,273918,1,0,0:0:0:0:
64,192,274021,1,2,0:0:0:0:
192,192,274021,128,0,274332:0:0:0:0:
448,192,274125,1,0,0:0:0:0:
320,192,274228,1,0,0:0:0:0:
64,192,274332,128,0,274642:0:0:0:0:
320,192,274435,1,8,0:0:0:0:
448,192,274435,1,0,0:0:0:0:
192,192,274539,1,0,0:0:0:0:
448,192,274642,128,0,274849:0:0:0:0:
320,192,274746,1,0,0:0:0:0:
64,192,274849,1,2,0:0:0:0:
192,192,274849,128,0,275159:0:0:0:0:
448,192,274952,1,0,0:0:0:0:
64,192,275056,1,0,0:0:0:0:
320,192,275159,128,0,275470:0:0:0:0:
64,192,275263,1,0,0:0:0:0:
192,192,275263,1,8,0:0:0:0:
448,192,275366,1,0,0:0:0:0:
64,192,275470,128,0,275677:0:0:0:0:
192,192,275573,1,0,0:0:0:0:
320,192,275677,1,2,0:0:0:0:
448,192,275677,128,0,276090:0:0:0:0:
64,192,275780,1,0,0:0:0:0:
192,192,275883,1,0,0:0:0:0:
320,192,275987,1,0,0:0:0:0:
64,192,276090,1,0,0:0:0:0:
192,192,276090,1,8,0:0:0:0:
320,192,276194,1,0,0:0:0:0:
448,192,276297,1,0,0:0:0:0:
64,192,276401,1,0,0:0:0:0:
320,192,276504,1,2,0:0:0:0:
192,192,276504,128,0,276918:0:0:0:0:
448,192,276608,1,0,0:0:0:0:
64,192,276711,1,0,0:0:0:0:
320,192,276814,1,0,0:0:0:0:
448,192,276918,1,8,0:0:0:0:
64,192,276918,1,0,0:0:0:0:
192,192,277021,1,0,0:0:0:0:
448,192,277125,1,0,0:0:0:0:
320,192,277228,1,0,0:0:0:0:
192,192,277332,1,2,0:0:0:0:
64,192,277332,128,0,277642:0:0:0:0:
320,192,277435,1,0,0:0:0:0:
192,192,277539,1,0,0:0:0:0:
448,192,277642,128,0,277952:0:0:0:0:
64,192,277746,1,0,0:0:0:0:
320,192,277746,1,8,0:0:0:0:
192,192,277849,1,0,0:0:0:0:
320,192,277952,128,0,278159:0:0:0:0:
448,192,278056,1,0,0:0:0:0:
64,192,278159,1,2,0:0:0:0:
192,192,278159,128,0,278573:0:0:0:0:
448,192,278263,1,0,0:0:0:0:
320,192,278366,1,0,0:0:0:0:
64,192,278470,1,0,0:0:0:0:
320,192,278573,1,8,0:0:0:0:
448,192,278573,1,0,0:0:0:0:
192,192,278677,1,0,0:0:0:0:
64,192,278780,1,0,0:0:0:0:
448,192,278883,1,0,0:0:0:0:
64,192,278987,128,0,279401:0:0:0:0:
320,192,278987,1,2,0:0:0:0:
192,192,279090,1,0,0:0:0:0:
448,192,279194,1,0,0:0:0:0:
320,192,279297,1,0,0:0:0:0:
192,192,279401,1,0,0:0:0:0:
448,192,279401,1,0,0:0:0:0:
320,192,279608,1,0,0:0:0:0:
64,192,279608,1,0,0:0:0:0:
448,192,279814,1,4,0:0:0:0:
192,192,279814,1,2,0:0:0:0:
64,192,279814,128,0,280228:0:0:0:0:
320,192,279918,1,0,0:0:0:0:
192,192,280021,1,0,0:0:0:0:
448,192,280125,1,0,0:0:0:0:
192,192,280228,1,8,0:0:0:0:
320,192,280228,128,0,280332:0:0:0:0:
64,192,280332,1,0,0:0:0:0:
320,192,280435,128,0,281056:0:0:0:0:
448,192,280539,1,0,0:0:0:0:
192,192,280642,1,2,0:0:0:0:
64,192,280642,1,0,0:0:0:0:
448,192,280746,1,0,0:0:0:0:
64,192,280849,1,0,0:0:0:0:
192,192,280952,1,0,0:0:0:0:
448,192,281056,1,8,0:0:0:0:
64,192,281056,1,0,0:0:0:0:
320,192,281159,1,0,0:0:0:0:
192,192,281263,128,0,281470:0:0:0:0:
448,192,281366,1,0,0:0:0:0:
320,192,281470,1,2,0:0:0:0:
64,192,281470,128,0,281883:0:0:0:0:
192,192,281573,1,0,0:0:0:0:
448,192,281677,1,0,0:0:0:0:
320,192,281780,1,0,0:0:0:0:
192,192,281883,1,8,0:0:0:0:
448,192,281883,1,0,0:0:0:0:
64,192,281987,1,0,0:0:0:0:
320,192,282090,128,0,282504:0:0:0:0:
192,192,282194,1,0,0:0:0:0:
64,192,282297,1,2,0:0:0:0:
448,192,282297,1,0,0:0:0:0:
192,192,282401,1,0,0:0:0:0:
448,192,282504,1,0,0:0:0:0:
64,192,282608,1,0,0:0:0:0:
448,192,282711,128,0,283125:0:0:0:0:
192,192,282711,1,8,0:0:0:0:
320,192,282814,1,0,0:0:0:0:
64,192,282918,1,0,0:0:0:0:
192,192,283021,1,0,0:0:0:0:
64,192,283125,128,0,283539:0:0:0:0:
320,192,283125,1,2,0:0:0:0:
448,192,283228,1,0,0:0:0:0:
192,192,283332,1,0,0:0:0:0:
320,192,283435,1,0,0:0:0:0:
192,192,283539,1,8,0:0:0:0:
448,192,283539,1,0,0:0:0:0:
64,192,283642,1,0,0:0:0:0:
448,192,283746,1,0,0:0:0:0:
320,192,283849,1,0,0:0:0:0:
64,192,283952,1,2,0:0:0:0:
192,192,283952,128,0,284263:0:0:0:0:
448,192,284056,1,0,0:0:0:0:
64,192,284159,1,0,0:0:0:0:
320,192,284263,128,0,284573:0:0:0:0:
448,192,284366,1,0,0:0:0:0:
192,192,284366,1,8,0:0:0:0:
64,192,284470,1,0,0:0:0:0:
448,192,284573,128,0,284780:0:0:0:0:
320,192,284677,1,0,0:0:0:0:
192,192,284780,1,2,0:0:0:0:
64,192,284780,128,0,285194:0:0:0:0:
320,192,284883,1,0,0:0:0:0:
448,192,284987,1,0,0:0:0:0:
192,192,285090,1,0,0:0:0:0:
320,192,285194,1,8,0:0:0:0:
448,192,285194,1,0,0:0:0:0:
64,192,285297,1,0,0:0:0:0:
192,192,285401,128,0,285608:0:0:0:0:
448,192,285504,1,0,0:0:0:0:
64,192,285608,1,2,0:0:0:0:
320,192,285608,128,0,286021:0:0:0:0:
192,192,285711,1,0,0:0:0:0:
448,192,285814,1,0,0:0:0:0:
192,192,285918,1,0,0:0:0:0:
64,192,286021,1,0,0:0:0:0:
448,192,286021,1,8,0:0:0:0:
320,192,286125,1,0,0:0:0:0:
64,192,286228,1,0,0:0:0:0:
192,192,286332,1,0,0:0:0:0:
448,192,286435,1,2,0:0:0:0:
320,192,286435,128,0,286746:0:0:0:0:
64,192,286539,1,0,0:0:0:0:
448,192,286642,1,0,0:0:0:0:
192,192,286746,128,0,287056:0:0:0:0:
320,192,286849,1,8,0:0:0:0:
64,192,286849,1,0,0:0:0:0:
448,192,286952,1,0,0:0:0:0:
64,192,287056,128,0,287263:0:0:0:0:
192,192,287159,1,0,0:0:0:0:
448,192,287263,1,2,0:0:0:0:
320,192,287263,128,0,287573:0:0:0:0:
64,192,287366,1,0,0:0:0:0:
192,192,287470,1,0,0:0:0:0:
448,192,287573,128,0,287883:0:0:0:0:
192,192,287677,1,8,0:0:0:0:
64,192,287677,1,0,0:0:0:0:
320,192,287780,1,0,0:0:0:0:
64,192,287883,128,0,288090:0:0:0:0:
192,192,287987,1,0,0:0:0:0:
448,192,288090,1,2,0:0:0:0:
320,192,288090,128,0,288401:0:0:0:0:
64,192,288194,1,0,0:0:0:0:
448,192,288297,1,0,0:0:0:0:
192,192,288401,128,0,288711:0:0:0:0:
448,192,288504,1,0,0:0:0:0:
320,192,288504,1,8,0:0:0:0:
64,192,288608,1,0,0:0:0:0:
448,192,288711,128,0,288918:0:0:0:0:
320,192,288814,1,0,0:0:0:0:
192,192,288918,1,2,0:0:0:0:
64,192,288918,128,0,289332:0:0:0:0:
448,192,289021,1,0,0:0:0:0:
320,192,289125,1,0,0:0:0:0:
192,192,289228,1,0,0:0:0:0:
448,192,289332,1,0,0:0:0:0:
320,192,289332,1,8,0:0:0:0:
192,192,289435,1,0,0:0:0:0:
64,192,289539,1,0,0:0:0:0:
448,192,289642,1,0,0:0:0:0:
192,192,289746,1,2,0:0:0:0:
320,192,289746,128,0,290159:0:0:0:0:
64,192,289849,1,0,0:0:0:0:
448,192,289952,1,0,0:0:0:0:
192,192,290056,1,0,0:0:0:0:
64,192,290159,1,8,0:0:0:0:
448,192,290159,1,0,0:0:0:0:
320,192,290263,1,0,0:0:0:0:
64,192,290366,1,0,0:0:0:0:
192,192,290470,1,0,0:0:0:0:
320,192,290573,1,2,0:0:0:0:
448,192,290573,128,0,290883:0:0:0:0:
192,192,290677,1,0,0:0:0:0:
320,192,290780,1,0,0:0:0:0:
64,192,290883,128,0,291194:0:0:0:0:
448,192,290987,1,0,0:0:0:0:
192,192,290987,1,8,0:0:0:0:
320,192,291090,1,0,0:0:0:0:
192,192,291194,128,0,291401:0:0:0:0:
64,192,291297,1,0,0:0:0:0:
320,192,291401,128,0,291814:0:0:0:0:
448,192,291504,1,0,0:0:0:0:
64,192,291608,1,0,0:0:0:0:
192,192,291711,1,0,0:0:0:0:
448,192,291814,1,0,0:0:0:0:
64,192,291814,1,0,0:0:0:0:
320,192,291918,1,0,0:0:0:0:
192,192,292021,1,0,0:0:0:0:
448,192,292125,1,0,0:0:0:0:
64,192,292228,128,0,292642:0:0:0:0:
192,192,292332,1,0,0:0:0:0:
320,192,292435,1,0,0:0:0:0:
192,192,292539,1,0,0:0:0:0:
320,192,292642,1,0,0:0:0:100:clap 1.wav
448,192,292642,128,0,293056:0:0:0:0:
64,192,292849,1,0,0:0:0:0:
192,192,292849,1,0,0:0:0:100:clap 2.wav
64,192,293056,1,0,0:0:0:0:
320,192,293056,1,0,0:0:0:0:
320,192,293470,1,4,0:0:0:0:
448,192,293470,1,2,0:0:0:0:
64,192,293470,128,0,293573:0:0:0:0:
64,192,293677,128,0,294297:0:0:0:0:
192,192,293780,1,0,0:0:0:0:
320,192,293883,1,2,0:0:0:0:
448,192,293883,1,0,0:0:0:0:
192,192,293987,1,0,0:0:0:0:
448,192,294090,1,0,0:0:0:0:
320,192,294194,1,0,0:0:0:0:
192,192,294297,1,8,0:0:0:0:
448,192,294297,1,0,0:0:0:0:
320,192,294401,1,0,0:0:0:0:
192,192,294504,128,0,294711:0:0:0:0:
448,192,294608,1,0,0:0:0:0:
64,192,294711,128,0,295332:0:0:0:0:
320,192,294711,1,2,0:0:0:0:
192,192,294814,1,0,0:0:0:0:
448,192,294918,1,0,0:0:0:0:
192,192,295021,1,0,0:0:0:0:
448,192,295125,1,0,0:0:0:0:
320,192,295125,1,8,0:0:0:0:
192,192,295228,1,0,0:0:0:0:
320,192,295332,128,0,295746:0:0:0:0:
448,192,295435,1,0,0:0:0:0:
64,192,295539,1,0,0:0:0:0:
192,192,295539,1,2,0:0:0:0:
448,192,295642,1,0,0:0:0:0:
64,192,295746,1,0,0:0:0:0:
192,192,295849,1,0,0:0:0:0:
320,192,295952,1,8,0:0:0:0:
448,192,295952,128,0,296366:0:0:0:0:
64,192,296056,1,0,0:0:0:0:
192,192,296159,1,0,0:0:0:0:
320,192,296263,1,0,0:0:0:0:
192,192,296366,1,2,0:0:0:0:
64,192,296366,128,0,296780:0:0:0:0:
320,192,296470,1,0,0:0:0:0:
448,192,296573,1,0,0:0:0:0:
192,192,296677,1,0,0:0:0:0:
320,192,296780,1,8,0:0:0:0:
448,192,296780,1,0,0:0:0:0:
64,192,296883,1,0,0:0:0:0:
192,192,296987,1,0,0:0:0:0:
448,192,297090,1,0,0:0:0:0:
320,192,297194,128,0,297504:0:0:0:0:
64,192,297194,1,2,0:0:0:0:
192,192,297297,1,0,0:0:0:0:
448,192,297401,1,0,0:0:0:0:
64,192,297504,128,0,297814:0:0:0:0:
320,192,297608,1,8,0:0:0:0:
448,192,297608,1,0,0:0:0:0:
192,192,297711,1,0,0:0:0:0:
448,192,297814,128,0,298021:0:0:0:0:
320,192,297918,1,0,0:0:0:0:
192,192,298021,128,2,298435:0:0:0:0:
64,192,298021,1,0,0:0:0:0:
320,192,298125,1,0,0:0:0:0:
448,192,298228,1,0,0:0:0:0:
64,192,298332,1,0,0:0:0:0:
448,192,298435,1,0,0:0:0:0:
320,192,298435,1,8,0:0:0:0:
64,192,298539,1,0,0:0:0:0:
320,192,298642,128,0,298849:0:0:0:0:
448,192,298746,1,0,0:0:0:0:
64,192,298849,128,0,299263:0:0:0:0:
192,192,298849,1,2,0:0:0:0:
320,192,298952,1,0,0:0:0:0:
448,192,299056,1,0,0:0:0:0:
192,192,299159,1,0,0:0:0:0:
448,192,299263,1,0,0:0:0:0:
320,192,299263,1,8,0:0:0:0:
64,192,299366,1,0,0:0:0:0:
320,192,299470,1,0,0:0:0:0:
192,192,299573,1,0,0:0:0:0:
64,192,299677,128,2,299987:0:0:0:0:
448,192,299677,1,0,0:0:0:0:
320,192,299780,1,0,0:0:0:0:
192,192,299883,1,0,0:0:0:0:
448,192,299987,128,0,300297:0:0:0:0:
64,192,300090,1,0,0:0:0:0:
320,192,300090,1,8,0:0:0:0:
192,192,300194,1,0,0:0:0:0:
320,192,300297,128,0,300504:0:0:0:0:
64,192,300401,1,0,0:0:0:0:
192,192,300504,128,0,300814:0:0:0:0:
448,192,300504,1,2,0:0:0:0:
320,192,300608,1,0,0:0:0:0:
64,192,300711,1,0,0:0:0:0:
448,192,300814,128,0,301125:0:0:0:0:
192,192,300918,1,0,0:0:0:0:
320,192,300918,1,8,0:0:0:0:
64,192,301021,1,0,0:0:0:0:
320,192,301125,128,0,301332:0:0:0:0:
192,192,301228,1,0,0:0:0:0:
64,192,301332,128,2,301642:0:0:0:0:
448,192,301332,1,0,0:0:0:0:
320,192,301435,1,0,0:0:0:0:
192,192,301539,1,0,0:0:0:0:
448,192,301642,128,0,301952:0:0:0:0:
64,192,301746,1,0,0:0:0:0:
192,192,301746,1,8,0:0:0:0:
320,192,301849,1,0,0:0:0:0:
192,192,301952,128,0,302159:0:0:0:0:
320,192,302056,1,0,0:0:0:0:
64,192,302159,128,0,302573:0:0:0:0:
448,192,302159,1,2,0:0:0:0:
192,192,302263,1,0,0:0:0:0:
320,192,302366,1,0,0:0:0:0:
448,192,302470,1,0,0:0:0:0:
320,192,302573,1,0,0:0:0:0:
192,192,302573,1,8,0:0:0:0:
64,192,302677,1,0,0:0:0:0:
448,192,302780,1,0,0:0:0:0:
320,192,302883,1,0,0:0:0:0:
192,192,302987,128,0,303401:0:0:0:0:
64,192,302987,1,2,0:0:0:0:
448,192,303090,1,0,0:0:0:0:
320,192,303194,1,0,0:0:0:0:
64,192,303297,1,0,0:0:0:0:
320,192,303401,1,8,0:0:0:0:
448,192,303401,1,0,0:0:0:0:
192,192,303504,1,0,0:0:0:0:
64,192,303608,1,0,0:0:0:0:
320,192,303711,1,0,0:0:0:0:
448,192,303814,128,2,304125:0:0:0:0:
64,192,303814,1,0,0:0:0:0:
192,192,303918,1,0,0:0:0:0:
320,192,304021,1,0,0:0:0:0:
192,192,304125,128,0,304435:0:0:0:0:
320,192,304228,1,8,0:0:0:0:
448,192,304228,1,0,0:0:0:0:
64,192,304332,1,0,0:0:0:0:
448,192,304435,128,0,304642:0:0:0:0:
320,192,304539,1,0,0:0:0:0:
64,192,304642,128,0,305056:0:0:0:0:
192,192,304642,1,2,0:0:0:0:
448,192,304746,1,0,0:0:0:0:
320,192,304849,1,0,0:0:0:0:
192,192,304952,1,0,0:0:0:0:
320,192,305056,1,8,0:0:0:0:
448,192,305056,1,0,0:0:0:0:
192,192,305159,1,0,0:0:0:0:
64,192,305263,1,0,0:0:0:0:
448,192,305366,1,0,0:0:0:0:
320,192,305470,128,0,305883:0:0:0:0:
192,192,305470,1,2,0:0:0:0:
64,192,305573,1,0,0:0:0:0:
448,192,305677,1,0,0:0:0:0:
192,192,305780,1,0,0:0:0:0:
64,192,305883,1,0,0:0:0:0:
448,192,305883,1,0,0:0:0:0:
64,192,306090,1,0,0:0:0:0:
192,192,306090,1,0,0:0:0:0:
192,192,306297,1,0,0:0:0:0:
320,192,306297,1,4,0:0:0:0:
448,192,306297,128,2,306711:0:0:0:0:
64,192,306504,1,0,0:0:0:0:
64,192,306711,1,8,0:0:0:0:
192,192,306711,128,0,306814:0:0:0:0:
448,192,306814,1,0,0:0:0:0:
192,192,306918,128,0,307539:0:0:0:0:
64,192,307021,1,0,0:0:0:0:
448,192,307125,1,0,0:0:0:0:
320,192,307125,1,2,0:0:0:0:
64,192,307228,1,0,0:0:0:0:
448,192,307332,1,0,0:0:0:0:
320,192,307435,1,0,0:0:0:0:
448,192,307539,1,0,0:0:0:0:
64,192,307539,1,8,0:0:0:0:
192,192,307642,1,0,0:0:0:0:
320,192,307746,128,0,307952:0:0:0:0:
64,192,307849,1,0,0:0:0:0:
192,192,307952,1,2,0:0:0:0:
448,192,307952,128,0,308573:0:0:0:0:
320,192,308056,1,0,0:0:0:0:
64,192,308159,1,0,0:0:0:0:
320,192,308263,1,0,0:0:0:0:
64,192,308366,1,0,0:0:0:0:
192,192,308366,1,8,0:0:0:0:
320,192,308470,1,0,0:0:0:0:
192,192,308573,128,0,308987:0:0:0:0:
64,192,308677,1,0,0:0:0:0:
448,192,308780,1,0,0:0:0:0:
320,192,308780,1,2,0:0:0:0:
64,192,308883,1,0,0:0:0:0:
448,192,308987,1,0,0:0:0:0:
320,192,309090,1,0,0:0:0:0:
192,192,309194,1,8,0:0:0:0:
64,192,309194,128,0,309608:0:0:0:0:
448,192,309297,1,0,0:0:0:0:
320,192,309401,1,0,0:0:0:0:
192,192,309504,1,0,0:0:0:0:
320,192,309608,1,2,0:0:0:0:
448,192,309608,128,0,310021:0:0:0:0:
192,192,309711,1,0,0:0:0:0:
64,192,309814,1,0,0:0:0:0:
320,192,309918,1,0,0:0:0:0:
192,192,310021,1,8,0:0:0:0:
64,192,310021,1,0,0:0:0:0:
448,192,310125,1,0,0:0:0:0:
320,192,310228,1,0,0:0:0:0:
64,192,310332,1,0,0:0:0:0:
448,192,310435,1,2,0:0:0:0:
192,192,310435,128,0,310746:0:0:0:0:
320,192,310539,1,0,0:0:0:0:
64,192,310642,1,0,0:0:0:0:
448,192,310746,128,0,311056:0:0:0:0:
320,192,310849,1,8,0:0:0:0:
64,192,310849,1,0,0:0:0:0:
192,192,310952,1,0,0:0:0:0:
64,192,311056,128,0,311263:0:0:0:0:
192,192,311159,1,0,0:0:0:0:
448,192,311263,1,2,0:0:0:0:
320,192,311263,128,0,311677:0:0:0:0:
192,192,311366,1,0,0:0:0:0:
64,192,311470,1,0,0:0:0:0:
448,192,311573,1,0,0:0:0:0:
64,192,311677,1,0,0:0:0:0:
192,192,311677,1,8,0:0:0:0:
448,192,311780,1,0,0:0:0:0:
192,192,311883,128,0,312090:0:0:0:0:
64,192,311987,1,0,0:0:0:0:
320,192,312090,1,2,0:0:0:0:
448,192,312090,128,0,312504:0:0:0:0:
192,192,312194,1,0,0:0:0:0:
320,192,312297,1,0,0:0:0:0:
64,192,312401,1,0,0:0:0:0:
320,192,312504,1,0,0:0:0:0:
192,192,312504,1,8,0:0:0:0:
448,192,312608,1,0,0:0:0:0:
64,192,312711,1,0,0:0:0:0:
320,192,312814,1,0,0:0:0:0:
64,192,312918,1,2,0:0:0:0:
448,192,312918,128,0,313228:0:0:0:0:
192,192,312918,1,4,0:0:0:0:
64,192,313228,128,0,313539:0:0:0:0:
320,192,313332,1,0,0:0:0:0:
192,192,313539,128,0,313746:0:0:0:0:
448,192,313746,128,0,314056:0:0:0:0:
64,192,314056,128,0,314366:0:0:0:0:
192,192,314159,1,0,0:0:0:0:
320,192,314366,128,0,314573:0:0:0:0:
192,192,314573,128,0,314883:0:0:0:0:
64,192,314883,128,0,315194:0:0:0:0:
448,192,314987,1,0,0:0:0:0:
320,192,315194,128,0,315401:0:0:0:0:
448,192,315401,128,0,315814:0:0:0:0:
192,192,315814,1,0,0:0:0:0:
64,192,316228,128,0,316642:0:0:0:0:
192,192,316435,1,0,0:0:0:0:
320,192,316642,128,0,317056:0:0:0:0:
448,192,316849,128,0,317056:0:0:0:0:
192,192,317056,128,0,317883:0:0:0:0:
64,192,317056,128,0,317366:0:0:0:0:
448,192,317366,128,0,317677:0:0:0:0:
320,192,317470,1,0,0:0:0:0:
64,192,317677,128,0,317883:0:0:0:0:
448,192,317883,128,0,318711:0:0:0:0:
320,192,318090,1,0,0:0:0:0:
64,192,318401,1,0,0:0:0:0:
192,192,318711,128,0,319332:0:0:0:0:
320,192,319021,1,0,0:0:0:0:
64,192,319332,1,0,0:0:0:0:
64,192,319539,1,2,0:0:0:0:
192,192,319539,1,4,0:0:0:0:
448,192,319539,128,0,321194:0:0:0:0:
320,192,319539,128,0,320366:0:0:0:0:
192,192,320366,128,0,320677:0:0:0:0:
64,192,320677,128,0,320987:0:0:0:0:
192,192,320987,128,0,321194:0:0:0:0:
320,192,321194,128,0,322849:0:0:0:0:
64,192,321194,128,0,322021:0:0:0:0:
448,192,322021,128,0,322332:0:0:0:0:
192,192,322332,128,0,322642:0:0:0:0:
448,192,322642,128,0,322849:0:0:0:0:
192,192,322849,128,0,324504:0:0:0:0:
64,192,322849,128,0,323677:0:0:0:0:
320,192,323677,128,0,323987:0:0:0:0:
64,192,323987,128,0,324297:0:0:0:0:
320,192,324297,128,0,324504:0:0:0:0:
64,192,324504,128,0,326159:0:0:0:0:
448,192,324504,128,0,325021:0:0:0:0:
192,192,325125,128,0,325228:0:0:0:0:
192,192,325332,128,0,326159:0:0:0:0:
320,192,326159,128,0,326987:0:0:0:0:
448,192,326159,128,0,326470:0:0:0:0:
64,192,326470,128,0,326780:0:0:0:0:
192,192,326780,128,0,326987:0:0:0:0:
448,192,326987,128,0,327814:0:0:0:0:
64,192,326987,128,0,327401:0:0:0:0:
320,192,327401,128,0,327814:0:0:0:0:
64,192,327814,128,0,328642:0:0:0:0:
192,192,327814,128,0,328125:0:0:0:0:
448,192,328125,128,0,328435:0:0:0:0:
320,192,328435,128,0,328642:0:0:0:0:
192,192,328642,128,0,329470:0:0:0:0:
448,192,328642,128,0,329056:0:0:0:0:
64,192,329056,128,0,329470:0:0:0:0:
448,192,329470,128,0,332780:0:0:0:0:
320,192,329470,128,0,329780:0:0:0:0:
192,192,329780,128,0,330090:0:0:0:0:
64,192,330090,128,0,330297:0:0:0:0:
320,192,330297,128,0,331125:0:0:0:0:
64,192,331125,128,0,332780:0:0:0:0:
192,192,331125,128,0,332780:0:0:0:0:
