osu file format v14

[General]
AudioFilename: audio.mp3
AudioLeadIn: 0
PreviewTime: 49545
Countdown: 0
SampleSet: Soft
StackLeniency: 0.7
Mode: 3
LetterboxInBreaks: 0
SpecialStyle: 0
WidescreenStoryboard: 0

[Editor]
Bookmarks: 13920
DistanceSpacing: 0.8
BeatDivisor: 4
GridSize: 16
TimelineZoom: 1.7

[Metadata]
Title:Neoki Yashinoki
TitleUnicode:寝起きヤシの木
Artist:nayuta
ArtistUnicode:nayuta
Creator:Ppass
Version:Palm Tree
Source:
Tags:ゆこぴ yukopi 歌愛ユキ kaai yuki 歌い手 utaite cover 7uta palm tree vocaloid2 vocaloid 2 pop jpop j-pop japanese yukopipikku kozu ozu 小津
BeatmapID:4251531
BeatmapSetID:2038365

[Difficulty]
HPDrainRate:8.5
CircleSize:4
OverallDifficulty:8
ApproachRate:5
SliderMultiplier:1.4
SliderTickRate:1

[Events]
//Background and Video events
Video,0,"BGV.mp4"
0,0,"BG.jpg",0,0
//Break Periods
//Storyboard Layer 0 (Background)
//Storyboard Layer 1 (Fail)
//Storyboard Layer 2 (Pass)
//Storyboard Layer 3 (Foreground)
//Storyboard Layer 4 (Overlay)
//Storyboard Sound Samples
Sample,79545,0,"Castanets.wav",100
Sample,103545,0,"Castanets.wav",100

[TimingPoints]
1920,375,4,2,1,60,1,0
1920,-100,4,2,1,60,0,1
13920,-100,4,2,1,60,0,0
49920,-100,4,2,1,60,0,1
61920,-100,4,2,1,60,0,0
86295,-100,4,2,1,60,0,1
97920,-100,4,2,1,60,0,0

[HitObjects]
64,192,420,5,0,0:0:0:100:tic.wav
448,192,795,1,0,0:0:0:100:tic.wav
64,192,1170,1,0,0:0:0:80:pong.wav
192,192,1170,1,0,0:0:0:0:
448,192,1545,128,0,1732:0:0:0:0:
192,192,1732,128,0,1920:0:0:0:0:
64,192,1920,128,2,2201:0:0:0:0:
320,192,1920,1,4,0:0:0:0:
448,192,1920,1,0,0:0:0:0:
192,192,2107,128,0,2201:0:0:0:0:
64,192,2295,1,8,0:0:0:0:
192,192,2295,128,2,2576:0:0:0:0:
448,192,2295,1,0,0:0:0:0:
320,192,2482,128,0,2576:0:0:0:0:
192,192,2670,1,2,0:0:0:0:
320,192,2670,128,0,2951:0:0:0:0:
448,192,2857,128,0,2951:0:0:0:0:
192,192,2951,1,0,0:0:0:0:
64,192,3045,1,2,0:0:0:0:
320,192,3045,1,8,0:0:0:0:
448,192,3045,1,0,0:0:0:0:
320,192,3232,1,0,0:0:0:0:
192,192,3279,1,0,0:0:0:0:
64,192,3326,1,0,0:0:0:0:
320,192,3420,128,2,3513:0:0:0:0:
448,192,3420,1,0,0:0:0:0:
64,192,3513,1,0,0:0:0:0:
192,192,3607,128,0,3701:0:0:0:0:
320,192,3701,1,0,0:0:0:0:
64,192,3795,1,8,0:0:0:0:
192,192,3795,1,2,0:0:0:0:
448,192,3795,128,0,3888:0:0:0:0:
64,192,3982,128,0,4076:0:0:0:0:
192,192,4076,1,0,0:0:0:0:
64,192,4170,1,2,0:0:0:0:
320,192,4170,128,0,4263:0:0:0:0:
448,192,4263,1,0,0:0:0:0:
192,192,4357,128,0,4451:0:0:0:0:
320,192,4451,1,0,0:0:0:0:
64,192,4545,128,2,4732:0:0:0:0:
192,192,4545,1,8,0:0:0:0:
448,192,4545,1,0,0:0:0:0:
320,192,4732,1,0,0:0:0:0:
448,192,4779,1,0,0:0:0:0:
192,192,4826,1,0,0:0:0:0:
320,192,4873,1,0,0:0:0:0:
64,192,4920,128,2,5201:0:0:0:0:
192,192,4920,1,4,0:0:0:0:
448,192,4920,1,0,0:0:0:0:
320,192,5107,128,0,5201:0:0:0:0:
64,192,5295,1,2,0:0:0:0:
320,192,5295,128,8,5576:0:0:0:0:
448,192,5295,1,0,0:0:0:0:
192,192,5482,128,0,5576:0:0:0:0:
192,192,5670,128,2,5951:0:0:0:0:
320,192,5670,1,0,0:0:0:0:
64,192,5857,128,0,5951:0:0:0:0:
320,192,5951,1,0,0:0:0:0:
64,192,6045,1,8,0:0:0:0:
192,192,6045,1,2,0:0:0:0:
448,192,6045,1,0,0:0:0:0:
192,192,6232,1,0,0:0:0:0:
320,192,6279,1,0,0:0:0:0:
448,192,6326,1,0,0:0:0:0:
64,192,6420,128,2,6513:0:0:0:0:
192,192,6420,1,0,0:0:0:0:
448,192,6513,1,0,0:0:0:0:
320,192,6607,128,0,6701:0:0:0:0:
192,192,6701,1,0,0:0:0:0:
64,192,6795,1,2,0:0:0:0:
320,192,6795,1,8,0:0:0:0:
448,192,6795,128,0,6888:0:0:0:60:Clap.wav
192,192,6982,128,0,7076:0:0:0:0:
64,192,7076,1,0,0:0:0:0:
320,192,7170,128,2,7263:0:0:0:0:
448,192,7170,1,0,0:0:0:0:
192,192,7263,1,0,0:0:0:0:
64,192,7357,1,0,0:0:0:60:Clap.wav
320,192,7357,1,0,0:0:0:0:
448,192,7357,1,0,0:0:0:0:
192,192,7451,1,0,0:0:0:0:
64,192,7545,1,8,0:0:0:0:
320,192,7545,1,2,0:0:0:0:
448,192,7545,128,0,7732:0:0:0:60:Clap.wav
192,192,7732,1,0,0:0:0:0:
64,192,7779,1,0,0:0:0:0:
320,192,7826,1,0,0:0:0:0:
192,192,7873,1,0,0:0:0:0:
64,192,7920,128,4,8201:0:0:0:0:
320,192,7920,1,2,0:0:0:0:
448,192,7920,1,0,0:0:0:0:
448,192,8107,128,0,8201:0:0:0:0:
64,192,8295,1,8,0:0:0:0:
320,192,8295,1,2,0:0:0:0:
448,192,8295,128,0,8576:0:0:0:0:
192,192,8482,128,0,8576:0:0:0:0:
192,192,8670,128,2,8951:0:0:0:0:
448,192,8670,1,0,0:0:0:0:
64,192,8857,128,0,8951:0:0:0:0:
320,192,8951,1,0,0:0:0:0:
64,192,9045,1,2,0:0:0:0:
192,192,9045,1,8,0:0:0:0:
448,192,9045,1,0,0:0:0:0:
192,192,9232,1,0,0:0:0:0:
320,192,9279,1,0,0:0:0:0:
448,192,9326,1,0,0:0:0:0:
64,192,9420,128,2,9513:0:0:0:0:
192,192,9420,1,0,0:0:0:0:
448,192,9513,1,0,0:0:0:0:
320,192,9607,128,0,9701:0:0:0:0:
192,192,9701,1,0,0:0:0:0:
64,192,9795,1,8,0:0:0:0:
320,192,9795,1,2,0:0:0:0:
448,192,9795,128,0,9888:0:0:0:0:
64,192,9982,128,0,10076:0:0:0:0:
448,192,10076,1,0,0:0:0:0:
192,192,10170,1,2,0:0:0:0:
320,192,10170,128,0,10263:0:0:0:0:
448,192,10263,1,0,0:0:0:0:
192,192,10357,128,0,10451:0:0:0:0:
320,192,10451,1,0,0:0:0:0:
64,192,10545,128,2,10732:0:0:0:0:
192,192,10545,1,8,0:0:0:0:
448,192,10545,1,0,0:0:0:0:
192,192,10732,1,0,0:0:0:0:
320,192,10779,1,0,0:0:0:0:
448,192,10826,1,0,0:0:0:0:
192,192,10873,1,0,0:0:0:0:
64,192,10920,128,4,11201:0:0:0:0:
320,192,10920,1,2,0:0:0:0:
448,192,10920,1,0,0:0:0:0:
192,192,11107,128,0,11201:0:0:0:0:
64,192,11295,1,2,0:0:0:0:
192,192,11295,128,8,11576:0:0:0:0:
448,192,11295,1,0,0:0:0:0:
320,192,11482,128,0,11576:0:0:0:0:
192,192,11670,1,2,0:0:0:0:
320,192,11670,128,0,11951:0:0:0:0:
448,192,11857,128,0,11951:0:0:0:0:
192,192,11951,1,0,0:0:0:0:
64,192,12045,1,8,0:0:0:0:
320,192,12045,1,2,0:0:0:0:
448,192,12045,1,0,0:0:0:60:Clap.wav
192,192,12232,128,0,12326:0:0:0:0:
320,192,12326,1,0,0:0:0:0:
64,192,12420,1,2,0:0:0:0:
192,192,12420,1,4,0:0:0:0:
448,192,12420,1,0,0:0:0:0:
64,192,12607,1,0,0:0:0:60:Clap.wav
192,192,12607,1,0,0:0:0:0:
320,192,12607,1,0,0:0:0:0:
192,192,12795,1,2,0:0:0:0:
320,192,12795,128,8,12888:0:0:0:0:
448,192,12795,1,0,0:0:0:60:Clap.wav
64,192,12982,128,0,13076:0:0:0:0:
320,192,13076,1,0,0:0:0:0:
64,192,13170,1,2,0:0:0:0:
192,192,13170,1,0,0:0:0:60:Clap.wav
448,192,13170,128,0,13263:0:0:0:0:
192,192,13357,1,0,0:0:0:0:
64,192,13451,1,0,0:0:0:60:Clap.wav
320,192,13451,1,0,0:0:0:0:
448,192,13451,1,0,0:0:0:0:
64,192,13545,1,8,0:0:0:0:
192,192,13545,128,2,13638:0:0:0:0:
64,192,13732,1,0,0:0:0:60:Clap.wav
320,192,13732,128,0,13826:0:0:0:0:
448,192,13732,1,0,0:0:0:0:
64,192,13920,128,4,14107:0:0:0:0:
192,192,13920,128,2,14013:0:0:0:0:
448,192,13920,1,0,0:0:0:70:Triangle.wav
320,192,14107,128,0,14201:0:0:0:100:Castanets.wav
64,192,14295,128,2,14388:0:0:0:0:
192,192,14295,1,8,0:0:0:0:
448,192,14295,128,0,14482:0:0:0:100:Castanets.wav
320,192,14482,1,0,0:0:0:0:
64,192,14576,1,0,0:0:0:0:
192,192,14670,128,2,14763:0:0:0:0:
448,192,14670,128,0,14763:0:0:0:0:
64,192,14857,128,0,14951:0:0:0:100:Castanets.wav
192,192,14857,128,0,14951:0:0:0:0:
320,192,14951,1,0,0:0:0:0:
64,192,15045,1,8,0:0:0:0:
192,192,15045,1,2,0:0:0:0:
448,192,15045,128,0,15138:0:0:0:100:Castanets.wav
320,192,15232,1,0,0:0:0:0:
192,192,15279,1,0,0:0:0:0:
64,192,15326,1,0,0:0:0:0:
320,192,15420,128,2,15607:0:0:0:0:
448,192,15420,1,0,0:0:0:0:
192,192,15513,128,0,15701:0:0:0:0:
448,192,15607,128,0,15701:0:0:0:100:Castanets.wav
320,192,15701,128,0,15795:0:0:0:0:
64,192,15795,128,2,15982:0:0:0:0:
192,192,15795,1,8,0:0:0:0:
448,192,15795,1,0,0:0:0:100:Castanets.wav
192,192,15982,128,0,16170:0:0:0:0:
320,192,16076,128,0,16263:0:0:0:0:
64,192,16170,128,2,16357:0:0:0:0:
448,192,16170,128,0,16263:0:0:0:0:
192,192,16263,128,0,16451:0:0:0:0:
320,192,16357,128,0,16451:0:0:0:100:Castanets.wav
448,192,16451,1,0,0:0:0:0:
64,192,16545,128,8,16638:0:0:0:0:
192,192,16545,128,2,16638:0:0:0:0:
320,192,16545,1,0,0:0:0:100:Castanets.wav
448,192,16732,1,0,0:0:0:0:
320,192,16779,1,0,0:0:0:0:
64,192,16826,1,0,0:0:0:0:
192,192,16873,1,0,0:0:0:0:
320,192,16920,128,2,17013:0:0:0:0:
448,192,16920,128,0,17107:0:0:0:0:
192,192,17107,128,0,17201:0:0:0:100:Castanets.wav
320,192,17201,1,0,0:0:0:0:
64,192,17295,128,8,17388:0:0:0:0:
192,192,17295,128,2,17482:0:0:0:0:
448,192,17295,1,0,0:0:0:100:Castanets.wav
448,192,17482,128,0,17576:0:0:0:0:
64,192,17576,1,0,0:0:0:0:
192,192,17670,128,2,17763:0:0:0:0:
320,192,17670,128,0,17763:0:0:0:0:
64,192,17857,128,0,17951:0:0:0:100:Castanets.wav
192,192,17857,128,0,17951:0:0:0:0:
320,192,17951,1,0,0:0:0:0:
64,192,18045,128,2,18138:0:0:0:0:
192,192,18045,1,8,0:0:0:0:
448,192,18045,1,0,0:0:0:100:Castanets.wav
320,192,18232,1,0,0:0:0:0:
192,192,18279,1,0,0:0:0:0:
448,192,18326,1,0,0:0:0:0:
192,192,18420,128,2,18513:0:0:0:0:
64,192,18466,128,0,18607:0:0:0:0:
320,192,18607,1,0,0:0:0:100:Castanets.wav
448,192,18607,1,0,0:0:0:0:
192,192,18701,1,0,0:0:0:0:
64,192,18795,1,8,0:0:0:0:
320,192,18795,128,2,18888:0:0:0:0:
448,192,18795,1,0,0:0:0:100:Castanets.wav
192,192,18841,128,0,18935:0:0:0:0:
448,192,18982,128,0,19076:0:0:0:0:
320,192,19029,128,0,19123:0:0:0:0:
64,192,19170,1,2,0:0:0:0:
192,192,19170,128,0,19263:0:0:0:0:
320,192,19216,128,0,19310:0:0:0:0:
64,192,19357,128,0,19451:0:0:0:100:Castanets.wav
192,192,19404,128,0,19498:0:0:0:0:
64,192,19545,1,10,0:0:0:0:
448,192,19545,128,0,19638:0:0:0:100:Castanets.wav
320,192,19591,128,0,19685:0:0:0:0:
192,192,19732,1,0,0:0:0:0:
64,192,19779,1,0,0:0:0:0:
448,192,19826,1,0,0:0:0:0:
320,192,19873,1,0,0:0:0:0:
64,192,19920,128,2,20107:0:0:0:0:
192,192,19920,128,4,20013:0:0:0:0:
448,192,19920,1,0,0:0:0:70:Triangle.wav
320,192,20107,128,0,20201:0:0:0:100:Castanets.wav
64,192,20295,128,2,20388:0:0:0:0:
192,192,20295,1,8,0:0:0:0:
448,192,20295,128,0,20482:0:0:0:100:Castanets.wav
320,192,20482,1,0,0:0:0:0:
64,192,20576,1,0,0:0:0:0:
192,192,20670,128,2,20763:0:0:0:0:
448,192,20670,128,0,20763:0:0:0:0:
64,192,20857,128,0,20951:0:0:0:100:Castanets.wav
192,192,20857,128,0,20951:0:0:0:0:
320,192,20951,1,0,0:0:0:0:
64,192,21045,1,8,0:0:0:0:
192,192,21045,1,2,0:0:0:0:
448,192,21045,128,0,21138:0:0:0:100:Castanets.wav
320,192,21232,1,0,0:0:0:0:
192,192,21279,1,0,0:0:0:0:
64,192,21326,1,0,0:0:0:0:
320,192,21420,128,2,21607:0:0:0:0:
448,192,21420,1,0,0:0:0:0:
192,192,21513,128,0,21701:0:0:0:0:
448,192,21607,128,0,21701:0:0:0:100:Castanets.wav
320,192,21701,128,0,21795:0:0:0:0:
64,192,21795,128,2,21982:0:0:0:0:
192,192,21795,1,8,0:0:0:0:
448,192,21795,1,0,0:0:0:100:Castanets.wav
192,192,21982,128,0,22170:0:0:0:0:
320,192,22076,128,0,22263:0:0:0:0:
64,192,22170,128,2,22357:0:0:0:0:
448,192,22170,128,0,22263:0:0:0:0:
192,192,22263,128,0,22451:0:0:0:0:
320,192,22357,128,0,22451:0:0:0:100:Castanets.wav
448,192,22451,1,0,0:0:0:0:
64,192,22545,128,8,22638:0:0:0:0:
192,192,22545,128,2,22638:0:0:0:0:
320,192,22545,1,0,0:0:0:100:Castanets.wav
448,192,22732,1,0,0:0:0:0:
320,192,22779,1,0,0:0:0:0:
64,192,22826,1,0,0:0:0:0:
192,192,22873,1,0,0:0:0:0:
320,192,22920,128,2,23013:0:0:0:0:
448,192,22920,128,0,23107:0:0:0:0:
192,192,23107,128,0,23201:0:0:0:100:Castanets.wav
320,192,23201,1,0,0:0:0:0:
64,192,23295,128,8,23388:0:0:0:0:
192,192,23295,128,2,23482:0:0:0:0:
448,192,23295,1,0,0:0:0:100:Castanets.wav
448,192,23482,128,0,23576:0:0:0:0:
64,192,23670,128,2,23763:0:0:0:0:
192,192,23670,128,0,23763:0:0:0:0:
320,192,23857,128,0,23951:0:0:0:100:Castanets.wav
448,192,23857,128,0,23951:0:0:0:0:
192,192,23951,1,0,0:0:0:0:
64,192,24045,128,2,24138:0:0:0:0:
320,192,24045,1,8,0:0:0:0:
448,192,24045,1,0,0:0:0:100:Castanets.wav
192,192,24232,1,0,0:0:0:0:
320,192,24279,1,0,0:0:0:0:
448,192,24326,1,0,0:0:0:0:
64,192,24420,1,2,0:0:0:0:
192,192,24420,128,0,24607:0:0:0:0:
320,192,24513,128,0,24701:0:0:0:0:
64,192,24607,128,0,24701:0:0:0:100:Castanets.wav
192,192,24701,128,0,24795:0:0:0:0:
64,192,24795,1,8,0:0:0:0:
320,192,24795,128,2,24888:0:0:0:0:
448,192,24795,128,0,24982:0:0:0:100:Castanets.wav
192,192,24982,128,0,25170:0:0:0:0:
64,192,25076,128,0,25170:0:0:0:0:
320,192,25170,128,2,25263:0:0:0:0:
448,192,25170,128,0,25263:0:0:0:0:
192,192,25357,128,0,25451:0:0:0:100:Castanets.wav
320,192,25357,128,0,25451:0:0:0:0:
64,192,25545,128,10,25732:0:0:0:0:
192,192,25545,128,0,25638:0:0:0:70:Triangle.wav
448,192,25545,1,0,0:0:0:100:Castanets.wav
320,192,25732,1,0,0:0:0:0:
448,192,25779,1,0,0:0:0:0:
192,192,25826,1,0,0:0:0:0:
320,192,25873,1,0,0:0:0:0:
64,192,25920,128,4,26107:0:0:0:0:
192,192,25920,1,2,0:0:0:0:
448,192,25920,1,0,0:0:0:0:
320,192,26295,128,0,26576:0:0:0:0:
192,192,26482,128,0,26576:0:0:0:0:
448,192,26670,128,0,26857:0:0:0:0:
192,192,26857,128,0,27138:0:0:0:0:
320,192,27045,128,0,27138:0:0:0:0:
64,192,27232,128,0,27420:0:0:0:0:
192,192,27420,1,0,0:0:0:0:
192,192,27795,1,0,0:0:0:0:
192,192,28170,1,0,0:0:0:0:
320,192,28263,1,0,0:0:0:0:
192,192,28357,1,0,0:0:0:0:
320,192,28451,1,0,0:0:0:0:
64,192,28545,1,0,0:0:0:0:
448,192,28545,1,0,0:0:0:0:
64,192,28920,1,2,0:0:0:0:
192,192,28920,1,4,0:0:0:0:
448,192,28920,128,0,29107:0:0:0:0:
320,192,29107,1,0,0:0:0:0:
64,192,29295,128,2,29576:0:0:0:0:
448,192,29295,1,0,0:0:0:0:
192,192,29482,128,0,29576:0:0:0:0:
64,192,29670,1,2,0:0:0:0:
192,192,29670,128,0,29857:0:0:0:0:
448,192,29857,128,0,30138:0:0:0:0:
192,192,29951,1,0,0:0:0:0:
64,192,30045,1,2,0:0:0:0:
320,192,30045,128,0,30138:0:0:0:0:
64,192,30232,128,0,30420:0:0:0:0:
192,192,30420,1,2,0:0:0:0:
448,192,30420,1,0,0:0:0:0:
320,192,30607,1,0,0:0:0:0:
64,192,30795,1,2,0:0:0:0:
448,192,30795,1,0,0:0:0:0:
192,192,30982,1,0,0:0:0:0:
448,192,31076,1,0,0:0:0:0:
64,192,31170,1,2,0:0:0:0:
320,192,31170,1,0,0:0:0:0:
192,192,31357,1,0,0:0:0:0:
64,192,31545,1,2,0:0:0:0:
448,192,31545,1,0,0:0:0:0:
320,192,31732,1,0,0:0:0:0:
192,192,31826,1,0,0:0:0:0:
64,192,31920,1,2,0:0:0:0:
448,192,31920,1,0,0:0:0:0:
320,192,32107,1,0,0:0:0:0:
192,192,32295,1,2,0:0:0:0:
448,192,32295,1,0,0:0:0:0:
64,192,32482,1,0,0:0:0:0:
320,192,32670,1,2,0:0:0:0:
448,192,32670,1,0,0:0:0:0:
64,192,32857,1,0,0:0:0:0:
448,192,32951,1,0,0:0:0:0:
192,192,33045,1,2,0:0:0:0:
320,192,33045,1,0,0:0:0:0:
448,192,33232,1,0,0:0:0:0:
64,192,33420,1,2,0:0:0:0:
192,192,33420,1,0,0:0:0:0:
320,192,33607,1,0,0:0:0:0:
192,192,33795,1,2,0:0:0:0:
448,192,33795,1,0,0:0:0:0:
64,192,33982,1,0,0:0:0:0:
192,192,34076,1,0,0:0:0:0:
320,192,34170,1,2,0:0:0:0:
448,192,34170,1,0,0:0:0:0:
64,192,34357,1,0,0:0:0:0:
192,192,34545,1,2,0:0:0:0:
320,192,34545,1,0,0:0:0:0:
448,192,34732,1,0,0:0:0:0:
320,192,34826,1,0,0:0:0:0:
64,192,34920,1,2,0:0:0:0:
192,192,34920,128,0,35107:0:0:0:0:
448,192,35107,1,0,0:0:0:0:
320,192,35295,1,2,0:0:0:0:
448,192,35295,128,0,35576:0:0:0:0:
64,192,35482,128,0,35576:0:0:0:0:
64,192,35670,1,2,0:0:0:0:
448,192,35670,128,0,35857:0:0:0:0:
192,192,35857,128,0,36045:0:0:0:0:
320,192,35951,1,0,0:0:0:0:
64,192,36045,1,2,0:0:0:0:
448,192,36045,1,0,0:0:0:0:
320,192,36232,128,0,36326:0:0:0:0:
64,192,36420,1,0,0:0:0:70:Snare.wav
192,192,36420,1,0,0:0:0:0:
448,192,36420,1,0,0:0:0:0:
64,192,36607,1,2,0:0:0:0:
192,192,36607,1,0,0:0:0:0:
64,192,36795,1,0,0:0:0:70:Snare.wav
320,192,36795,1,0,0:0:0:0:
448,192,36795,1,0,0:0:0:0:
192,192,36982,1,2,0:0:0:0:
448,192,36982,1,0,0:0:0:0:
320,192,37076,1,0,0:0:0:0:
64,192,37170,1,2,0:0:0:0:
192,192,37170,1,0,0:0:0:0:
64,192,37357,1,2,0:0:0:0:
320,192,37357,1,0,0:0:0:60:Clap.wav
448,192,37357,1,0,0:0:0:0:
64,192,37545,1,2,0:0:0:0:
192,192,37545,1,4,0:0:0:0:
448,192,37545,1,0,0:0:0:0:
320,192,37732,1,0,0:0:0:70:tom03.wav
448,192,37732,1,0,0:0:0:0:
64,192,37826,1,0,0:0:0:70:tom03.wav
192,192,37826,1,0,0:0:0:0:
64,192,37920,1,2,0:0:0:0:
320,192,37920,1,4,0:0:0:0:
448,192,37920,128,0,38201:0:0:0:0:
64,192,38107,128,0,38201:0:0:0:0:
64,192,38295,128,2,38576:0:0:0:0:
192,192,38295,1,8,0:0:0:0:
448,192,38295,1,0,0:0:0:0:
448,192,38482,128,0,38576:0:0:0:0:
64,192,38670,1,2,0:0:0:0:
448,192,38670,128,0,38951:0:0:0:0:
320,192,38857,128,0,38951:0:0:0:0:
64,192,39045,1,2,0:0:0:0:
320,192,39045,1,8,0:0:0:0:
448,192,39045,128,0,39138:0:0:0:0:
64,192,39232,128,0,39420:0:0:0:0:
192,192,39326,1,0,0:0:0:0:
320,192,39420,1,2,0:0:0:0:
448,192,39420,128,0,39513:0:0:0:0:
64,192,39513,1,0,0:0:0:0:
192,192,39607,128,0,39701:0:0:0:0:
320,192,39701,1,0,0:0:0:0:
64,192,39795,128,2,39888:0:0:0:0:
192,192,39795,1,8,0:0:0:0:
448,192,39795,1,0,0:0:0:0:
320,192,39982,128,0,40076:0:0:0:0:
192,192,40076,1,0,0:0:0:0:
64,192,40170,1,2,0:0:0:0:
448,192,40170,128,0,40263:0:0:0:0:
192,192,40263,1,0,0:0:0:0:
64,192,40357,128,0,40451:0:0:0:0:
320,192,40451,1,0,0:0:0:0:
64,192,40545,1,2,0:0:0:0:
192,192,40545,128,8,40732:0:0:0:0:
448,192,40545,1,0,0:0:0:0:
320,192,40732,1,0,0:0:0:0:
448,192,40779,1,0,0:0:0:0:
64,192,40826,1,0,0:0:0:0:
192,192,40873,1,0,0:0:0:0:
320,192,40920,128,2,41107:0:0:0:0:
448,192,40920,128,0,41013:0:0:0:0:
64,192,41013,128,0,41201:0:0:0:0:
192,192,41107,128,0,41201:0:0:0:0:
320,192,41201,1,0,0:0:0:0:
64,192,41295,128,2,41388:0:0:0:0:
192,192,41295,1,8,0:0:0:0:
448,192,41295,1,0,0:0:0:0:
320,192,41482,128,0,41576:0:0:0:0:
192,192,41576,1,0,0:0:0:0:
64,192,41670,1,2,0:0:0:0:
448,192,41670,128,0,41951:0:0:0:0:
320,192,41857,128,0,41951:0:0:0:0:
64,192,42045,128,2,42138:0:0:0:0:
320,192,42045,1,8,0:0:0:0:
448,192,42045,1,0,0:0:0:0:
320,192,42232,1,0,0:0:0:0:
192,192,42279,1,0,0:0:0:0:
64,192,42326,1,0,0:0:0:0:
320,192,42420,128,2,42513:0:0:0:0:
448,192,42420,1,0,0:0:0:0:
64,192,42513,1,0,0:0:0:0:
192,192,42607,128,0,42701:0:0:0:0:
320,192,42701,1,0,0:0:0:0:
64,192,42795,128,8,42888:0:0:0:0:
192,192,42795,1,2,0:0:0:0:
448,192,42795,1,0,0:0:0:0:
448,192,42982,128,0,43076:0:0:0:0:
192,192,43076,1,0,0:0:0:0:
64,192,43170,1,2,0:0:0:0:
320,192,43170,128,0,43263:0:0:0:0:
448,192,43263,1,0,0:0:0:0:
192,192,43357,128,0,43451:0:0:0:0:
320,192,43451,1,0,0:0:0:0:
64,192,43545,128,8,43732:0:0:0:0:
192,192,43545,1,2,0:0:0:0:
448,192,43545,1,0,0:0:0:0:
320,192,43732,1,0,0:0:0:0:
192,192,43779,1,0,0:0:0:0:
448,192,43826,1,0,0:0:0:0:
320,192,43873,1,0,0:0:0:0:
64,192,43920,128,2,44013:0:0:0:0:
192,192,43920,1,0,0:0:0:0:
320,192,44107,128,0,44201:0:0:0:0:
192,192,44201,1,0,0:0:0:0:
64,192,44295,1,8,0:0:0:0:
320,192,44295,1,2,0:0:0:0:
448,192,44295,128,0,44388:0:0:0:0:
192,192,44482,128,0,44576:0:0:0:0:
320,192,44576,1,0,0:0:0:0:
64,192,44670,128,2,44763:0:0:0:0:
448,192,44670,1,0,0:0:0:0:
192,192,44763,1,0,0:0:0:0:
320,192,44857,128,0,44951:0:0:0:0:
192,192,44951,1,0,0:0:0:0:
64,192,45045,1,2,0:0:0:0:
320,192,45045,1,8,0:0:0:0:
448,192,45045,128,0,45138:0:0:0:0:
192,192,45232,1,0,0:0:0:0:
320,192,45279,1,0,0:0:0:0:
448,192,45326,1,0,0:0:0:0:
64,192,45420,128,2,45513:0:0:0:0:
192,192,45420,1,0,0:0:0:0:
448,192,45513,1,0,0:0:0:0:
320,192,45607,128,0,45701:0:0:0:0:
64,192,45701,1,0,0:0:0:0:
192,192,45795,1,2,0:0:0:0:
320,192,45795,1,8,0:0:0:0:
448,192,45795,128,0,45888:0:0:0:0:
192,192,45982,128,0,46076:0:0:0:0:
448,192,46076,1,0,0:0:0:0:
64,192,46170,1,2,0:0:0:0:
320,192,46170,128,0,46263:0:0:0:0:
192,192,46357,128,0,46451:0:0:0:0:
320,192,46451,1,0,0:0:0:0:
64,192,46545,128,2,46826:0:0:0:0:
192,192,46545,1,8,0:0:0:0:
448,192,46545,1,0,0:0:0:0:
320,192,46638,128,0,46826:0:0:0:0:
448,192,46732,128,0,46826:0:0:0:0:
64,192,46920,1,2,0:0:0:0:
320,192,46920,128,4,47013:0:0:0:0:
448,192,46920,128,0,47013:0:0:0:0:
320,192,47107,128,0,47201:0:0:0:0:
64,192,47295,128,8,47482:0:0:0:0:
192,192,47295,128,2,47388:0:0:0:0:
448,192,47295,1,0,0:0:0:0:
320,192,47482,1,0,0:0:0:0:
192,192,47529,1,0,0:0:0:0:
448,192,47576,1,0,0:0:0:0:
320,192,47623,1,0,0:0:0:0:
64,192,47670,128,2,47763:0:0:0:0:
192,192,47670,128,0,47763:0:0:0:0:
192,192,47857,128,0,47951:0:0:0:0:
320,192,47857,128,0,47951:0:0:0:0:
64,192,48045,1,8,0:0:0:0:
320,192,48045,128,2,48138:0:0:0:0:
448,192,48045,128,0,48138:0:0:0:0:
192,192,48232,1,0,0:0:0:0:
320,192,48279,1,0,0:0:0:0:
64,192,48326,1,0,0:0:0:0:
192,192,48373,1,0,0:0:0:0:
64,192,48420,1,2,0:0:0:0:
320,192,48420,128,4,48513:0:0:0:0:
448,192,48420,128,0,48607:0:0:0:0:
64,192,48795,128,8,48982:0:0:0:0:
192,192,48795,128,2,48888:0:0:0:0:
320,192,48795,1,0,0:0:0:0:
64,192,49170,128,2,49451:0:0:0:0:
320,192,49170,128,8,49357:0:0:0:0:
448,192,49170,128,0,49263:0:0:0:0:
192,192,49263,128,0,49451:0:0:0:0:
448,192,49545,128,0,49732:0:0:0:0:
192,192,49732,128,0,49920:0:0:0:0:
64,192,49920,128,2,50201:0:0:0:0:
320,192,49920,1,4,0:0:0:0:
448,192,49920,1,0,0:0:0:0:
192,192,50107,128,0,50201:0:0:0:0:
64,192,50295,1,8,0:0:0:0:
192,192,50295,128,2,50576:0:0:0:0:
448,192,50295,1,0,0:0:0:0:
320,192,50482,128,0,50576:0:0:0:0:
192,192,50670,1,2,0:0:0:0:
320,192,50670,128,0,50951:0:0:0:0:
448,192,50857,128,0,50951:0:0:0:0:
192,192,50951,1,0,0:0:0:0:
64,192,51045,1,2,0:0:0:0:
320,192,51045,1,8,0:0:0:0:
448,192,51045,1,0,0:0:0:0:
320,192,51232,1,0,0:0:0:0:
192,192,51279,1,0,0:0:0:0:
64,192,51326,1,0,0:0:0:0:
320,192,51420,128,2,51513:0:0:0:0:
448,192,51420,1,0,0:0:0:0:
64,192,51513,1,0,0:0:0:0:
192,192,51607,128,0,51701:0:0:0:0:
320,192,51701,1,0,0:0:0:0:
64,192,51795,1,8,0:0:0:0:
192,192,51795,1,2,0:0:0:0:
448,192,51795,128,0,51888:0:0:0:0:
64,192,51982,128,0,52076:0:0:0:0:
192,192,52076,1,0,0:0:0:0:
64,192,52170,1,2,0:0:0:0:
320,192,52170,128,0,52263:0:0:0:0:
448,192,52263,1,0,0:0:0:0:
192,192,52357,128,0,52451:0:0:0:0:
320,192,52451,1,0,0:0:0:0:
64,192,52545,128,2,52732:0:0:0:0:
192,192,52545,1,8,0:0:0:0:
448,192,52545,1,0,0:0:0:0:
320,192,52732,1,0,0:0:0:0:
448,192,52779,1,0,0:0:0:0:
192,192,52826,1,0,0:0:0:0:
320,192,52873,1,0,0:0:0:0:
64,192,52920,128,2,53201:0:0:0:0:
192,192,52920,1,4,0:0:0:0:
448,192,52920,1,0,0:0:0:0:
320,192,53107,128,0,53201:0:0:0:0:
64,192,53295,1,2,0:0:0:0:
320,192,53295,128,8,53576:0:0:0:0:
448,192,53295,1,0,0:0:0:0:
192,192,53482,128,0,53576:0:0:0:0:
192,192,53670,128,2,53951:0:0:0:0:
320,192,53670,1,0,0:0:0:0:
64,192,53857,128,0,53951:0:0:0:0:
320,192,53951,1,0,0:0:0:0:
64,192,54045,1,8,0:0:0:0:
192,192,54045,1,2,0:0:0:0:
448,192,54045,1,0,0:0:0:0:
192,192,54232,1,0,0:0:0:0:
320,192,54279,1,0,0:0:0:0:
448,192,54326,1,0,0:0:0:0:
64,192,54420,128,2,54513:0:0:0:0:
192,192,54420,1,0,0:0:0:0:
448,192,54513,1,0,0:0:0:0:
320,192,54607,128,0,54701:0:0:0:0:
192,192,54701,1,0,0:0:0:0:
64,192,54795,1,2,0:0:0:0:
320,192,54795,1,8,0:0:0:0:
448,192,54795,128,0,54888:0:0:0:60:Clap.wav
192,192,54982,128,0,55076:0:0:0:0:
64,192,55076,1,0,0:0:0:0:
320,192,55170,128,2,55263:0:0:0:0:
448,192,55170,1,0,0:0:0:0:
192,192,55263,1,0,0:0:0:0:
64,192,55357,1,0,0:0:0:60:Clap.wav
320,192,55357,1,0,0:0:0:0:
448,192,55357,1,0,0:0:0:0:
192,192,55451,1,0,0:0:0:0:
64,192,55545,1,8,0:0:0:0:
320,192,55545,1,2,0:0:0:0:
448,192,55545,128,0,55732:0:0:0:60:Clap.wav
192,192,55732,1,0,0:0:0:0:
64,192,55779,1,0,0:0:0:0:
320,192,55826,1,0,0:0:0:0:
192,192,55873,1,0,0:0:0:0:
64,192,55920,128,4,56201:0:0:0:0:
320,192,55920,1,2,0:0:0:0:
448,192,55920,1,0,0:0:0:0:
448,192,56107,128,0,56201:0:0:0:0:
64,192,56295,1,8,0:0:0:0:
320,192,56295,1,2,0:0:0:0:
448,192,56295,128,0,56576:0:0:0:0:
192,192,56482,128,0,56576:0:0:0:0:
192,192,56670,128,2,56951:0:0:0:0:
448,192,56670,1,0,0:0:0:0:
64,192,56857,128,0,56951:0:0:0:0:
320,192,56951,1,0,0:0:0:0:
64,192,57045,1,2,0:0:0:0:
192,192,57045,1,8,0:0:0:0:
448,192,57045,1,0,0:0:0:0:
192,192,57232,1,0,0:0:0:0:
320,192,57279,1,0,0:0:0:0:
448,192,57326,1,0,0:0:0:0:
64,192,57420,128,2,57513:0:0:0:0:
192,192,57420,1,0,0:0:0:0:
448,192,57513,1,0,0:0:0:0:
320,192,57607,128,0,57701:0:0:0:0:
192,192,57701,1,0,0:0:0:0:
64,192,57795,1,8,0:0:0:0:
320,192,57795,1,2,0:0:0:0:
448,192,57795,128,0,57888:0:0:0:0:
64,192,57982,128,0,58076:0:0:0:0:
448,192,58076,1,0,0:0:0:0:
192,192,58170,1,2,0:0:0:0:
320,192,58170,128,0,58263:0:0:0:0:
448,192,58263,1,0,0:0:0:0:
192,192,58357,128,0,58451:0:0:0:0:
320,192,58451,1,0,0:0:0:0:
64,192,58545,128,2,58732:0:0:0:0:
192,192,58545,1,8,0:0:0:0:
448,192,58545,1,0,0:0:0:0:
192,192,58732,1,0,0:0:0:0:
320,192,58779,1,0,0:0:0:0:
448,192,58826,1,0,0:0:0:0:
192,192,58873,1,0,0:0:0:0:
64,192,58920,128,4,59201:0:0:0:0:
320,192,58920,1,2,0:0:0:0:
448,192,58920,1,0,0:0:0:0:
192,192,59107,128,0,59201:0:0:0:0:
64,192,59295,1,2,0:0:0:0:
192,192,59295,128,8,59576:0:0:0:0:
448,192,59295,1,0,0:0:0:0:
320,192,59482,128,0,59576:0:0:0:0:
192,192,59670,1,2,0:0:0:0:
320,192,59670,128,0,59951:0:0:0:0:
448,192,59857,128,0,59951:0:0:0:0:
192,192,59951,1,0,0:0:0:0:
64,192,60045,1,8,0:0:0:0:
320,192,60045,1,2,0:0:0:0:
448,192,60045,1,0,0:0:0:60:Clap.wav
192,192,60232,128,0,60326:0:0:0:0:
320,192,60326,1,0,0:0:0:0:
64,192,60420,1,2,0:0:0:0:
192,192,60420,1,4,0:0:0:0:
448,192,60420,1,0,0:0:0:0:
64,192,60607,1,0,0:0:0:60:Clap.wav
192,192,60607,1,0,0:0:0:0:
320,192,60607,1,0,0:0:0:0:
192,192,60795,1,2,0:0:0:0:
320,192,60795,128,8,60888:0:0:0:0:
448,192,60795,1,0,0:0:0:60:Clap.wav
64,192,60982,128,0,61076:0:0:0:0:
320,192,61076,1,0,0:0:0:0:
64,192,61170,1,2,0:0:0:0:
192,192,61170,1,0,0:0:0:60:Clap.wav
448,192,61170,128,0,61263:0:0:0:0:
192,192,61357,1,2,0:0:0:0:
320,192,61357,128,0,61451:0:0:0:0:
64,192,61545,128,2,61826:0:0:0:0:
320,192,61545,1,8,0:0:0:0:
448,192,61545,1,4,0:0:0:0:
192,192,61732,128,0,61826:0:0:0:0:
64,192,61920,1,6,0:0:0:0:
192,192,61920,1,0,0:0:0:70:Triangle.wav
448,192,61920,1,0,0:0:0:0:
320,192,62013,1,0,0:0:0:0:
192,192,62107,1,0,0:0:0:0:
320,192,62201,1,0,0:0:0:0:
64,192,62295,1,2,0:0:0:0:
448,192,62295,1,0,0:0:0:0:
192,192,62388,1,0,0:0:0:0:
320,192,62482,1,0,0:0:0:0:
192,192,62576,1,0,0:0:0:0:
64,192,62670,1,2,0:0:0:0:
448,192,62670,1,0,0:0:0:0:
320,192,62763,1,0,0:0:0:0:
448,192,62857,1,0,0:0:0:0:
192,192,62951,1,0,0:0:0:0:
320,192,63045,1,2,0:0:0:0:
448,192,63045,1,0,0:0:0:0:
64,192,63138,1,0,0:0:0:0:
192,192,63232,1,0,0:0:0:0:
320,192,63326,1,0,0:0:0:0:
64,192,63420,1,2,0:0:0:0:
448,192,63420,1,0,0:0:0:0:
192,192,63513,1,0,0:0:0:0:
64,192,63607,1,0,0:0:0:0:
448,192,63701,1,0,0:0:0:0:
192,192,63795,1,2,0:0:0:0:
320,192,63795,1,0,0:0:0:0:
64,192,63888,1,0,0:0:0:0:
320,192,63982,1,0,0:0:0:0:
192,192,64076,1,0,0:0:0:0:
64,192,64170,1,2,0:0:0:0:
448,192,64170,1,0,0:0:0:0:
320,192,64263,1,0,0:0:0:0:
448,192,64357,1,0,0:0:0:0:
192,192,64451,1,0,0:0:0:0:
64,192,64545,1,2,0:0:0:0:
320,192,64545,1,0,0:0:0:0:
448,192,64638,1,0,0:0:0:0:
64,192,64732,1,0,0:0:0:0:
192,192,64826,1,0,0:0:0:0:
64,192,64920,1,4,0:0:0:0:
320,192,64920,1,2,0:0:0:0:
448,192,64920,1,0,0:0:0:0:
192,192,65013,1,0,0:0:0:0:
320,192,65107,1,0,0:0:0:0:
192,192,65201,1,0,0:0:0:0:
64,192,65295,1,8,0:0:0:0:
320,192,65295,1,2,0:0:0:0:
448,192,65295,1,0,0:0:0:0:
192,192,65388,1,0,0:0:0:0:
320,192,65482,1,0,0:0:0:0:
448,192,65576,1,0,0:0:0:0:
64,192,65670,1,2,0:0:0:0:
192,192,65670,1,0,0:0:0:0:
448,192,65763,1,0,0:0:0:0:
64,192,65857,1,0,0:0:0:0:
320,192,65951,1,0,0:0:0:0:
64,192,66045,1,8,0:0:0:0:
192,192,66045,1,2,0:0:0:0:
448,192,66045,1,0,0:0:0:0:
320,192,66138,1,0,0:0:0:0:
192,192,66232,1,0,0:0:0:0:
64,192,66326,1,0,0:0:0:0:
320,192,66420,1,2,0:0:0:0:
448,192,66420,1,0,0:0:0:0:
64,192,66513,1,0,0:0:0:0:
320,192,66607,1,0,0:0:0:0:
192,192,66701,1,0,0:0:0:0:
64,192,66795,1,2,0:0:0:0:
320,192,66795,1,8,0:0:0:0:
448,192,66795,1,0,0:0:0:60:Clap.wav
192,192,66888,1,0,0:0:0:0:
448,192,66982,1,0,0:0:0:0:
320,192,67076,1,0,0:0:0:0:
64,192,67170,1,2,0:0:0:0:
192,192,67170,1,0,0:0:0:0:
320,192,67263,1,0,0:0:0:0:
64,192,67357,1,0,0:0:0:60:Clap.wav
192,192,67357,1,0,0:0:0:0:
448,192,67357,1,0,0:0:0:0:
320,192,67451,1,0,0:0:0:0:
64,192,67545,1,8,0:0:0:0:
192,192,67545,1,2,0:0:0:0:
448,192,67545,1,0,0:0:0:60:Clap.wav
320,192,67638,1,0,0:0:0:0:
64,192,67732,1,0,0:0:0:0:
192,192,67826,1,0,0:0:0:0:
64,192,67920,1,2,0:0:0:0:
320,192,67920,1,0,0:0:0:60:Clap.wav
448,192,67920,1,0,0:0:0:70:Triangle.wav
192,192,68107,1,0,0:0:0:0:
320,192,68201,1,0,0:0:0:0:
64,192,68295,1,0,0:0:0:60:Clap.wav
192,192,68295,1,0,0:0:0:0:
448,192,68295,1,0,0:0:0:0:
320,192,68388,1,0,0:0:0:0:
64,192,68482,1,0,0:0:0:0:
192,192,68576,1,0,0:0:0:0:
64,192,68670,1,0,0:0:0:60:Clap.wav
320,192,68670,1,0,0:0:0:0:
448,192,68670,1,0,0:0:0:0:
448,192,68857,1,0,0:0:0:0:
320,192,68951,1,0,0:0:0:0:
64,192,69045,1,0,0:0:0:60:Clap.wav
192,192,69045,1,0,0:0:0:0:
448,192,69045,1,0,0:0:0:0:
320,192,69138,1,0,0:0:0:0:
192,192,69232,1,0,0:0:0:0:
64,192,69326,1,0,0:0:0:0:
192,192,69420,1,2,0:0:0:0:
320,192,69420,1,0,0:0:0:60:Clap.wav
448,192,69420,1,0,0:0:0:0:
320,192,69607,1,0,0:0:0:0:
192,192,69701,1,0,0:0:0:0:
64,192,69795,1,0,0:0:0:60:Clap.wav
320,192,69795,1,0,0:0:0:0:
448,192,69795,1,0,0:0:0:0:
192,192,69982,1,0,0:0:0:0:
320,192,70076,1,0,0:0:0:0:
64,192,70170,1,2,0:0:0:0:
192,192,70170,1,0,0:0:0:60:Clap.wav
448,192,70170,1,0,0:0:0:0:
64,192,70357,1,0,0:0:0:0:
320,192,70451,1,0,0:0:0:0:
64,192,70545,1,0,0:0:0:60:Clap.wav
192,192,70545,1,0,0:0:0:0:
448,192,70545,1,0,0:0:0:0:
320,192,70638,1,0,0:0:0:0:
192,192,70732,1,0,0:0:0:0:
320,192,70826,1,0,0:0:0:0:
64,192,70920,1,6,0:0:0:0:
192,192,70920,1,0,0:0:0:60:Clap.wav
448,192,70920,1,0,0:0:0:70:Triangle.wav
64,192,71107,1,0,0:0:0:0:
192,192,71295,1,2,0:0:0:0:
320,192,71295,1,0,0:0:0:60:Clap.wav
448,192,71295,1,0,0:0:0:0:
64,192,71388,1,0,0:0:0:0:
320,192,71482,1,0,0:0:0:0:
192,192,71576,1,0,0:0:0:0:
64,192,71670,1,2,0:0:0:0:
320,192,71670,1,0,0:0:0:60:Clap.wav
448,192,71670,1,0,0:0:0:0:
448,192,71857,1,0,0:0:0:0:
64,192,72045,1,2,0:0:0:0:
192,192,72045,1,0,0:0:0:60:Clap.wav
320,192,72045,1,0,0:0:0:0:
448,192,72138,1,0,0:0:0:0:
192,192,72232,1,0,0:0:0:0:
320,192,72326,1,0,0:0:0:0:
64,192,72420,1,2,0:0:0:0:
192,192,72420,1,0,0:0:0:60:Clap.wav
448,192,72420,1,0,0:0:0:0:
320,192,72607,1,2,0:0:0:0:
448,192,72607,1,0,0:0:0:0:
64,192,72701,1,2,0:0:0:0:
192,192,72701,1,0,0:0:0:0:
64,192,72795,1,2,0:0:0:0:
320,192,72795,1,0,0:0:0:60:Clap.wav
448,192,72795,1,0,0:0:0:0:
64,192,72982,1,2,0:0:0:0:
192,192,72982,1,0,0:0:0:0:
320,192,73076,1,2,0:0:0:0:
448,192,73076,1,0,0:0:0:0:
64,192,73170,1,2,0:0:0:0:
192,192,73170,1,0,0:0:0:60:Clap.wav
448,192,73170,1,0,0:0:0:0:
192,192,73357,1,2,0:0:0:0:
320,192,73357,1,0,0:0:0:0:
64,192,73545,128,2,73826:0:0:0:0:
320,192,73545,1,0,0:0:0:60:Clap.wav
448,192,73545,1,0,0:0:0:0:
192,192,73638,128,0,73826:0:0:0:0:
448,192,73732,128,0,73826:0:0:0:0:
64,192,73920,128,2,74107:0:0:0:0:
192,192,73920,128,4,74013:0:0:0:0:
448,192,73920,1,0,0:0:0:70:Triangle.wav
320,192,74107,128,0,74201:0:0:0:100:Castanets.wav
64,192,74295,128,2,74388:0:0:0:0:
192,192,74295,1,8,0:0:0:0:
448,192,74295,128,0,74482:0:0:0:100:Castanets.wav
320,192,74482,1,0,0:0:0:0:
64,192,74576,1,0,0:0:0:0:
192,192,74670,128,2,74763:0:0:0:0:
448,192,74670,128,0,74763:0:0:0:0:
64,192,74857,128,0,74951:0:0:0:100:Castanets.wav
192,192,74857,128,0,74951:0:0:0:0:
320,192,74951,1,0,0:0:0:0:
64,192,75045,1,8,0:0:0:0:
192,192,75045,1,2,0:0:0:0:
448,192,75045,128,0,75138:0:0:0:100:Castanets.wav
320,192,75232,1,0,0:0:0:0:
192,192,75279,1,0,0:0:0:0:
64,192,75326,1,0,0:0:0:0:
320,192,75420,1,2,0:0:0:0:
448,192,75420,1,0,0:0:0:80:pong.wav
448,192,75513,1,0,0:0:0:80:pong.wav
320,192,75513,1,0,0:0:0:0:
64,192,75607,1,0,0:0:0:80:pong.wav
192,192,75607,1,0,0:0:0:100:Castanets.wav
64,192,75701,1,0,0:0:0:80:pong.wav
192,192,75701,1,0,0:0:0:0:
192,192,75795,1,10,0:0:0:0:
320,192,75795,1,0,0:0:0:80:pong.wav
448,192,75795,1,0,0:0:0:100:Castanets.wav
64,192,75982,1,0,0:0:0:80:pong.wav
192,192,75982,1,0,0:0:0:0:
64,192,76076,1,0,0:0:0:80:pong.wav
192,192,76076,1,0,0:0:0:0:
320,192,76170,1,2,0:0:0:0:
448,192,76170,1,0,0:0:0:80:pong.wav
320,192,76263,1,0,0:0:0:80:pong.wav
448,192,76263,1,0,0:0:0:0:
64,192,76357,1,0,0:0:0:80:pong.wav
192,192,76357,1,0,0:0:0:100:Castanets.wav
320,192,76451,1,0,0:0:0:0:
64,192,76545,1,10,0:0:0:0:
192,192,76545,1,0,0:0:0:80:pong.wav
448,192,76545,1,0,0:0:0:100:Castanets.wav
64,192,76732,1,0,0:0:0:80:pong.wav
448,192,76732,1,0,0:0:0:0:
320,192,76779,1,0,0:0:0:0:
192,192,76826,1,0,0:0:0:0:
64,192,76873,1,0,0:0:0:0:
320,192,76920,128,2,77013:0:0:0:0:
448,192,76920,128,0,77107:0:0:0:0:
192,192,77107,128,0,77201:0:0:0:100:Castanets.wav
320,192,77201,1,0,0:0:0:0:
64,192,77295,128,8,77388:0:0:0:0:
192,192,77295,128,2,77482:0:0:0:0:
448,192,77295,1,0,0:0:0:100:Castanets.wav
448,192,77482,128,0,77576:0:0:0:0:
192,192,77670,128,2,77763:0:0:0:0:
320,192,77670,128,0,77763:0:0:0:0:
64,192,77857,128,0,77951:0:0:0:100:Castanets.wav
192,192,77857,128,0,77951:0:0:0:0:
320,192,77951,1,0,0:0:0:0:
64,192,78045,128,2,78138:0:0:0:0:
192,192,78045,1,8,0:0:0:0:
448,192,78045,1,0,0:0:0:100:Castanets.wav
192,192,78232,1,0,0:0:0:0:
320,192,78279,1,0,0:0:0:0:
448,192,78326,1,0,0:0:0:0:
64,192,78420,1,2,0:0:0:0:
192,192,78420,1,0,0:0:0:80:pong.wav
320,192,78513,1,0,0:0:0:0:
448,192,78607,1,0,0:0:0:100:Castanets.wav
64,192,78701,1,0,0:0:0:80:pong.wav
192,192,78701,1,0,0:0:0:0:
192,192,78795,1,8,0:0:0:0:
320,192,78795,1,2,0:0:0:0:
448,192,78795,1,0,0:0:0:100:Castanets.wav
64,192,78982,128,0,79076:0:0:0:80:pong.wav
192,192,78982,1,0,0:0:0:0:
192,192,79170,128,2,79263:0:0:0:0:
320,192,79170,1,0,0:0:0:0:
64,192,79357,1,0,0:0:0:80:pong.wav
320,192,79357,128,0,79451:0:0:0:60:Clap.wav
448,192,79357,1,0,0:0:0:100:Castanets.wav
64,192,79545,1,10,0:0:0:0:
320,192,79545,1,0,0:0:0:80:pong.wav
448,192,79545,128,0,79638:0:0:0:60:Clap.wav
192,192,79732,1,0,0:0:0:0:
64,192,79779,1,0,0:0:0:0:
448,192,79826,1,0,0:0:0:0:
320,192,79873,1,0,0:0:0:0:
64,192,79920,128,2,80107:0:0:0:0:
192,192,79920,128,4,80013:0:0:0:0:
448,192,79920,1,0,0:0:0:0:
320,192,80107,128,0,80201:0:0:0:100:Castanets.wav
64,192,80295,128,2,80388:0:0:0:0:
192,192,80295,1,8,0:0:0:0:
448,192,80295,128,0,80482:0:0:0:100:Castanets.wav
320,192,80482,1,0,0:0:0:0:
64,192,80576,1,0,0:0:0:0:
192,192,80670,128,2,80763:0:0:0:0:
448,192,80670,128,0,80763:0:0:0:0:
64,192,80857,128,0,80951:0:0:0:100:Castanets.wav
192,192,80857,128,0,80951:0:0:0:0:
320,192,80951,1,0,0:0:0:0:
64,192,81045,1,8,0:0:0:0:
192,192,81045,1,2,0:0:0:0:
448,192,81045,128,0,81138:0:0:0:100:Castanets.wav
320,192,81232,1,0,0:0:0:0:
192,192,81279,1,0,0:0:0:0:
64,192,81326,1,0,0:0:0:0:
320,192,81420,1,2,0:0:0:0:
448,192,81420,1,0,0:0:0:80:pong.wav
320,192,81513,1,0,0:0:0:80:pong.wav
448,192,81513,1,0,0:0:0:0:
64,192,81607,1,0,0:0:0:80:pong.wav
192,192,81607,1,0,0:0:0:100:Castanets.wav
64,192,81701,1,0,0:0:0:80:pong.wav
192,192,81701,1,0,0:0:0:0:
192,192,81795,1,10,0:0:0:0:
320,192,81795,1,0,0:0:0:80:pong.wav
448,192,81795,1,0,0:0:0:100:Castanets.wav
64,192,81982,1,0,0:0:0:80:pong.wav
192,192,81982,1,0,0:0:0:0:
64,192,82076,1,0,0:0:0:80:pong.wav
192,192,82076,1,0,0:0:0:0:
320,192,82170,1,2,0:0:0:0:
448,192,82170,1,0,0:0:0:80:pong.wav
320,192,82263,1,0,0:0:0:80:pong.wav
448,192,82263,1,0,0:0:0:0:
64,192,82357,1,0,0:0:0:80:pong.wav
192,192,82357,1,0,0:0:0:100:Castanets.wav
320,192,82451,1,0,0:0:0:0:
64,192,82545,1,10,0:0:0:0:
192,192,82545,1,0,0:0:0:80:pong.wav
448,192,82545,1,0,0:0:0:100:Castanets.wav
64,192,82732,1,0,0:0:0:80:pong.wav
448,192,82732,1,0,0:0:0:0:
320,192,82779,1,0,0:0:0:0:
192,192,82826,1,0,0:0:0:0:
64,192,82873,1,0,0:0:0:0:
320,192,82920,128,2,83013:0:0:0:0:
448,192,82920,128,0,83107:0:0:0:0:
192,192,83107,128,0,83201:0:0:0:100:Castanets.wav
320,192,83201,1,0,0:0:0:0:
64,192,83295,128,8,83388:0:0:0:0:
192,192,83295,128,2,83482:0:0:0:0:
448,192,83295,1,0,0:0:0:100:Castanets.wav
448,192,83482,128,0,83576:0:0:0:0:
64,192,83670,128,2,83763:0:0:0:0:
192,192,83670,128,0,83763:0:0:0:0:
320,192,83857,128,0,83951:0:0:0:100:Castanets.wav
448,192,83857,128,0,83951:0:0:0:0:
192,192,83951,1,0,0:0:0:0:
64,192,84045,128,10,84138:0:0:0:0:
320,192,84045,1,0,0:0:0:60:Clap.wav
448,192,84045,1,0,0:0:0:100:Castanets.wav
64,192,84232,1,0,0:0:0:0:
192,192,84279,1,0,0:0:0:0:
320,192,84326,1,0,0:0:0:0:
64,192,84420,1,2,0:0:0:0:
192,192,84420,1,4,0:0:0:0:
448,192,84420,1,0,0:0:0:0:
320,192,84513,1,0,0:0:0:0:
64,192,84607,1,0,0:0:0:60:Clap.wav
192,192,84607,1,0,0:0:0:100:Castanets.wav
448,192,84607,1,0,0:0:0:0:
64,192,84795,1,10,0:0:0:0:
192,192,84795,1,0,0:0:0:60:Clap.wav
448,192,84795,1,0,0:0:0:100:Castanets.wav
320,192,84982,128,0,85076:0:0:0:0:
192,192,85076,1,0,0:0:0:0:
64,192,85170,1,2,0:0:0:0:
320,192,85170,128,8,85263:0:0:0:0:
448,192,85170,128,0,85263:0:0:0:60:Clap.wav
320,192,85357,1,2,0:0:0:0:
448,192,85357,1,0,0:0:0:100:Castanets.wav
192,192,85451,1,0,0:0:0:0:
64,192,85545,1,14,0:0:0:0:
320,192,85545,1,0,0:0:0:100:Castanets.wav
64,192,85732,1,0,0:0:0:70:tom03.wav
192,192,85732,1,0,0:0:0:0:
320,192,85826,1,0,0:0:0:70:tom03.wav
448,192,85826,1,0,0:0:0:0:
64,192,85920,128,2,86107:0:0:0:0:
192,192,85920,128,0,86013:0:0:0:0:
320,192,86107,128,2,86201:0:0:0:0:
448,192,86107,1,0,0:0:0:0:
64,192,86295,1,2,0:0:0:0:
320,192,86295,128,4,86576:0:0:0:0:
448,192,86295,1,0,0:0:0:70:Triangle.wav
192,192,86482,128,0,86576:0:0:0:0:
192,192,86670,128,2,86951:0:0:0:0:
320,192,86670,1,0,0:0:0:0:
64,192,86857,128,0,86951:0:0:0:0:
320,192,86951,1,0,0:0:0:0:
64,192,87045,1,8,0:0:0:0:
192,192,87045,1,2,0:0:0:0:
448,192,87045,1,0,0:0:0:0:
192,192,87232,1,0,0:0:0:0:
320,192,87279,1,0,0:0:0:0:
448,192,87326,1,0,0:0:0:0:
64,192,87420,1,2,0:0:0:0:
192,192,87420,128,0,87513:0:0:0:0:
448,192,87513,1,0,0:0:0:0:
320,192,87607,128,0,87701:0:0:0:0:
192,192,87701,1,0,0:0:0:0:
64,192,87795,128,2,87888:0:0:0:0:
320,192,87795,1,8,0:0:0:0:
448,192,87795,1,0,0:0:0:0:
448,192,87982,128,0,88076:0:0:0:0:
320,192,88076,1,0,0:0:0:0:
64,192,88170,128,2,88263:0:0:0:0:
192,192,88170,128,8,88263:0:0:0:0:
448,192,88170,1,0,0:0:0:0:
192,192,88357,128,0,88451:0:0:0:0:
320,192,88357,128,0,88451:0:0:0:0:
64,192,88545,1,8,0:0:0:0:
320,192,88545,128,2,88638:0:0:0:0:
448,192,88545,128,0,88638:0:0:0:0:
192,192,88732,1,2,0:0:0:0:
448,192,88732,1,0,0:0:0:0:
64,192,88779,1,0,0:0:0:0:
320,192,88826,1,0,0:0:0:0:
192,192,88873,1,0,0:0:0:0:
64,192,88920,1,4,0:0:0:0:
320,192,88920,1,2,0:0:0:0:
448,192,88920,128,0,89201:0:0:0:0:
192,192,89107,128,0,89201:0:0:0:0:
64,192,89295,1,8,0:0:0:0:
192,192,89295,128,2,89576:0:0:0:0:
448,192,89295,1,0,0:0:0:0:
320,192,89482,128,0,89576:0:0:0:0:
192,192,89670,1,2,0:0:0:0:
320,192,89670,128,0,89951:0:0:0:0:
448,192,89857,128,0,89951:0:0:0:0:
192,192,89951,1,0,0:0:0:0:
64,192,90045,1,2,0:0:0:0:
320,192,90045,1,8,0:0:0:0:
448,192,90045,1,0,0:0:0:0:
320,192,90232,1,0,0:0:0:0:
192,192,90279,1,0,0:0:0:0:
64,192,90326,1,0,0:0:0:0:
320,192,90420,1,2,0:0:0:0:
448,192,90420,128,0,90513:0:0:0:0:
64,192,90513,1,0,0:0:0:0:
192,192,90607,128,0,90701:0:0:0:0:
320,192,90701,1,0,0:0:0:0:
64,192,90795,128,8,90888:0:0:0:0:
192,192,90795,1,2,0:0:0:0:
448,192,90795,1,0,0:0:0:60:Clap.wav
320,192,90982,128,0,91076:0:0:0:0:
448,192,91076,1,0,0:0:0:0:
64,192,91170,1,2,0:0:0:0:
192,192,91170,128,0,91263:0:0:0:0:
320,192,91263,1,0,0:0:0:0:
64,192,91357,1,0,0:0:0:60:Clap.wav
192,192,91357,1,0,0:0:0:0:
448,192,91357,1,0,0:0:0:0:
320,192,91451,1,0,0:0:0:0:
64,192,91545,128,2,91732:0:0:0:0:
192,192,91545,1,8,0:0:0:0:
448,192,91545,1,0,0:0:0:60:Clap.wav
320,192,91732,1,0,0:0:0:0:
448,192,91779,1,0,0:0:0:0:
192,192,91826,1,0,0:0:0:0:
320,192,91873,1,0,0:0:0:0:
64,192,91920,1,2,0:0:0:0:
192,192,91920,1,4,0:0:0:0:
448,192,91920,128,0,92201:0:0:0:0:
64,192,92107,128,0,92201:0:0:0:0:
64,192,92295,128,2,92576:0:0:0:0:
192,192,92295,1,8,0:0:0:0:
448,192,92295,1,0,0:0:0:0:
320,192,92482,128,0,92576:0:0:0:0:
64,192,92670,1,2,0:0:0:0:
320,192,92670,128,0,92951:0:0:0:0:
448,192,92857,128,0,92951:0:0:0:0:
192,192,92951,1,0,0:0:0:0:
64,192,93045,1,8,0:0:0:0:
320,192,93045,1,2,0:0:0:0:
448,192,93045,1,0,0:0:0:0:
320,192,93232,1,0,0:0:0:0:
192,192,93279,1,0,0:0:0:0:
64,192,93326,1,0,0:0:0:0:
320,192,93420,1,2,0:0:0:0:
448,192,93420,128,0,93513:0:0:0:0:
64,192,93513,1,0,0:0:0:0:
192,192,93607,128,0,93701:0:0:0:0:
320,192,93701,1,0,0:0:0:0:
64,192,93795,128,2,93888:0:0:0:0:
192,192,93795,1,8,0:0:0:0:
448,192,93795,1,0,0:0:0:0:
448,192,93982,128,0,94076:0:0:0:0:
64,192,94076,1,0,0:0:0:0:
192,192,94170,128,2,94263:0:0:0:0:
320,192,94170,1,0,0:0:0:0:
64,192,94263,1,0,0:0:0:0:
320,192,94357,128,0,94451:0:0:0:0:
192,192,94451,1,0,0:0:0:0:
64,192,94545,1,8,0:0:0:0:
320,192,94545,1,2,0:0:0:0:
448,192,94545,128,0,94732:0:0:0:0:
320,192,94732,1,0,0:0:0:0:
192,192,94779,1,0,0:0:0:0:
64,192,94826,1,0,0:0:0:0:
320,192,94873,1,0,0:0:0:0:
64,192,94920,1,2,0:0:0:0:
192,192,94920,1,4,0:0:0:0:
448,192,94920,128,0,95201:0:0:0:0:
320,192,95107,128,0,95201:0:0:0:0:
64,192,95295,1,8,0:0:0:0:
320,192,95295,128,2,95576:0:0:0:0:
448,192,95295,1,0,0:0:0:0:
192,192,95482,128,0,95576:0:0:0:0:
192,192,95670,128,2,95951:0:0:0:0:
320,192,95670,1,0,0:0:0:0:
64,192,95857,128,0,95951:0:0:0:0:
320,192,95951,1,0,0:0:0:0:
64,192,96045,1,2,0:0:0:0:
192,192,96045,1,8,0:0:0:0:
448,192,96045,1,0,0:0:0:60:Clap.wav
320,192,96232,128,0,96326:0:0:0:0:
192,192,96326,1,0,0:0:0:0:
64,192,96420,1,2,0:0:0:0:
320,192,96420,1,4,0:0:0:0:
448,192,96420,1,0,0:0:0:0:
192,192,96607,1,0,0:0:0:60:Clap.wav
320,192,96607,1,0,0:0:0:0:
448,192,96607,1,0,0:0:0:0:
64,192,96795,1,8,0:0:0:0:
192,192,96795,128,2,96888:0:0:0:0:
320,192,96795,1,0,0:0:0:60:Clap.wav
448,192,96982,128,0,97076:0:0:0:0:
192,192,97076,1,0,0:0:0:0:
64,192,97170,128,2,97263:0:0:0:0:
320,192,97170,1,0,0:0:0:60:Clap.wav
448,192,97170,1,0,0:0:0:0:
320,192,97357,1,0,0:0:0:0:
64,192,97451,1,0,0:0:0:60:Clap.wav
192,192,97451,1,0,0:0:0:0:
448,192,97451,1,0,0:0:0:0:
320,192,97545,128,2,97638:0:0:0:0:
448,192,97545,1,8,0:0:0:0:
64,192,97732,1,0,0:0:0:60:Clap.wav
192,192,97732,128,0,97826:0:0:0:0:
448,192,97732,1,0,0:0:0:0:
320,192,97920,128,2,98013:0:0:0:0:
64,192,97920,1,0,0:0:0:70:Triangle.wav
448,192,97920,128,4,98107:0:0:0:0:
192,192,98107,128,0,98201:0:0:0:100:Castanets.wav
64,192,98295,128,2,98482:0:0:0:0:
320,192,98295,1,8,0:0:0:0:
448,192,98295,128,0,98388:0:0:0:100:Castanets.wav
192,192,98482,1,0,0:0:0:0:
448,192,98576,1,0,0:0:0:0:
64,192,98670,128,2,98763:0:0:0:0:
320,192,98670,128,0,98763:0:0:0:0:
320,192,98857,128,0,98951:0:0:0:100:Castanets.wav
448,192,98857,128,0,98951:0:0:0:0:
192,192,98951,1,0,0:0:0:0:
64,192,99045,128,8,99138:0:0:0:0:
320,192,99045,1,2,0:0:0:0:
448,192,99045,1,0,0:0:0:100:Castanets.wav
192,192,99232,1,0,0:0:0:0:
320,192,99279,1,0,0:0:0:0:
448,192,99326,1,0,0:0:0:0:
64,192,99420,1,2,0:0:0:0:
192,192,99420,1,0,0:0:0:80:pong.wav
64,192,99513,1,0,0:0:0:80:pong.wav
192,192,99513,1,0,0:0:0:0:
320,192,99607,1,0,0:0:0:80:pong.wav
448,192,99607,1,0,0:0:0:100:Castanets.wav
320,192,99701,1,0,0:0:0:80:pong.wav
448,192,99701,1,0,0:0:0:0:
64,192,99795,1,10,0:0:0:0:
192,192,99795,1,0,0:0:0:80:pong.wav
320,192,99795,1,0,0:0:0:100:Castanets.wav
320,192,99982,1,0,0:0:0:80:pong.wav
448,192,99982,1,0,0:0:0:0:
320,192,100076,1,0,0:0:0:80:pong.wav
448,192,100076,1,0,0:0:0:0:
64,192,100170,1,2,0:0:0:0:
192,192,100170,1,0,0:0:0:80:pong.wav
64,192,100263,1,0,0:0:0:80:pong.wav
192,192,100263,1,0,0:0:0:0:
320,192,100357,1,0,0:0:0:80:pong.wav
448,192,100357,1,0,0:0:0:100:Castanets.wav
192,192,100451,1,0,0:0:0:0:
64,192,100545,1,10,0:0:0:0:
320,192,100545,1,0,0:0:0:80:pong.wav
448,192,100545,1,0,0:0:0:100:Castanets.wav
64,192,100732,1,0,0:0:0:80:pong.wav
448,192,100732,1,0,0:0:0:0:
192,192,100779,1,0,0:0:0:0:
320,192,100826,1,0,0:0:0:0:
448,192,100873,1,0,0:0:0:0:
64,192,100920,128,2,101107:0:0:0:0:
192,192,100920,128,0,101013:0:0:0:0:
448,192,101107,128,0,101201:0:0:0:100:Castanets.wav
192,192,101201,1,0,0:0:0:0:
64,192,101295,1,8,0:0:0:0:
448,192,101295,128,2,101482:0:0:0:0:
320,192,101295,128,0,101388:0:0:0:100:Castanets.wav
64,192,101482,128,0,101576:0:0:0:0:
448,192,101670,128,2,101763:0:0:0:0:
192,192,101670,128,0,101763:0:0:0:0:
64,192,101857,128,0,101951:0:0:0:100:Castanets.wav
320,192,101857,128,0,101951:0:0:0:0:
192,192,101951,1,0,0:0:0:0:
64,192,102045,1,2,0:0:0:0:
320,192,102045,1,8,0:0:0:0:
448,192,102045,128,0,102138:0:0:0:100:Castanets.wav
320,192,102232,1,0,0:0:0:0:
192,192,102279,1,0,0:0:0:0:
64,192,102326,1,0,0:0:0:0:
320,192,102420,1,2,0:0:0:0:
448,192,102420,1,0,0:0:0:80:pong.wav
192,192,102513,1,0,0:0:0:0:
64,192,102607,1,0,0:0:0:100:Castanets.wav
320,192,102701,1,0,0:0:0:80:pong.wav
448,192,102701,1,0,0:0:0:0:
64,192,102795,1,8,0:0:0:0:
192,192,102795,1,2,0:0:0:0:
320,192,102795,1,0,0:0:0:100:Castanets.wav
320,192,102982,1,0,0:0:0:80:pong.wav
448,192,102982,128,0,103076:0:0:0:0:
192,192,103170,1,2,0:0:0:0:
320,192,103170,128,0,103263:0:0:0:0:
64,192,103357,1,0,0:0:0:80:pong.wav
192,192,103357,128,0,103451:0:0:0:60:Clap.wav
448,192,103357,1,0,0:0:0:100:Castanets.wav
64,192,103545,128,10,103638:0:0:0:0:
192,192,103545,1,0,0:0:0:80:pong.wav
448,192,103545,1,0,0:0:0:60:Clap.wav
320,192,103732,1,0,0:0:0:0:
448,192,103779,1,0,0:0:0:0:
64,192,103826,1,0,0:0:0:0:
192,192,103873,1,0,0:0:0:0:
64,192,103920,1,2,0:0:0:0:
320,192,103920,128,4,104013:0:0:0:0:
448,192,103920,128,0,104107:0:0:0:70:Triangle.wav
192,192,104107,128,0,104201:0:0:0:100:Castanets.wav
64,192,104295,128,2,104482:0:0:0:0:
320,192,104295,1,8,0:0:0:0:
448,192,104295,128,0,104388:0:0:0:100:Castanets.wav
192,192,104482,1,0,0:0:0:0:
448,192,104576,1,0,0:0:0:0:
64,192,104670,128,2,104763:0:0:0:0:
320,192,104670,128,0,104763:0:0:0:0:
320,192,104857,128,0,104951:0:0:0:100:Castanets.wav
448,192,104857,128,0,104951:0:0:0:0:
192,192,104951,1,0,0:0:0:0:
64,192,105045,128,8,105138:0:0:0:0:
320,192,105045,1,2,0:0:0:0:
448,192,105045,1,0,0:0:0:100:Castanets.wav
192,192,105232,1,0,0:0:0:0:
320,192,105279,1,0,0:0:0:0:
448,192,105326,1,0,0:0:0:0:
64,192,105420,1,2,0:0:0:0:
192,192,105420,1,0,0:0:0:80:pong.wav
64,192,105513,1,0,0:0:0:80:pong.wav
192,192,105513,1,0,0:0:0:0:
320,192,105607,1,0,0:0:0:80:pong.wav
448,192,105607,1,0,0:0:0:100:Castanets.wav
320,192,105701,1,0,0:0:0:80:pong.wav
448,192,105701,1,0,0:0:0:0:
64,192,105795,1,10,0:0:0:0:
192,192,105795,1,0,0:0:0:80:pong.wav
320,192,105795,1,0,0:0:0:100:Castanets.wav
320,192,105982,1,0,0:0:0:80:pong.wav
448,192,105982,1,0,0:0:0:0:
320,192,106076,1,0,0:0:0:80:pong.wav
448,192,106076,1,0,0:0:0:0:
64,192,106170,1,2,0:0:0:0:
192,192,106170,1,0,0:0:0:80:pong.wav
64,192,106263,1,0,0:0:0:80:pong.wav
192,192,106263,1,0,0:0:0:0:
320,192,106357,1,0,0:0:0:80:pong.wav
448,192,106357,1,0,0:0:0:100:Castanets.wav
192,192,106451,1,0,0:0:0:0:
64,192,106545,1,10,0:0:0:0:
320,192,106545,1,0,0:0:0:80:pong.wav
448,192,106545,1,0,0:0:0:100:Castanets.wav
64,192,106732,1,0,0:0:0:80:pong.wav
448,192,106732,1,0,0:0:0:0:
192,192,106779,1,0,0:0:0:0:
320,192,106826,1,0,0:0:0:0:
448,192,106873,1,0,0:0:0:0:
64,192,106920,128,2,107107:0:0:0:0:
192,192,106920,128,0,107013:0:0:0:0:
448,192,107107,128,0,107201:0:0:0:100:Castanets.wav
192,192,107201,1,0,0:0:0:0:
64,192,107295,1,8,0:0:0:0:
448,192,107295,128,2,107482:0:0:0:0:
320,192,107295,128,0,107388:0:0:0:100:Castanets.wav
64,192,107482,128,0,107576:0:0:0:0:
320,192,107670,128,2,107763:0:0:0:0:
448,192,107670,128,0,107763:0:0:0:0:
64,192,107857,128,0,107951:0:0:0:100:Castanets.wav
192,192,107857,128,0,107951:0:0:0:0:
320,192,107951,1,0,0:0:0:0:
64,192,108045,1,2,0:0:0:0:
192,192,108045,1,8,0:0:0:0:
448,192,108045,128,0,108138:0:0:0:100:Castanets.wav
320,192,108232,1,0,0:0:0:0:
192,192,108279,1,0,0:0:0:0:
64,192,108326,1,0,0:0:0:0:
320,192,108420,1,2,0:0:0:0:
448,192,108420,1,0,0:0:0:80:pong.wav
64,192,108513,1,0,0:0:0:80:pong.wav
192,192,108513,1,0,0:0:0:0:
64,192,108607,1,0,0:0:0:80:pong.wav
192,192,108607,1,0,0:0:0:100:Castanets.wav
320,192,108701,1,0,0:0:0:80:pong.wav
448,192,108701,1,0,0:0:0:0:
64,192,108795,1,10,0:0:0:0:
320,192,108795,1,0,0:0:0:80:pong.wav
448,192,108795,1,0,0:0:0:100:Castanets.wav
64,192,108982,128,0,109076:0:0:0:80:pong.wav
192,192,108982,1,0,0:0:0:0:
320,192,109076,1,0,0:0:0:0:
192,192,109170,128,2,109263:0:0:0:0:
448,192,109170,1,0,0:0:0:80:pong.wav
64,192,109263,1,0,0:0:0:0:
320,192,109357,128,0,109451:0:0:0:80:pong.wav
448,192,109357,1,0,0:0:0:100:Castanets.wav
192,192,109451,1,0,0:0:0:0:
64,192,109545,1,10,0:0:0:0:
320,192,109545,128,0,109732:0:0:0:70:Triangle.wav
448,192,109545,128,0,109638:0:0:0:100:Castanets.wav
192,192,109638,128,0,109826:0:0:0:0:
64,192,109732,128,0,109826:0:0:0:0:
320,192,109826,1,0,0:0:0:0:
64,192,109920,128,2,110295:0:0:0:0:
192,192,109920,128,4,110107:0:0:0:0:
448,192,109920,1,0,0:0:0:0:
320,192,110295,128,0,110388:0:0:0:0:
448,192,110295,128,0,110482:0:0:0:0:
64,192,110670,1,8,0:0:0:0:
192,192,110670,128,2,110763:0:0:0:0:
448,192,110670,1,0,0:0:0:0:
64,192,110857,1,2,0:0:0:0:
320,192,110857,128,8,110951:0:0:0:0:
448,192,110857,1,0,0:0:0:0:
64,192,111232,1,2,0:0:0:0:
320,192,111232,128,4,111420:0:0:0:0:
448,192,111232,128,0,111513:0:0:0:0:
64,192,111607,1,2,0:0:0:0:
320,192,111607,1,0,0:0:0:45:Clap.wav
448,192,111607,128,0,111701:0:0:0:0:
192,192,111795,1,2,0:0:0:0:
320,192,111795,128,0,111888:0:0:0:50:Clap.wav
448,192,111795,128,0,111888:0:0:0:0:
64,192,111982,128,2,112076:0:0:0:0:
320,192,111982,128,0,112076:0:0:0:55:Clap.wav
448,192,111982,128,0,112076:0:0:0:0:
64,192,112170,128,2,112263:0:0:0:0:
192,192,112170,128,0,112263:0:0:0:60:Clap.wav
320,192,112170,128,0,112263:0:0:0:0:
448,192,112170,128,0,112263:0:0:0:0:
64,192,112545,128,2,112826:0:0:0:0:
192,192,112545,128,4,112732:0:0:0:0:
448,192,112545,128,0,112638:0:0:0:60:Clap.wav
