osu file format v14

[General]
AudioFilename: audio.mp3
AudioLeadIn: 0
PreviewTime: 49545
Countdown: 0
SampleSet: Soft
StackLeniency: 0.7
Mode: 3
LetterboxInBreaks: 0
SpecialStyle: 0
WidescreenStoryboard: 1

[Editor]
Bookmarks: 13920
DistanceSpacing: 0.8
BeatDivisor: 4
GridSize: 16
TimelineZoom: 2.1

[Metadata]
Title:Neoki Yashinoki
TitleUnicode:寝起きヤシの木
Artist:nayuta
ArtistUnicode:nayuta
Creator:Ppass
Version:Hard
Source:
Tags:ゆこぴ yukopi 歌愛ユキ kaai yuki 歌い手 utaite cover 7uta palm tree vocaloid2 vocaloid 2 pop jpop j-pop japanese yukopipikku kozu ozu 小津
BeatmapID:4251533
BeatmapSetID:2038365

[Difficulty]
HPDrainRate:8
CircleSize:4
OverallDifficulty:8
ApproachRate:5
SliderMultiplier:1.4
SliderTickRate:1

[Events]
//Background and Video events
Video,0,"BGV.mp4"
0,0,"BG.jpg",0,0
//Break Periods
//Storyboard Layer 0 (Background)
//Storyboard Layer 1 (Fail)
//Storyboard Layer 2 (Pass)
//Storyboard Layer 3 (Foreground)
//Storyboard Layer 4 (Overlay)
//Storyboard Sound Samples
Sample,75795,0,"Castanets.wav",100
Sample,76545,0,"Castanets.wav",100
Sample,79545,0,"Castanets.wav",100
Sample,81795,0,"Castanets.wav",100
Sample,82545,0,"Castanets.wav",100
Sample,84045,0,"Castanets.wav",100
Sample,99795,0,"Castanets.wav",100
Sample,100545,0,"Castanets.wav",100
Sample,103545,0,"Castanets.wav",100
Sample,105795,0,"Castanets.wav",100
Sample,106545,0,"Castanets.wav",100
Sample,108795,0,"Castanets.wav",100
Sample,109545,0,"Castanets.wav",100

[TimingPoints]
1920,375,4,2,1,60,1,0
1920,-100,4,2,1,60,0,1
13920,-100,4,2,1,60,0,0
49920,-100,4,2,1,60,0,1
61920,-100,4,2,1,60,0,0
86295,-100,4,2,1,60,0,1
97920,-100,4,2,1,60,0,0

[HitObjects]
64,192,420,5,0,0:0:0:100:tic.wav
448,192,795,1,0,0:0:0:100:tic.wav
64,192,1170,1,0,0:0:0:80:pong.wav
192,192,1170,1,0,0:0:0:0:
448,192,1545,128,0,1732:0:0:0:0:
192,192,1732,128,0,1920:0:0:0:0:
64,192,1920,128,2,2107:0:0:0:0:
320,192,1920,1,4,0:0:0:0:
448,192,1920,1,0,0:0:0:0:
320,192,2107,1,0,0:0:0:0:
64,192,2295,1,8,0:0:0:0:
192,192,2295,128,2,2482:0:0:0:0:
448,192,2482,1,0,0:0:0:0:
192,192,2670,1,2,0:0:0:0:
320,192,2670,128,0,2857:0:0:0:0:
64,192,2857,128,0,3045:0:0:0:0:
320,192,3045,1,2,0:0:0:0:
448,192,3045,1,8,0:0:0:0:
448,192,3232,128,0,3420:0:0:0:0:
64,192,3420,1,2,0:0:0:0:
192,192,3420,1,0,0:0:0:0:
320,192,3513,1,0,0:0:0:0:
448,192,3607,1,0,0:0:0:0:
192,192,3701,1,0,0:0:0:0:
64,192,3795,1,8,0:0:0:0:
448,192,3795,1,2,0:0:0:0:
64,192,3982,1,0,0:0:0:0:
192,192,4076,1,0,0:0:0:0:
320,192,4170,1,2,0:0:0:0:
448,192,4170,1,0,0:0:0:0:
64,192,4263,1,0,0:0:0:0:
320,192,4357,1,0,0:0:0:0:
192,192,4451,1,0,0:0:0:0:
64,192,4545,1,2,0:0:0:0:
448,192,4545,1,8,0:0:0:0:
320,192,4732,128,0,4920:0:0:0:0:
64,192,4920,128,2,5107:0:0:0:0:
192,192,4920,1,4,0:0:0:0:
448,192,4920,1,0,0:0:0:0:
448,192,5107,1,0,0:0:0:0:
64,192,5295,1,2,0:0:0:0:
320,192,5295,128,8,5482:0:0:0:0:
192,192,5482,1,0,0:0:0:0:
320,192,5670,1,2,0:0:0:0:
448,192,5670,128,0,5857:0:0:0:0:
192,192,5857,128,0,6045:0:0:0:0:
64,192,6045,1,8,0:0:0:0:
448,192,6045,1,2,0:0:0:0:
320,192,6232,128,0,6420:0:0:0:0:
64,192,6420,1,2,0:0:0:0:
192,192,6420,1,0,0:0:0:0:
448,192,6513,1,0,0:0:0:0:
192,192,6607,1,0,0:0:0:0:
320,192,6701,1,0,0:0:0:0:
64,192,6795,1,2,0:0:0:0:
192,192,6795,1,8,0:0:0:0:
448,192,6795,1,0,0:0:0:60:Clap.wav
320,192,6982,1,0,0:0:0:0:
192,192,7076,1,0,0:0:0:0:
64,192,7170,1,2,0:0:0:0:
448,192,7170,1,0,0:0:0:0:
64,192,7357,1,0,0:0:0:60:Clap.wav
192,192,7357,1,0,0:0:0:0:
448,192,7357,1,0,0:0:0:0:
64,192,7545,1,8,0:0:0:0:
192,192,7545,128,2,7732:0:0:0:0:
448,192,7545,1,0,0:0:0:60:Clap.wav
320,192,7732,128,0,7920:0:0:0:0:
64,192,7920,128,4,8107:0:0:0:0:
192,192,7920,1,2,0:0:0:0:
448,192,7920,1,0,0:0:0:0:
320,192,8107,1,0,0:0:0:0:
64,192,8295,1,8,0:0:0:0:
448,192,8295,128,2,8482:0:0:0:0:
192,192,8482,1,0,0:0:0:0:
320,192,8670,128,2,8857:0:0:0:0:
448,192,8670,1,0,0:0:0:0:
64,192,8857,128,0,9045:0:0:0:0:
192,192,9045,1,2,0:0:0:0:
448,192,9045,1,8,0:0:0:0:
320,192,9232,128,0,9420:0:0:0:0:
64,192,9420,1,2,0:0:0:0:
192,192,9420,1,0,0:0:0:0:
448,192,9513,1,0,0:0:0:0:
192,192,9607,1,0,0:0:0:0:
320,192,9701,1,0,0:0:0:0:
64,192,9795,1,8,0:0:0:0:
448,192,9795,1,2,0:0:0:0:
192,192,9982,1,0,0:0:0:0:
64,192,10076,1,0,0:0:0:0:
320,192,10170,1,2,0:0:0:0:
448,192,10170,1,0,0:0:0:0:
192,192,10263,1,0,0:0:0:0:
448,192,10357,1,0,0:0:0:0:
192,192,10451,1,0,0:0:0:0:
64,192,10545,1,2,0:0:0:0:
320,192,10545,1,8,0:0:0:0:
192,192,10732,128,0,10920:0:0:0:0:
64,192,10920,1,4,0:0:0:0:
320,192,10920,1,2,0:0:0:0:
448,192,10920,128,0,11107:0:0:0:0:
192,192,11107,1,0,0:0:0:0:
64,192,11295,1,2,0:0:0:0:
320,192,11295,128,8,11482:0:0:0:0:
448,192,11482,1,0,0:0:0:0:
64,192,11670,128,2,11857:0:0:0:0:
192,192,11670,1,0,0:0:0:0:
448,192,11857,128,0,12045:0:0:0:0:
64,192,12045,1,10,0:0:0:0:
320,192,12045,1,0,0:0:0:60:Clap.wav
192,192,12232,128,0,12420:0:0:0:0:
64,192,12420,1,2,0:0:0:0:
320,192,12420,1,4,0:0:0:0:
448,192,12420,1,0,0:0:0:0:
64,192,12607,1,0,0:0:0:60:Clap.wav
192,192,12607,1,0,0:0:0:0:
448,192,12607,1,0,0:0:0:0:
64,192,12795,1,2,0:0:0:0:
192,192,12795,1,8,0:0:0:0:
448,192,12795,1,0,0:0:0:60:Clap.wav
320,192,12982,1,0,0:0:0:0:
192,192,13076,1,0,0:0:0:0:
64,192,13170,1,2,0:0:0:0:
320,192,13170,1,0,0:0:0:60:Clap.wav
448,192,13170,1,0,0:0:0:0:
192,192,13357,1,0,0:0:0:0:
320,192,13451,1,0,0:0:0:60:Clap.wav
448,192,13451,1,0,0:0:0:0:
64,192,13545,1,8,0:0:0:0:
192,192,13545,1,2,0:0:0:0:
192,192,13732,1,0,0:0:0:60:Clap.wav
320,192,13732,1,0,0:0:0:0:
64,192,13920,128,4,14107:0:0:0:0:
320,192,13920,1,2,0:0:0:0:
448,192,13920,1,0,0:0:0:70:Triangle.wav
192,192,14107,1,0,0:0:0:100:Castanets.wav
64,192,14295,1,10,0:0:0:0:
448,192,14295,128,0,14482:0:0:0:100:Castanets.wav
320,192,14482,1,0,0:0:0:0:
192,192,14576,1,0,0:0:0:0:
320,192,14670,128,2,14857:0:0:0:0:
448,192,14670,1,0,0:0:0:0:
192,192,14857,128,0,15045:0:0:0:100:Castanets.wav
64,192,15045,1,10,0:0:0:0:
448,192,15045,1,0,0:0:0:100:Castanets.wav
320,192,15232,128,0,15420:0:0:0:0:
64,192,15420,128,2,15513:0:0:0:0:
448,192,15420,1,0,0:0:0:0:
320,192,15513,128,0,15607:0:0:0:0:
192,192,15607,128,0,15701:0:0:0:100:Castanets.wav
320,192,15701,128,0,15795:0:0:0:0:
64,192,15795,128,10,15888:0:0:0:0:
448,192,15795,1,0,0:0:0:100:Castanets.wav
320,192,15982,128,0,16076:0:0:0:0:
192,192,16076,128,0,16170:0:0:0:0:
64,192,16170,1,2,0:0:0:0:
448,192,16170,128,0,16263:0:0:0:0:
320,192,16263,128,0,16357:0:0:0:0:
192,192,16357,128,0,16451:0:0:0:100:Castanets.wav
320,192,16545,128,10,16638:0:0:0:0:
448,192,16545,1,0,0:0:0:100:Castanets.wav
192,192,16732,128,0,16826:0:0:0:0:
320,192,16826,1,0,0:0:0:0:
64,192,16920,1,2,0:0:0:0:
448,192,16920,128,0,17107:0:0:0:0:
192,192,17107,1,0,0:0:0:100:Castanets.wav
320,192,17201,1,0,0:0:0:0:
64,192,17295,128,10,17482:0:0:0:0:
192,192,17295,1,0,0:0:0:100:Castanets.wav
448,192,17482,1,0,0:0:0:0:
192,192,17576,1,0,0:0:0:0:
320,192,17670,128,2,17857:0:0:0:0:
448,192,17670,1,0,0:0:0:0:
192,192,17857,128,0,18045:0:0:0:100:Castanets.wav
64,192,18045,1,10,0:0:0:0:
448,192,18045,1,0,0:0:0:100:Castanets.wav
64,192,18232,128,0,18420:0:0:0:0:
320,192,18420,1,2,0:0:0:0:
448,192,18420,128,0,18513:0:0:0:0:
192,192,18607,1,0,0:0:0:100:Castanets.wav
320,192,18701,1,0,0:0:0:0:
64,192,18795,128,10,18888:0:0:0:0:
448,192,18795,1,0,0:0:0:100:Castanets.wav
320,192,18982,128,0,19076:0:0:0:0:
64,192,19170,1,2,0:0:0:0:
192,192,19170,128,0,19263:0:0:0:0:
448,192,19357,128,0,19451:0:0:0:100:Castanets.wav
64,192,19545,128,10,19638:0:0:0:0:
320,192,19545,1,0,0:0:0:100:Castanets.wav
192,192,19732,128,0,19826:0:0:0:0:
320,192,19826,1,0,0:0:0:0:
64,192,19920,128,2,20107:0:0:0:0:
192,192,19920,1,4,0:0:0:0:
448,192,19920,1,0,0:0:0:70:Triangle.wav
320,192,20107,1,0,0:0:0:100:Castanets.wav
192,192,20295,1,10,0:0:0:0:
448,192,20295,128,0,20482:0:0:0:100:Castanets.wav
64,192,20482,1,0,0:0:0:0:
192,192,20576,1,0,0:0:0:0:
320,192,20670,128,2,20857:0:0:0:0:
448,192,20670,1,0,0:0:0:0:
192,192,20857,128,0,21045:0:0:0:100:Castanets.wav
64,192,21045,1,10,0:0:0:0:
448,192,21045,1,0,0:0:0:100:Castanets.wav
320,192,21232,128,0,21420:0:0:0:0:
64,192,21420,128,2,21513:0:0:0:0:
448,192,21420,1,0,0:0:0:0:
320,192,21513,128,0,21607:0:0:0:0:
192,192,21607,128,0,21701:0:0:0:100:Castanets.wav
320,192,21701,128,0,21795:0:0:0:0:
64,192,21795,128,10,21888:0:0:0:0:
448,192,21795,1,0,0:0:0:100:Castanets.wav
320,192,21982,128,0,22076:0:0:0:0:
192,192,22076,128,0,22170:0:0:0:0:
64,192,22170,1,2,0:0:0:0:
448,192,22170,128,0,22263:0:0:0:0:
320,192,22263,128,0,22357:0:0:0:0:
192,192,22357,128,0,22451:0:0:0:100:Castanets.wav
320,192,22545,1,10,0:0:0:0:
448,192,22545,128,0,22638:0:0:0:100:Castanets.wav
192,192,22732,128,0,22826:0:0:0:0:
320,192,22826,1,0,0:0:0:0:
64,192,22920,1,2,0:0:0:0:
448,192,22920,128,0,23107:0:0:0:0:
320,192,23107,1,0,0:0:0:100:Castanets.wav
192,192,23201,1,0,0:0:0:0:
64,192,23295,128,10,23482:0:0:0:0:
320,192,23295,1,0,0:0:0:100:Castanets.wav
448,192,23482,1,0,0:0:0:0:
320,192,23576,1,0,0:0:0:0:
64,192,23670,1,2,0:0:0:0:
192,192,23670,128,0,23857:0:0:0:0:
448,192,23857,128,0,24045:0:0:0:100:Castanets.wav
192,192,24045,1,10,0:0:0:0:
320,192,24045,1,0,0:0:0:100:Castanets.wav
64,192,24232,128,0,24420:0:0:0:0:
192,192,24420,1,2,0:0:0:0:
448,192,24420,128,0,24513:0:0:0:0:
64,192,24513,128,0,24607:0:0:0:0:
448,192,24607,128,0,24701:0:0:0:100:Castanets.wav
192,192,24701,128,0,24795:0:0:0:0:
64,192,24795,1,10,0:0:0:0:
320,192,24795,128,0,24888:0:0:0:100:Castanets.wav
192,192,24982,128,0,25076:0:0:0:0:
320,192,25076,1,0,0:0:0:0:
64,192,25170,128,2,25263:0:0:0:0:
448,192,25170,1,0,0:0:0:0:
320,192,25357,128,0,25451:0:0:0:100:Castanets.wav
64,192,25545,1,10,0:0:0:0:
320,192,25545,1,0,0:0:0:70:Triangle.wav
448,192,25545,128,0,25732:0:0:0:100:Castanets.wav
192,192,25732,1,0,0:0:0:0:
320,192,25826,1,0,0:0:0:0:
64,192,25920,128,4,26107:0:0:0:0:
192,192,25920,1,2,0:0:0:0:
448,192,25920,1,0,0:0:0:0:
320,192,26295,128,0,26482:0:0:0:0:
448,192,26670,128,0,26857:0:0:0:0:
192,192,26857,128,0,27045:0:0:0:0:
320,192,27045,1,0,0:0:0:0:
64,192,27232,128,0,27420:0:0:0:0:
192,192,27420,1,0,0:0:0:0:
192,192,27795,1,0,0:0:0:0:
320,192,28170,1,0,0:0:0:0:
192,192,28263,1,0,0:0:0:0:
448,192,28357,1,0,0:0:0:0:
320,192,28451,1,0,0:0:0:0:
64,192,28545,1,0,0:0:0:0:
192,192,28545,1,0,0:0:0:0:
64,192,28920,1,2,0:0:0:0:
320,192,28920,1,4,0:0:0:0:
448,192,28920,128,0,29107:0:0:0:0:
64,192,29295,128,2,29482:0:0:0:0:
448,192,29295,1,0,0:0:0:0:
320,192,29482,1,0,0:0:0:0:
64,192,29670,1,2,0:0:0:0:
192,192,29670,128,0,29857:0:0:0:0:
448,192,29857,128,0,30045:0:0:0:0:
320,192,29951,1,0,0:0:0:0:
64,192,30045,1,2,0:0:0:0:
192,192,30045,1,0,0:0:0:0:
320,192,30232,128,0,30420:0:0:0:0:
64,192,30420,1,2,0:0:0:0:
448,192,30420,1,0,0:0:0:0:
192,192,30607,1,0,0:0:0:0:
64,192,30795,1,2,0:0:0:0:
320,192,30795,1,0,0:0:0:0:
448,192,30982,1,0,0:0:0:0:
320,192,31076,1,0,0:0:0:0:
64,192,31170,1,2,0:0:0:0:
192,192,31170,1,0,0:0:0:0:
448,192,31357,1,0,0:0:0:0:
64,192,31545,1,2,0:0:0:0:
320,192,31545,1,0,0:0:0:0:
192,192,31732,1,0,0:0:0:0:
320,192,31826,1,0,0:0:0:0:
64,192,31920,1,2,0:0:0:0:
448,192,31920,1,0,0:0:0:0:
320,192,32107,1,0,0:0:0:0:
192,192,32295,1,2,0:0:0:0:
448,192,32295,1,0,0:0:0:0:
64,192,32482,1,0,0:0:0:0:
320,192,32670,1,2,0:0:0:0:
448,192,32670,1,0,0:0:0:0:
192,192,32857,1,0,0:0:0:0:
320,192,32951,1,0,0:0:0:0:
64,192,33045,1,2,0:0:0:0:
448,192,33045,1,0,0:0:0:0:
192,192,33232,1,0,0:0:0:0:
320,192,33420,1,2,0:0:0:0:
448,192,33420,1,0,0:0:0:0:
64,192,33607,1,0,0:0:0:0:
192,192,33795,1,2,0:0:0:0:
448,192,33795,1,0,0:0:0:0:
320,192,33982,1,0,0:0:0:0:
192,192,34076,1,0,0:0:0:0:
64,192,34170,1,2,0:0:0:0:
448,192,34170,1,0,0:0:0:0:
192,192,34357,1,0,0:0:0:0:
64,192,34545,1,2,0:0:0:0:
320,192,34545,1,0,0:0:0:0:
448,192,34732,1,0,0:0:0:0:
320,192,34826,1,0,0:0:0:0:
64,192,34920,1,2,0:0:0:0:
192,192,34920,128,0,35107:0:0:0:0:
448,192,35107,1,0,0:0:0:0:
64,192,35295,1,2,0:0:0:0:
448,192,35295,128,0,35482:0:0:0:0:
192,192,35482,1,0,0:0:0:0:
64,192,35670,128,2,35857:0:0:0:0:
448,192,35670,1,0,0:0:0:0:
192,192,35857,1,0,0:0:0:0:
320,192,35951,1,0,0:0:0:0:
64,192,36045,1,2,0:0:0:0:
448,192,36045,1,0,0:0:0:0:
192,192,36232,128,0,36420:0:0:0:0:
64,192,36420,1,0,0:0:0:70:Snare.wav
320,192,36420,1,0,0:0:0:0:
448,192,36420,1,0,0:0:0:0:
320,192,36607,1,2,0:0:0:0:
448,192,36607,1,0,0:0:0:0:
64,192,36795,1,0,0:0:0:70:Snare.wav
192,192,36795,1,0,0:0:0:0:
448,192,36795,1,0,0:0:0:0:
64,192,36982,1,2,0:0:0:0:
192,192,36982,1,0,0:0:0:0:
320,192,37076,1,0,0:0:0:0:
64,192,37170,1,2,0:0:0:0:
448,192,37170,1,0,0:0:0:0:
192,192,37357,1,2,0:0:0:0:
320,192,37357,1,0,0:0:0:60:Clap.wav
448,192,37357,1,0,0:0:0:0:
64,192,37545,1,2,0:0:0:0:
192,192,37545,1,4,0:0:0:0:
320,192,37545,1,0,0:0:0:0:
320,192,37732,1,0,0:0:0:70:tom03.wav
448,192,37732,1,0,0:0:0:0:
192,192,37826,1,0,0:0:0:70:tom03.wav
64,192,37920,1,2,0:0:0:0:
320,192,37920,1,4,0:0:0:0:
448,192,37920,128,0,38107:0:0:0:0:
192,192,38107,1,0,0:0:0:0:
64,192,38295,128,2,38482:0:0:0:0:
448,192,38295,1,8,0:0:0:0:
320,192,38482,1,0,0:0:0:0:
64,192,38670,1,2,0:0:0:0:
192,192,38670,128,0,38857:0:0:0:0:
448,192,38857,128,0,39045:0:0:0:0:
64,192,39045,1,2,0:0:0:0:
320,192,39045,1,8,0:0:0:0:
448,192,39232,128,0,39420:0:0:0:0:
320,192,39326,1,0,0:0:0:0:
64,192,39420,1,2,0:0:0:0:
192,192,39420,1,0,0:0:0:0:
320,192,39513,1,0,0:0:0:0:
64,192,39607,1,0,0:0:0:0:
192,192,39701,1,0,0:0:0:0:
320,192,39795,1,2,0:0:0:0:
448,192,39795,1,8,0:0:0:0:
192,192,39982,1,0,0:0:0:0:
320,192,40076,1,0,0:0:0:0:
64,192,40170,1,2,0:0:0:0:
448,192,40170,1,0,0:0:0:0:
192,192,40263,1,0,0:0:0:0:
320,192,40357,1,0,0:0:0:0:
64,192,40451,1,0,0:0:0:0:
192,192,40545,1,2,0:0:0:0:
448,192,40545,1,8,0:0:0:0:
320,192,40732,1,0,0:0:0:0:
192,192,40826,1,0,0:0:0:0:
64,192,40920,1,2,0:0:0:0:
448,192,40920,128,0,41107:0:0:0:0:
192,192,41107,1,0,0:0:0:0:
320,192,41201,1,0,0:0:0:0:
64,192,41295,1,2,0:0:0:0:
448,192,41295,1,8,0:0:0:0:
192,192,41482,1,0,0:0:0:0:
448,192,41576,1,0,0:0:0:0:
64,192,41670,1,2,0:0:0:0:
320,192,41670,128,0,41857:0:0:0:0:
192,192,41857,128,0,42045:0:0:0:0:
64,192,42045,1,2,0:0:0:0:
448,192,42045,1,8,0:0:0:0:
320,192,42232,1,0,0:0:0:0:
192,192,42326,1,0,0:0:0:0:
64,192,42420,1,2,0:0:0:0:
448,192,42420,1,0,0:0:0:0:
320,192,42513,1,0,0:0:0:0:
192,192,42607,1,0,0:0:0:0:
448,192,42701,1,0,0:0:0:0:
64,192,42795,1,8,0:0:0:0:
320,192,42795,1,2,0:0:0:0:
192,192,42982,1,0,0:0:0:0:
320,192,43076,1,0,0:0:0:0:
64,192,43170,1,2,0:0:0:0:
448,192,43170,1,0,0:0:0:0:
192,192,43263,1,0,0:0:0:0:
320,192,43357,1,0,0:0:0:0:
64,192,43451,1,0,0:0:0:0:
192,192,43545,1,8,0:0:0:0:
448,192,43545,1,2,0:0:0:0:
320,192,43732,1,0,0:0:0:0:
192,192,43826,1,0,0:0:0:0:
64,192,43920,1,2,0:0:0:0:
448,192,43920,1,0,0:0:0:0:
320,192,44107,1,0,0:0:0:0:
64,192,44201,1,0,0:0:0:0:
192,192,44295,1,8,0:0:0:0:
448,192,44295,1,2,0:0:0:0:
64,192,44482,1,0,0:0:0:0:
192,192,44576,1,0,0:0:0:0:
320,192,44670,1,2,0:0:0:0:
448,192,44670,1,0,0:0:0:0:
64,192,44763,1,0,0:0:0:0:
448,192,44857,1,0,0:0:0:0:
192,192,44951,1,0,0:0:0:0:
64,192,45045,1,2,0:0:0:0:
320,192,45045,1,8,0:0:0:0:
448,192,45232,1,0,0:0:0:0:
320,192,45326,1,0,0:0:0:0:
64,192,45420,1,2,0:0:0:0:
192,192,45420,1,0,0:0:0:0:
448,192,45513,1,0,0:0:0:0:
320,192,45607,1,0,0:0:0:0:
192,192,45701,1,0,0:0:0:0:
64,192,45795,1,2,0:0:0:0:
448,192,45795,1,8,0:0:0:0:
192,192,45982,1,0,0:0:0:0:
448,192,46076,1,0,0:0:0:0:
64,192,46170,1,2,0:0:0:0:
320,192,46170,1,0,0:0:0:0:
192,192,46357,1,0,0:0:0:0:
320,192,46451,1,0,0:0:0:0:
64,192,46545,128,2,46732:0:0:0:0:
448,192,46545,1,8,0:0:0:0:
320,192,46732,128,0,46920:0:0:0:0:
64,192,46920,1,2,0:0:0:0:
192,192,46920,1,4,0:0:0:0:
448,192,46920,1,0,0:0:0:0:
64,192,47107,1,0,0:0:0:0:
320,192,47295,1,8,0:0:0:0:
448,192,47295,128,2,47482:0:0:0:0:
192,192,47482,1,0,0:0:0:0:
320,192,47576,1,0,0:0:0:0:
64,192,47670,128,2,47857:0:0:0:0:
448,192,47670,1,0,0:0:0:0:
320,192,47857,128,0,48045:0:0:0:0:
64,192,48045,1,8,0:0:0:0:
448,192,48045,1,2,0:0:0:0:
320,192,48232,1,0,0:0:0:0:
192,192,48326,1,0,0:0:0:0:
64,192,48420,1,2,0:0:0:0:
320,192,48420,128,4,48513:0:0:0:0:
448,192,48420,128,0,48513:0:0:0:0:
64,192,48795,128,8,48888:0:0:0:0:
192,192,48795,128,2,48888:0:0:0:0:
320,192,48795,1,0,0:0:0:0:
64,192,49170,128,2,49357:0:0:0:0:
320,192,49170,128,8,49263:0:0:0:0:
448,192,49170,128,0,49263:0:0:0:0:
192,192,49263,128,0,49357:0:0:0:0:
448,192,49545,128,0,49732:0:0:0:0:
192,192,49732,128,0,49920:0:0:0:0:
64,192,49920,128,2,50107:0:0:0:0:
320,192,49920,1,4,0:0:0:0:
448,192,49920,1,0,0:0:0:0:
320,192,50107,1,0,0:0:0:0:
64,192,50295,1,8,0:0:0:0:
192,192,50295,128,2,50482:0:0:0:0:
448,192,50482,1,0,0:0:0:0:
192,192,50670,1,2,0:0:0:0:
320,192,50670,128,0,50857:0:0:0:0:
64,192,50857,128,0,51045:0:0:0:0:
320,192,51045,1,2,0:0:0:0:
448,192,51045,1,8,0:0:0:0:
448,192,51232,128,0,51420:0:0:0:0:
64,192,51420,1,2,0:0:0:0:
192,192,51420,1,0,0:0:0:0:
320,192,51513,1,0,0:0:0:0:
448,192,51607,1,0,0:0:0:0:
192,192,51701,1,0,0:0:0:0:
64,192,51795,1,8,0:0:0:0:
448,192,51795,1,2,0:0:0:0:
64,192,51982,1,0,0:0:0:0:
192,192,52076,1,0,0:0:0:0:
320,192,52170,1,2,0:0:0:0:
448,192,52170,1,0,0:0:0:0:
64,192,52263,1,0,0:0:0:0:
320,192,52357,1,0,0:0:0:0:
192,192,52451,1,0,0:0:0:0:
64,192,52545,1,2,0:0:0:0:
448,192,52545,1,8,0:0:0:0:
320,192,52732,128,0,52920:0:0:0:0:
64,192,52920,128,2,53107:0:0:0:0:
192,192,52920,1,4,0:0:0:0:
448,192,52920,1,0,0:0:0:0:
448,192,53107,1,0,0:0:0:0:
64,192,53295,1,2,0:0:0:0:
320,192,53295,128,8,53482:0:0:0:0:
192,192,53482,1,0,0:0:0:0:
320,192,53670,1,2,0:0:0:0:
448,192,53670,128,0,53857:0:0:0:0:
192,192,53857,128,0,54045:0:0:0:0:
64,192,54045,1,8,0:0:0:0:
448,192,54045,1,2,0:0:0:0:
320,192,54232,128,0,54420:0:0:0:0:
64,192,54420,1,2,0:0:0:0:
192,192,54420,1,0,0:0:0:0:
448,192,54513,1,0,0:0:0:0:
192,192,54607,1,0,0:0:0:0:
320,192,54701,1,0,0:0:0:0:
64,192,54795,1,2,0:0:0:0:
192,192,54795,1,8,0:0:0:0:
448,192,54795,1,0,0:0:0:60:Clap.wav
320,192,54982,1,0,0:0:0:0:
192,192,55076,1,0,0:0:0:0:
64,192,55170,1,2,0:0:0:0:
448,192,55170,1,0,0:0:0:0:
64,192,55357,1,0,0:0:0:60:Clap.wav
192,192,55357,1,0,0:0:0:0:
448,192,55357,1,0,0:0:0:0:
64,192,55545,1,8,0:0:0:0:
192,192,55545,128,2,55732:0:0:0:0:
448,192,55545,1,0,0:0:0:60:Clap.wav
320,192,55732,128,0,55920:0:0:0:0:
64,192,55920,128,4,56107:0:0:0:0:
192,192,55920,1,2,0:0:0:0:
448,192,55920,1,0,0:0:0:0:
320,192,56107,1,0,0:0:0:0:
64,192,56295,1,8,0:0:0:0:
448,192,56295,128,2,56482:0:0:0:0:
192,192,56482,1,0,0:0:0:0:
320,192,56670,128,2,56857:0:0:0:0:
448,192,56670,1,0,0:0:0:0:
64,192,56857,128,0,57045:0:0:0:0:
192,192,57045,1,2,0:0:0:0:
448,192,57045,1,8,0:0:0:0:
320,192,57232,128,0,57420:0:0:0:0:
64,192,57420,1,2,0:0:0:0:
192,192,57420,1,0,0:0:0:0:
448,192,57513,1,0,0:0:0:0:
192,192,57607,1,0,0:0:0:0:
320,192,57701,1,0,0:0:0:0:
64,192,57795,1,8,0:0:0:0:
448,192,57795,1,2,0:0:0:0:
192,192,57982,1,0,0:0:0:0:
64,192,58076,1,0,0:0:0:0:
320,192,58170,1,2,0:0:0:0:
448,192,58170,1,0,0:0:0:0:
192,192,58263,1,0,0:0:0:0:
448,192,58357,1,0,0:0:0:0:
192,192,58451,1,0,0:0:0:0:
64,192,58545,1,2,0:0:0:0:
320,192,58545,1,8,0:0:0:0:
192,192,58732,128,0,58920:0:0:0:0:
64,192,58920,1,4,0:0:0:0:
320,192,58920,1,2,0:0:0:0:
448,192,58920,128,0,59107:0:0:0:0:
192,192,59107,1,0,0:0:0:0:
64,192,59295,1,2,0:0:0:0:
320,192,59295,128,8,59482:0:0:0:0:
448,192,59482,1,0,0:0:0:0:
64,192,59670,128,2,59857:0:0:0:0:
192,192,59670,1,0,0:0:0:0:
448,192,59857,128,0,60045:0:0:0:0:
64,192,60045,1,10,0:0:0:0:
320,192,60045,1,0,0:0:0:60:Clap.wav
192,192,60232,128,0,60420:0:0:0:0:
64,192,60420,1,2,0:0:0:0:
320,192,60420,1,4,0:0:0:0:
448,192,60420,1,0,0:0:0:0:
64,192,60607,1,0,0:0:0:60:Clap.wav
192,192,60607,1,0,0:0:0:0:
448,192,60607,1,0,0:0:0:0:
64,192,60795,1,2,0:0:0:0:
192,192,60795,1,8,0:0:0:0:
448,192,60795,1,0,0:0:0:60:Clap.wav
320,192,60982,1,0,0:0:0:0:
192,192,61076,1,0,0:0:0:0:
64,192,61170,1,2,0:0:0:0:
320,192,61170,1,0,0:0:0:60:Clap.wav
448,192,61170,1,0,0:0:0:0:
192,192,61357,1,2,0:0:0:0:
320,192,61357,1,0,0:0:0:0:
64,192,61545,1,2,0:0:0:0:
192,192,61545,1,8,0:0:0:0:
448,192,61545,128,4,61732:0:0:0:0:
320,192,61732,128,0,61920:0:0:0:0:
64,192,61920,1,2,0:0:0:0:
192,192,61920,1,4,0:0:0:0:
448,192,61920,1,0,0:0:0:70:Triangle.wav
320,192,62013,1,0,0:0:0:0:
192,192,62107,1,0,0:0:0:0:
320,192,62201,1,0,0:0:0:0:
448,192,62295,1,2,0:0:0:0:
192,192,62388,1,0,0:0:0:0:
320,192,62482,1,0,0:0:0:0:
192,192,62576,1,0,0:0:0:0:
64,192,62670,1,2,0:0:0:0:
320,192,62763,1,0,0:0:0:0:
448,192,62857,1,0,0:0:0:0:
192,192,62951,1,0,0:0:0:0:
320,192,63045,1,2,0:0:0:0:
192,192,63232,1,0,0:0:0:0:
64,192,63420,1,2,0:0:0:0:
192,192,63513,1,0,0:0:0:0:
448,192,63607,1,0,0:0:0:0:
320,192,63701,1,0,0:0:0:0:
192,192,63795,1,2,0:0:0:0:
64,192,63888,1,0,0:0:0:0:
320,192,63982,1,0,0:0:0:0:
448,192,64076,1,0,0:0:0:0:
64,192,64170,1,2,0:0:0:0:
192,192,64263,1,0,0:0:0:0:
320,192,64357,1,0,0:0:0:0:
192,192,64451,1,0,0:0:0:0:
448,192,64545,1,2,0:0:0:0:
320,192,64732,1,0,0:0:0:0:
64,192,64920,1,4,0:0:0:0:
192,192,64920,1,2,0:0:0:0:
448,192,64920,1,0,0:0:0:0:
320,192,65013,1,0,0:0:0:0:
64,192,65107,1,0,0:0:0:0:
192,192,65201,1,0,0:0:0:0:
320,192,65295,1,8,0:0:0:0:
448,192,65295,1,2,0:0:0:0:
64,192,65388,1,0,0:0:0:0:
192,192,65482,1,0,0:0:0:0:
448,192,65576,1,0,0:0:0:0:
320,192,65670,1,2,0:0:0:0:
192,192,65763,1,0,0:0:0:0:
448,192,65857,1,0,0:0:0:0:
320,192,65951,1,0,0:0:0:0:
64,192,66045,1,8,0:0:0:0:
192,192,66045,1,2,0:0:0:0:
320,192,66232,1,0,0:0:0:0:
448,192,66420,1,2,0:0:0:0:
192,192,66513,1,0,0:0:0:0:
64,192,66607,1,0,0:0:0:0:
320,192,66701,1,0,0:0:0:0:
64,192,66795,1,2,0:0:0:0:
192,192,66795,1,8,0:0:0:0:
448,192,66795,1,0,0:0:0:60:Clap.wav
320,192,66888,1,0,0:0:0:0:
192,192,66982,1,0,0:0:0:0:
448,192,67076,1,0,0:0:0:0:
64,192,67170,1,2,0:0:0:0:
320,192,67263,1,0,0:0:0:0:
64,192,67357,1,0,0:0:0:60:Clap.wav
192,192,67357,1,0,0:0:0:0:
448,192,67357,1,0,0:0:0:0:
64,192,67545,1,8,0:0:0:0:
192,192,67545,1,2,0:0:0:0:
448,192,67545,1,0,0:0:0:60:Clap.wav
320,192,67732,1,0,0:0:0:0:
64,192,67920,1,2,0:0:0:0:
192,192,67920,1,0,0:0:0:60:Clap.wav
448,192,67920,1,0,0:0:0:70:Triangle.wav
192,192,68107,1,0,0:0:0:0:
64,192,68295,1,0,0:0:0:60:Clap.wav
320,192,68295,1,0,0:0:0:0:
448,192,68295,1,0,0:0:0:0:
320,192,68482,1,0,0:0:0:0:
64,192,68670,1,0,0:0:0:60:Clap.wav
192,192,68670,1,0,0:0:0:0:
448,192,68670,1,0,0:0:0:0:
448,192,68857,1,0,0:0:0:0:
64,192,69045,1,0,0:0:0:60:Clap.wav
192,192,69045,1,0,0:0:0:0:
320,192,69045,1,0,0:0:0:0:
64,192,69232,1,0,0:0:0:0:
192,192,69420,1,2,0:0:0:0:
320,192,69420,1,0,0:0:0:60:Clap.wav
448,192,69420,1,0,0:0:0:0:
320,192,69607,1,0,0:0:0:0:
64,192,69795,1,0,0:0:0:60:Clap.wav
192,192,69795,1,0,0:0:0:0:
320,192,69795,1,0,0:0:0:0:
192,192,69982,1,0,0:0:0:0:
192,192,70170,1,2,0:0:0:0:
320,192,70170,1,0,0:0:0:60:Clap.wav
448,192,70170,1,0,0:0:0:0:
448,192,70357,1,0,0:0:0:0:
64,192,70545,1,0,0:0:0:60:Clap.wav
192,192,70545,1,0,0:0:0:0:
448,192,70545,1,0,0:0:0:0:
64,192,70732,1,0,0:0:0:0:
64,192,70920,1,6,0:0:0:0:
320,192,70920,1,0,0:0:0:60:Clap.wav
448,192,70920,1,0,0:0:0:70:Triangle.wav
448,192,71107,1,0,0:0:0:0:
64,192,71295,1,2,0:0:0:0:
192,192,71295,1,0,0:0:0:60:Clap.wav
320,192,71295,1,0,0:0:0:0:
64,192,71482,1,0,0:0:0:0:
192,192,71670,1,2,0:0:0:0:
320,192,71670,1,0,0:0:0:60:Clap.wav
448,192,71670,1,0,0:0:0:0:
192,192,71857,1,0,0:0:0:0:
64,192,72045,1,2,0:0:0:0:
320,192,72045,1,0,0:0:0:60:Clap.wav
448,192,72045,1,0,0:0:0:0:
192,192,72232,1,0,0:0:0:0:
320,192,72326,1,0,0:0:0:0:
64,192,72420,1,2,0:0:0:0:
192,192,72420,1,0,0:0:0:60:Clap.wav
448,192,72420,1,0,0:0:0:0:
64,192,72607,1,2,0:0:0:0:
192,192,72607,1,0,0:0:0:0:
320,192,72701,1,2,0:0:0:0:
448,192,72701,1,0,0:0:0:0:
64,192,72795,1,2,0:0:0:0:
192,192,72795,1,0,0:0:0:60:Clap.wav
320,192,72982,1,2,0:0:0:0:
448,192,72982,1,0,0:0:0:0:
64,192,73076,1,2,0:0:0:0:
192,192,73076,1,0,0:0:0:0:
320,192,73170,1,2,0:0:0:0:
448,192,73170,1,0,0:0:0:60:Clap.wav
192,192,73357,1,2,0:0:0:0:
320,192,73357,1,0,0:0:0:0:
64,192,73545,1,2,0:0:0:0:
192,192,73545,1,0,0:0:0:60:Clap.wav
448,192,73545,1,0,0:0:0:0:
64,192,73920,1,2,0:0:0:0:
192,192,73920,128,4,74107:0:0:0:0:
448,192,73920,1,0,0:0:0:70:Triangle.wav
320,192,74107,1,0,0:0:0:100:Castanets.wav
192,192,74295,1,10,0:0:0:0:
448,192,74295,128,0,74482:0:0:0:100:Castanets.wav
64,192,74482,1,0,0:0:0:0:
192,192,74576,1,0,0:0:0:0:
320,192,74670,128,2,74857:0:0:0:0:
448,192,74670,1,0,0:0:0:0:
192,192,74857,128,0,75045:0:0:0:100:Castanets.wav
64,192,75045,1,10,0:0:0:0:
448,192,75045,1,0,0:0:0:100:Castanets.wav
320,192,75232,128,0,75420:0:0:0:0:
64,192,75420,1,2,0:0:0:0:
192,192,75420,1,0,0:0:0:80:pong.wav
448,192,75513,1,0,0:0:0:80:pong.wav
64,192,75607,1,0,0:0:0:80:pong.wav
192,192,75607,1,0,0:0:0:100:Castanets.wav
320,192,75701,1,0,0:0:0:80:pong.wav
448,192,75701,1,0,0:0:0:0:
64,192,75795,1,10,0:0:0:0:
192,192,75795,1,0,0:0:0:80:pong.wav
320,192,75982,1,0,0:0:0:80:pong.wav
448,192,75982,1,0,0:0:0:0:
64,192,76076,1,0,0:0:0:80:pong.wav
192,192,76076,1,0,0:0:0:0:
320,192,76170,1,2,0:0:0:0:
448,192,76170,1,0,0:0:0:80:pong.wav
192,192,76263,1,0,0:0:0:80:pong.wav
64,192,76357,1,0,0:0:0:80:pong.wav
448,192,76357,1,0,0:0:0:100:Castanets.wav
320,192,76451,1,0,0:0:0:0:
64,192,76545,1,10,0:0:0:0:
192,192,76545,1,0,0:0:0:80:pong.wav
320,192,76732,1,0,0:0:0:80:pong.wav
448,192,76732,1,0,0:0:0:0:
192,192,76826,1,0,0:0:0:0:
64,192,76920,1,2,0:0:0:0:
448,192,76920,128,0,77107:0:0:0:0:
320,192,77107,1,0,0:0:0:100:Castanets.wav
192,192,77201,1,0,0:0:0:0:
64,192,77295,128,10,77482:0:0:0:0:
320,192,77295,1,0,0:0:0:100:Castanets.wav
448,192,77482,1,0,0:0:0:0:
320,192,77576,1,0,0:0:0:0:
64,192,77670,1,2,0:0:0:0:
192,192,77670,128,0,77857:0:0:0:0:
448,192,77857,128,0,78045:0:0:0:100:Castanets.wav
192,192,78045,1,10,0:0:0:0:
320,192,78045,1,0,0:0:0:100:Castanets.wav
64,192,78232,128,0,78420:0:0:0:0:
320,192,78420,1,2,0:0:0:0:
448,192,78420,1,0,0:0:0:80:pong.wav
192,192,78513,1,0,0:0:0:0:
64,192,78607,1,0,0:0:0:100:Castanets.wav
320,192,78701,1,0,0:0:0:80:pong.wav
448,192,78701,1,0,0:0:0:0:
64,192,78795,1,10,0:0:0:0:
192,192,78795,1,0,0:0:0:100:Castanets.wav
64,192,78982,1,0,0:0:0:80:pong.wav
320,192,78982,1,0,0:0:0:0:
192,192,79170,1,2,0:0:0:0:
448,192,79170,1,0,0:0:0:0:
64,192,79357,1,0,0:0:0:80:pong.wav
320,192,79357,1,0,0:0:0:60:Clap.wav
448,192,79357,1,0,0:0:0:100:Castanets.wav
64,192,79545,1,10,0:0:0:0:
320,192,79545,1,0,0:0:0:80:pong.wav
448,192,79545,1,0,0:0:0:60:Clap.wav
192,192,79732,1,0,0:0:0:0:
320,192,79826,1,0,0:0:0:0:
64,192,79920,128,2,80107:0:0:0:0:
192,192,79920,1,4,0:0:0:0:
448,192,79920,1,0,0:0:0:0:
320,192,80107,1,0,0:0:0:100:Castanets.wav
192,192,80295,1,10,0:0:0:0:
448,192,80295,128,0,80482:0:0:0:100:Castanets.wav
64,192,80482,1,0,0:0:0:0:
192,192,80576,1,0,0:0:0:0:
320,192,80670,128,2,80857:0:0:0:0:
448,192,80670,1,0,0:0:0:0:
192,192,80857,128,0,81045:0:0:0:100:Castanets.wav
64,192,81045,1,10,0:0:0:0:
448,192,81045,1,0,0:0:0:100:Castanets.wav
320,192,81232,128,0,81420:0:0:0:0:
64,192,81420,1,2,0:0:0:0:
192,192,81420,1,0,0:0:0:80:pong.wav
448,192,81513,1,0,0:0:0:80:pong.wav
64,192,81607,1,0,0:0:0:80:pong.wav
192,192,81607,1,0,0:0:0:100:Castanets.wav
320,192,81701,1,0,0:0:0:80:pong.wav
448,192,81701,1,0,0:0:0:0:
64,192,81795,1,10,0:0:0:0:
192,192,81795,1,0,0:0:0:80:pong.wav
320,192,81982,1,0,0:0:0:80:pong.wav
448,192,81982,1,0,0:0:0:0:
64,192,82076,1,0,0:0:0:80:pong.wav
192,192,82076,1,0,0:0:0:0:
320,192,82170,1,2,0:0:0:0:
448,192,82170,1,0,0:0:0:80:pong.wav
192,192,82263,1,0,0:0:0:80:pong.wav
64,192,82357,1,0,0:0:0:80:pong.wav
448,192,82357,1,0,0:0:0:100:Castanets.wav
320,192,82451,1,0,0:0:0:0:
64,192,82545,1,10,0:0:0:0:
192,192,82545,1,0,0:0:0:80:pong.wav
320,192,82732,1,0,0:0:0:80:pong.wav
448,192,82732,1,0,0:0:0:0:
192,192,82826,1,0,0:0:0:0:
64,192,82920,1,2,0:0:0:0:
448,192,82920,128,0,83107:0:0:0:0:
320,192,83107,1,0,0:0:0:100:Castanets.wav
192,192,83201,1,0,0:0:0:0:
64,192,83295,128,10,83482:0:0:0:0:
320,192,83295,1,0,0:0:0:100:Castanets.wav
448,192,83482,1,0,0:0:0:0:
320,192,83576,1,0,0:0:0:0:
64,192,83670,1,2,0:0:0:0:
192,192,83670,128,0,83857:0:0:0:0:
448,192,83857,128,0,84045:0:0:0:100:Castanets.wav
192,192,84045,1,10,0:0:0:0:
320,192,84045,1,0,0:0:0:60:Clap.wav
64,192,84232,128,0,84420:0:0:0:0:
192,192,84420,1,2,0:0:0:0:
320,192,84420,1,4,0:0:0:0:
64,192,84607,1,0,0:0:0:60:Clap.wav
320,192,84607,1,0,0:0:0:100:Castanets.wav
448,192,84607,1,0,0:0:0:0:
64,192,84795,1,10,0:0:0:0:
320,192,84795,1,0,0:0:0:60:Clap.wav
448,192,84795,1,0,0:0:0:100:Castanets.wav
448,192,84982,1,0,0:0:0:0:
320,192,85076,1,0,0:0:0:0:
64,192,85170,1,2,0:0:0:0:
192,192,85170,1,8,0:0:0:0:
448,192,85170,1,0,0:0:0:60:Clap.wav
192,192,85357,1,2,0:0:0:0:
320,192,85357,1,0,0:0:0:100:Castanets.wav
64,192,85545,1,14,0:0:0:0:
320,192,85545,1,0,0:0:0:100:Castanets.wav
192,192,85732,1,0,0:0:0:70:tom03.wav
320,192,85826,1,0,0:0:0:70:tom03.wav
448,192,85826,1,0,0:0:0:0:
64,192,85920,128,2,86107:0:0:0:0:
192,192,85920,1,0,0:0:0:0:
320,192,86107,1,2,0:0:0:0:
448,192,86107,1,0,0:0:0:0:
320,192,86295,128,6,86482:0:0:0:0:
448,192,86295,1,0,0:0:0:70:Triangle.wav
64,192,86482,1,0,0:0:0:0:
192,192,86670,128,2,86857:0:0:0:0:
320,192,86670,1,0,0:0:0:0:
448,192,86857,128,0,87045:0:0:0:0:
64,192,87045,1,8,0:0:0:0:
192,192,87045,1,2,0:0:0:0:
64,192,87232,128,0,87420:0:0:0:0:
320,192,87420,1,2,0:0:0:0:
448,192,87420,1,0,0:0:0:0:
192,192,87513,1,0,0:0:0:0:
64,192,87607,1,0,0:0:0:0:
320,192,87701,1,0,0:0:0:0:
64,192,87795,1,2,0:0:0:0:
448,192,87795,1,8,0:0:0:0:
448,192,87982,1,0,0:0:0:0:
320,192,88076,1,0,0:0:0:0:
64,192,88170,1,2,0:0:0:0:
192,192,88170,1,8,0:0:0:0:
320,192,88357,1,0,0:0:0:0:
448,192,88357,1,0,0:0:0:0:
192,192,88545,1,8,0:0:0:0:
448,192,88545,1,2,0:0:0:0:
64,192,88732,128,2,88920:0:0:0:0:
320,192,88732,1,0,0:0:0:0:
192,192,88920,1,4,0:0:0:0:
320,192,88920,1,2,0:0:0:0:
448,192,88920,128,0,89107:0:0:0:0:
64,192,89107,1,0,0:0:0:0:
192,192,89295,128,8,89482:0:0:0:0:
448,192,89295,1,2,0:0:0:0:
320,192,89482,1,0,0:0:0:0:
64,192,89670,128,2,89857:0:0:0:0:
192,192,89670,1,0,0:0:0:0:
320,192,89857,128,0,90045:0:0:0:0:
64,192,90045,1,2,0:0:0:0:
448,192,90045,1,8,0:0:0:0:
192,192,90232,128,0,90420:0:0:0:0:
320,192,90420,1,2,0:0:0:0:
448,192,90420,1,0,0:0:0:0:
64,192,90513,1,0,0:0:0:0:
448,192,90607,1,0,0:0:0:0:
192,192,90701,1,0,0:0:0:0:
64,192,90795,1,8,0:0:0:0:
320,192,90795,1,2,0:0:0:0:
448,192,90795,1,0,0:0:0:60:Clap.wav
192,192,90982,1,0,0:0:0:0:
320,192,91076,1,0,0:0:0:0:
64,192,91170,1,2,0:0:0:0:
448,192,91170,1,0,0:0:0:0:
64,192,91357,1,0,0:0:0:60:Clap.wav
320,192,91357,1,0,0:0:0:0:
448,192,91357,1,0,0:0:0:0:
64,192,91545,1,2,0:0:0:0:
320,192,91545,128,8,91732:0:0:0:0:
448,192,91545,1,0,0:0:0:60:Clap.wav
192,192,91732,128,0,91920:0:0:0:0:
64,192,91920,1,2,0:0:0:0:
320,192,91920,1,4,0:0:0:0:
448,192,91920,128,0,92107:0:0:0:0:
192,192,92107,1,0,0:0:0:0:
64,192,92295,128,2,92482:0:0:0:0:
448,192,92295,1,8,0:0:0:0:
320,192,92482,1,0,0:0:0:0:
64,192,92670,1,2,0:0:0:0:
192,192,92670,128,0,92857:0:0:0:0:
448,192,92857,128,0,93045:0:0:0:0:
64,192,93045,1,8,0:0:0:0:
320,192,93045,1,2,0:0:0:0:
192,192,93232,128,0,93420:0:0:0:0:
320,192,93420,1,2,0:0:0:0:
448,192,93420,1,0,0:0:0:0:
64,192,93513,1,0,0:0:0:0:
320,192,93607,1,0,0:0:0:0:
192,192,93701,1,0,0:0:0:0:
64,192,93795,1,2,0:0:0:0:
448,192,93795,1,8,0:0:0:0:
320,192,93982,1,0,0:0:0:0:
448,192,94076,1,0,0:0:0:0:
64,192,94170,1,2,0:0:0:0:
192,192,94170,1,0,0:0:0:0:
320,192,94263,1,0,0:0:0:0:
64,192,94357,1,0,0:0:0:0:
320,192,94451,1,0,0:0:0:0:
192,192,94545,1,8,0:0:0:0:
448,192,94545,1,2,0:0:0:0:
320,192,94732,128,0,94920:0:0:0:0:
64,192,94920,128,2,95107:0:0:0:0:
192,192,94920,1,4,0:0:0:0:
448,192,94920,1,0,0:0:0:0:
320,192,95107,1,0,0:0:0:0:
192,192,95295,128,8,95482:0:0:0:0:
448,192,95295,1,2,0:0:0:0:
64,192,95482,1,0,0:0:0:0:
320,192,95670,1,2,0:0:0:0:
448,192,95670,128,0,95857:0:0:0:0:
64,192,95857,128,0,96045:0:0:0:0:
192,192,96045,1,10,0:0:0:0:
448,192,96045,1,0,0:0:0:60:Clap.wav
320,192,96232,128,0,96420:0:0:0:0:
64,192,96420,1,2,0:0:0:0:
192,192,96420,1,4,0:0:0:0:
448,192,96420,1,0,0:0:0:0:
64,192,96607,1,0,0:0:0:60:Clap.wav
320,192,96607,1,0,0:0:0:0:
448,192,96607,1,0,0:0:0:0:
64,192,96795,1,8,0:0:0:0:
320,192,96795,1,2,0:0:0:0:
448,192,96795,1,0,0:0:0:60:Clap.wav
192,192,96982,1,0,0:0:0:0:
320,192,97076,1,0,0:0:0:0:
64,192,97170,1,2,0:0:0:0:
192,192,97170,1,0,0:0:0:60:Clap.wav
448,192,97170,1,0,0:0:0:0:
320,192,97357,1,0,0:0:0:0:
64,192,97451,1,0,0:0:0:60:Clap.wav
192,192,97451,1,0,0:0:0:0:
320,192,97545,1,2,0:0:0:0:
448,192,97545,1,8,0:0:0:0:
192,192,97732,1,0,0:0:0:60:Clap.wav
320,192,97732,1,0,0:0:0:0:
64,192,97920,1,4,0:0:0:0:
192,192,97920,1,2,0:0:0:0:
448,192,97920,1,0,0:0:0:70:Triangle.wav
320,192,98107,1,0,0:0:0:100:Castanets.wav
64,192,98295,128,10,98482:0:0:0:0:
448,192,98295,1,0,0:0:0:100:Castanets.wav
192,192,98482,1,0,0:0:0:0:
320,192,98576,1,0,0:0:0:0:
64,192,98670,1,2,0:0:0:0:
192,192,98670,128,0,98857:0:0:0:0:
320,192,98857,128,0,99045:0:0:0:100:Castanets.wav
64,192,99045,1,10,0:0:0:0:
448,192,99045,1,0,0:0:0:100:Castanets.wav
192,192,99232,128,0,99420:0:0:0:0:
320,192,99420,1,2,0:0:0:0:
448,192,99420,1,0,0:0:0:80:pong.wav
64,192,99513,1,0,0:0:0:80:pong.wav
320,192,99607,1,0,0:0:0:80:pong.wav
448,192,99607,1,0,0:0:0:100:Castanets.wav
64,192,99701,1,0,0:0:0:80:pong.wav
192,192,99701,1,0,0:0:0:0:
320,192,99795,1,10,0:0:0:0:
448,192,99795,1,0,0:0:0:80:pong.wav
64,192,99982,1,0,0:0:0:80:pong.wav
192,192,99982,1,0,0:0:0:0:
320,192,100076,1,0,0:0:0:80:pong.wav
448,192,100076,1,0,0:0:0:0:
64,192,100170,1,2,0:0:0:0:
192,192,100170,1,0,0:0:0:80:pong.wav
320,192,100263,1,0,0:0:0:80:pong.wav
64,192,100357,1,0,0:0:0:80:pong.wav
448,192,100357,1,0,0:0:0:100:Castanets.wav
192,192,100451,1,0,0:0:0:0:
320,192,100545,1,10,0:0:0:0:
448,192,100545,1,0,0:0:0:80:pong.wav
64,192,100732,1,0,0:0:0:80:pong.wav
192,192,100732,1,0,0:0:0:0:
320,192,100826,1,0,0:0:0:0:
64,192,100920,1,2,0:0:0:0:
448,192,100920,128,0,101107:0:0:0:0:
320,192,101107,1,0,0:0:0:100:Castanets.wav
192,192,101201,1,0,0:0:0:0:
64,192,101295,128,10,101482:0:0:0:0:
320,192,101295,1,0,0:0:0:100:Castanets.wav
448,192,101482,1,0,0:0:0:0:
320,192,101576,1,0,0:0:0:0:
64,192,101670,1,2,0:0:0:0:
192,192,101670,128,0,101857:0:0:0:0:
448,192,101857,128,0,102045:0:0:0:100:Castanets.wav
192,192,102045,1,10,0:0:0:0:
320,192,102045,1,0,0:0:0:100:Castanets.wav
64,192,102232,128,0,102420:0:0:0:0:
320,192,102420,1,2,0:0:0:0:
448,192,102420,1,0,0:0:0:80:pong.wav
192,192,102513,1,0,0:0:0:0:
64,192,102607,1,0,0:0:0:100:Castanets.wav
320,192,102701,1,0,0:0:0:80:pong.wav
448,192,102701,1,0,0:0:0:0:
64,192,102795,1,10,0:0:0:0:
192,192,102795,1,0,0:0:0:100:Castanets.wav
64,192,102982,1,0,0:0:0:80:pong.wav
320,192,102982,1,0,0:0:0:0:
192,192,103170,1,2,0:0:0:0:
448,192,103170,1,0,0:0:0:0:
64,192,103357,1,0,0:0:0:80:pong.wav
320,192,103357,1,0,0:0:0:60:Clap.wav
448,192,103357,1,0,0:0:0:100:Castanets.wav
64,192,103545,1,10,0:0:0:0:
320,192,103545,1,0,0:0:0:80:pong.wav
448,192,103545,1,0,0:0:0:60:Clap.wav
192,192,103732,1,0,0:0:0:0:
320,192,103826,1,0,0:0:0:0:
64,192,103920,128,2,104107:0:0:0:0:
192,192,103920,1,4,0:0:0:0:
448,192,103920,1,0,0:0:0:70:Triangle.wav
320,192,104107,1,0,0:0:0:100:Castanets.wav
192,192,104295,1,10,0:0:0:0:
448,192,104295,128,0,104482:0:0:0:100:Castanets.wav
64,192,104482,1,0,0:0:0:0:
192,192,104576,1,0,0:0:0:0:
320,192,104670,128,2,104857:0:0:0:0:
448,192,104670,1,0,0:0:0:0:
192,192,104857,128,0,105045:0:0:0:100:Castanets.wav
64,192,105045,1,10,0:0:0:0:
448,192,105045,1,0,0:0:0:100:Castanets.wav
320,192,105232,128,0,105420:0:0:0:0:
64,192,105420,1,2,0:0:0:0:
192,192,105420,1,0,0:0:0:80:pong.wav
448,192,105513,1,0,0:0:0:80:pong.wav
64,192,105607,1,0,0:0:0:80:pong.wav
192,192,105607,1,0,0:0:0:100:Castanets.wav
320,192,105701,1,0,0:0:0:80:pong.wav
448,192,105701,1,0,0:0:0:0:
64,192,105795,1,10,0:0:0:0:
192,192,105795,1,0,0:0:0:80:pong.wav
320,192,105982,1,0,0:0:0:80:pong.wav
448,192,105982,1,0,0:0:0:0:
64,192,106076,1,0,0:0:0:80:pong.wav
192,192,106076,1,0,0:0:0:0:
320,192,106170,1,2,0:0:0:0:
448,192,106170,1,0,0:0:0:80:pong.wav
192,192,106263,1,0,0:0:0:80:pong.wav
64,192,106357,1,0,0:0:0:80:pong.wav
448,192,106357,1,0,0:0:0:100:Castanets.wav
320,192,106451,1,0,0:0:0:0:
64,192,106545,1,10,0:0:0:0:
192,192,106545,1,0,0:0:0:80:pong.wav
320,192,106732,1,0,0:0:0:80:pong.wav
448,192,106732,1,0,0:0:0:0:
192,192,106826,1,0,0:0:0:0:
64,192,106920,1,2,0:0:0:0:
448,192,106920,128,0,107107:0:0:0:0:
320,192,107107,1,0,0:0:0:100:Castanets.wav
192,192,107201,1,0,0:0:0:0:
64,192,107295,128,10,107482:0:0:0:0:
320,192,107295,1,0,0:0:0:100:Castanets.wav
448,192,107482,1,0,0:0:0:0:
320,192,107576,1,0,0:0:0:0:
64,192,107670,1,2,0:0:0:0:
192,192,107670,128,0,107857:0:0:0:0:
448,192,107857,128,0,108045:0:0:0:100:Castanets.wav
192,192,108045,1,10,0:0:0:0:
320,192,108045,1,0,0:0:0:100:Castanets.wav
64,192,108232,128,0,108420:0:0:0:0:
320,192,108420,1,2,0:0:0:0:
448,192,108420,1,0,0:0:0:80:pong.wav
192,192,108513,1,0,0:0:0:80:pong.wav
64,192,108607,1,0,0:0:0:80:pong.wav
448,192,108607,1,0,0:0:0:100:Castanets.wav
192,192,108701,1,0,0:0:0:80:pong.wav
320,192,108701,1,0,0:0:0:0:
64,192,108795,1,10,0:0:0:0:
448,192,108795,1,0,0:0:0:80:pong.wav
64,192,108982,1,0,0:0:0:80:pong.wav
192,192,108982,1,0,0:0:0:0:
320,192,109076,1,0,0:0:0:0:
64,192,109170,1,2,0:0:0:0:
448,192,109170,1,0,0:0:0:80:pong.wav
192,192,109263,1,0,0:0:0:0:
320,192,109357,1,0,0:0:0:80:pong.wav
448,192,109357,1,0,0:0:0:100:Castanets.wav
192,192,109451,1,0,0:0:0:0:
64,192,109545,128,10,109732:0:0:0:0:
448,192,109545,128,0,109732:0:0:0:70:Triangle.wav
320,192,109732,128,0,109920:0:0:0:0:
64,192,109920,128,2,110295:0:0:0:0:
192,192,109920,128,4,110107:0:0:0:0:
448,192,109920,1,0,0:0:0:0:
448,192,110295,128,0,110482:0:0:0:0:
64,192,110670,1,8,0:0:0:0:
192,192,110670,1,2,0:0:0:0:
448,192,110670,1,0,0:0:0:0:
192,192,110857,1,2,0:0:0:0:
320,192,110857,1,8,0:0:0:0:
448,192,110857,1,0,0:0:0:0:
64,192,111232,1,2,0:0:0:0:
320,192,111232,128,4,111420:0:0:0:0:
448,192,111232,128,0,111420:0:0:0:0:
64,192,111607,1,2,0:0:0:0:
192,192,111607,1,0,0:0:0:45:Clap.wav
64,192,111795,1,2,0:0:0:0:
320,192,111795,1,0,0:0:0:50:Clap.wav
192,192,111982,1,2,0:0:0:0:
448,192,111982,1,0,0:0:0:55:Clap.wav
64,192,112170,1,2,0:0:0:0:
320,192,112170,1,0,0:0:0:60:Clap.wav
448,192,112170,1,0,0:0:0:0:
64,192,112545,1,2,0:0:0:0:
192,192,112545,1,4,0:0:0:0:
448,192,112545,1,0,0:0:0:60:Clap.wav
