osu file format v14

[General]
AudioFilename: audio.mp3
AudioLeadIn: 0
PreviewTime: 50487
Countdown: 0
SampleSet: Soft
StackLeniency: 0.7
Mode: 0
LetterboxInBreaks: 0
WidescreenStoryboard: 1

[Editor]
DistanceSpacing: 0.1
BeatDivisor: 4
GridSize: 4
TimelineZoom: 1

[Metadata]
Title:Hoshi to Koisuru Concerto
TitleUnicode:星と恋するコンチェルト
Artist:nayuta
ArtistUnicode:nayuta
Creator:Nana Abe
Version:Insane
Source:宿星のガールフレンド2
Tags:shukusei no girlfriend 2 two なゆた the destiny star of opening eroge visual novel jpop japanese pop takekii takeki hanasaka yui mnyui reisevia cocona roda totsuki stratos deca gibune fuju fedora- gelidium
BeatmapID:2839919
BeatmapSetID:1341232

[Difficulty]
HPDrainRate:5
CircleSize:4
OverallDifficulty:8
ApproachRate:8.3
SliderMultiplier:1.6
SliderTickRate:1

[Events]
//Background and Video events
0,0,"mamma mia the bababoinkas.png",0,0
//Break Periods
2,15304,25372
//Storyboard Layer 0 (Background)
//Storyboard Layer 1 (Fail)
//Storyboard Layer 2 (Pass)
//Storyboard Layer 3 (Foreground)
//Storyboard Layer 4 (Overlay)
//Storyboard Sound Samples

[TimingPoints]
19,342.857142857143,4,2,1,75,1,0
533,-100,4,2,1,45,0,0
2761,-100,4,2,1,55,0,0
4133,-90.9090909090909,4,2,1,75,0,0
4390,-100,4,2,1,75,0,0
6876,-90.9090909090909,4,2,1,75,0,0
7133,-100,4,2,1,75,0,0
9619,-90.9090909090909,4,2,1,75,0,0
9961,-100,4,2,1,75,0,0
12190,-87.719298245614,4,2,1,75,0,0
15104,-142.857142857143,4,2,1,75,0,0
15447,-142.857142857143,4,2,1,75,0,0
26076,-100,4,2,1,75,0,0
26419,-114.942528735632,4,2,1,65,0,0
28819,-100,4,2,1,65,0,0
29076,-114.942528735632,4,2,1,5,0,0
29161,-114.942528735632,4,2,1,65,0,0
34133,-100,4,2,1,65,0,0
37390,-133.333333333333,4,2,1,65,0,0
43047,-133.333333333333,4,2,1,65,0,0
47676,-83.3333333333333,4,2,1,75,0,0
47933,-83.3333333333333,4,2,1,5,0,0
48019,-100,4,2,1,75,0,0
49390,-83.3333333333333,4,2,1,88,0,0
49933,-69.5652173913041,4,2,1,75,0,0
50076,-69.5652173913041,4,2,1,88,0,0
50333,-83.3333333333333,4,2,1,88,0,0
50761,-83.3333333333333,4,2,1,75,0,1
51019,-83.3333333333333,4,2,1,5,0,1
51104,-90.9090909090909,4,2,1,75,0,1
61733,-90.9090909090909,4,2,1,75,0,0
62076,-100,4,2,1,75,0,0
66190,-100,4,2,1,75,0,0
67219,-90.9090909090909,4,2,1,75,0,0
67561,-100,4,2,1,75,0,0
68933,-100,4,2,1,75,0,0
69961,-90.9090909090909,4,2,1,75,0,0
70304,-100,4,2,1,75,0,0
72704,-90.9090909090909,4,2,1,75,0,0
73047,-100,4,2,1,75,0,0
73219,-100,4,2,1,75,0,0
75276,-89.2857142857143,4,2,1,75,0,0

[Colours]
Combo1 : 250,180,240
Combo2 : 120,200,230
Combo3 : 255,230,130
Combo4 : 160,230,150

[HitObjects]
321,322,533,6,0,P|338:320|363:324,2,40,2|2|2,0:0|0:0|0:0,0:0:0:0:
240,289,876,1,2,0:0:0:0:
240,210,1048,1,2,0:0:0:0:
316,184,1219,1,2,0:0:0:0:
362,249,1561,1,2,0:0:0:0:
438,224,1904,1,2,0:0:0:0:
123,59,2761,5,8,0:0:0:0:
43,54,3019,2,0,P|21:43|7:20,1,40,8|8,0:1|0:0,0:0:0:0:
162,129,3276,5,0,0:0:0:0:
171,136,3361,1,8,0:1:0:0:
181,142,3447,2,0,L|231:124,3,40,8|8|8|8,0:0|0:1|0:1|0:1,0:0:0:0:
247,200,3790,2,0,L|297:182,3,40,8|8|8|8,0:0|0:1|0:1|0:1,0:0:0:0:
174,268,4133,6,0,P|116:276|55:228,1,132.00000402832,6|0,0:1|0:0,0:0:0:0:
50,159,4476,1,2,0:0:0:0:
135,369,4647,2,0,P|176:363|211:344,1,80,14|8,0:0|0:1,0:0:0:0:
255,277,4990,1,10,0:1:0:0:
255,277,5161,1,10,0:1:0:0:
324,350,5333,6,0,B|353:375|353:375|505:352,1,160,14|8,0:0|0:1,0:0:0:0:
375,195,5847,2,0,P|358:240|372:282,1,80,12|0,0:0|0:0,0:0:0:0:
506,180,6190,1,8,0:1:0:0:
403,106,6361,1,8,0:1:0:0:
368,101,6447,1,8,0:1:0:0:
337,112,6533,2,0,P|312:114|289:103,2,40,8|8|4,0:0|0:1|0:3,0:0:0:0:
486,17,6876,6,0,L|458:180,1,132.00000402832,12|0,0:2|0:0,0:0:0:0:
404,199,7219,1,2,0:0:0:0:
308,20,7390,2,0,P|347:14|383:30,1,80,12|8,0:0|0:1,0:0:0:0:
231,79,7733,1,10,0:1:0:0:
231,79,7904,1,2,0:0:0:0:
0,29,8076,6,0,B|91:18|55:91|143:84,1,160,14|8,0:0|0:1,0:0:0:0:
284,0,8590,2,0,P|244:11|217:47,1,80,12|0,0:0|0:0,0:0:0:0:
236,215,8933,1,8,0:0:0:0:
242,200,9018,1,8,0:1:0:0:
244,185,9104,1,8,0:1:0:0:
241,170,9190,1,8,0:1:0:0:
233,156,9276,2,0,L|185:149,3,40,8|8|8|8,0:0|0:1|0:1|0:1,0:0:0:0:
51,155,9619,22,1,B|30:161|10:186|10:186|2:240|38:299,1,132.00000402832,12|0,0:0|0:0,0:0:0:0:
68,329,9961,1,2,0:0:0:0:
206,286,10133,2,0,P|248:283|299:303,1,80,14|8,0:0|0:1,0:0:0:0:
319,375,10476,1,10,0:1:0:0:
319,375,10647,1,10,0:1:0:0:
114,247,10819,6,0,B|120:190|120:190|148:143|148:143|156:86,1,160,14|8,0:0|0:1,0:0:0:0:
274,212,11333,2,0,P|316:215|367:195,1,80,12|2,0:0|0:0,0:0:0:0:
427,132,11676,2,0,P|449:96|455:41,1,80,8|8,0:1|0:0,0:0:0:0:
406,1,11933,1,8,0:0:0:0:
406,1,12019,1,8,0:3:0:0:
360,202,12190,6,0,P|381:286|466:302,1,182.399997773438,4|8,0:1|0:1,0:0:0:0:
330,289,12704,2,0,P|297:328|293:370,1,91.1999988867188,8|8,0:1|0:1,0:0:0:0:
307,203,13047,2,0,P|258:220|234:254,1,91.1999988867188,8|8,0:1|0:1,0:0:0:0:
315,118,13390,2,0,P|264:108|226:126,1,91.1999988867188,8|8,0:1|0:1,0:0:0:0:
123,208,13733,5,8,0:0:0:0:
123,208,13904,1,8,0:1:0:0:
59,82,14076,1,8,0:0:0:0:
59,82,14247,1,8,0:1:0:0:
12,181,14419,5,8,0:0:0:0:
171,86,14590,1,8,0:0:0:0:
12,181,14761,5,8,0:0:0:0:
171,86,14933,1,8,0:0:0:0:
6,6,15104,1,6,0:1:0:0:
355,354,26076,6,0,P|424:323|431:247,1,160,6|8,0:1|0:0,0:0:0:0:
431,247,26761,5,8,0:1:0:0:
359,263,26933,1,8,0:1:0:0:
279,279,27104,2,0,L|210:290,2,69.6000005841065,10|0|8,0:0|0:0|0:1,0:0:0:0:
359,263,27619,1,8,0:1:0:0:
202,208,27790,1,8,0:0:0:0:
202,208,28133,1,8,0:1:0:0:
294,179,28304,5,10,0:1:0:0:
168,285,28476,1,8,0:0:0:0:
153,136,28647,1,2,0:0:0:0:
89,192,28819,6,0,P|19:161|12:85,1,160,8|10,0:1|0:0,0:0:0:0:
12,85,29504,1,8,0:1:0:0:
94,59,29676,1,8,0:1:0:0:
169,33,29847,2,0,L|246:4,2,69.6000005841065,10|0|8,0:0|0:0|0:1,0:0:0:0:
94,59,30361,1,8,0:1:0:0:
281,79,30533,1,10,0:0:0:0:
281,79,30876,1,8,0:1:0:0:
227,140,31047,5,10,0:1:0:0:
344,25,31219,1,8,0:0:0:0:
418,51,31390,5,10,0:0:0:0:
425,55,31476,1,8,0:0:0:0:
433,60,31561,2,0,P|442:130|445:199,1,139.200001168213,4|8,0:0|0:0,0:0:0:0:
440,195,32247,1,8,0:1:0:0:
356,231,32419,1,8,0:1:0:0:
274,251,32590,2,0,P|221:241|200:225,1,69.6000005841065,10|0,0:0|0:0,0:0:0:0:
377,312,32933,2,0,P|426:280|427:194,1,139.200001168213,8|10,0:1|0:0,0:0:0:0:
432,204,33619,5,8,0:1:0:0:
511,166,33790,1,8,0:1:0:0:
427,124,33961,1,10,0:0:0:0:
272,238,34133,6,0,B|202:268|149:212|149:212|157:182,1,160,6|8,0:0|0:1,0:0:0:0:
244,130,34647,1,8,0:0:0:0:
45,114,34819,2,0,L|81:292,1,160,6|8,0:1|0:1,0:0:0:0:
159,316,35333,1,8,0:0:0:0:
163,120,35504,6,0,P|204:132|261:35,1,160,6|0,0:0|0:0,0:0:0:0:
193,16,36019,1,8,0:0:0:0:
342,60,36190,2,0,P|370:46|386:24,2,40,8|8|8,0:1|0:1|0:0,0:0:0:0:
221,137,36533,1,8,0:1:0:0:
301,153,36704,1,8,0:3:0:0:
305,157,36876,1,12,0:3:0:0:
381,172,37047,1,4,0:1:0:0:
485,108,37390,5,10,0:1:0:0:
489,225,37561,2,0,L|478:293,1,60.0000022888184,2|8,0:0|0:0,0:0:0:0:
479,284,38076,1,10,0:1:0:0:
392,244,38247,2,0,L|384:193,2,30.0000011444092,8|8|10,0:1|0:1|0:1,0:0:0:0:
322,281,38761,5,10,0:1:0:0:
244,315,38933,2,0,P|209:311|180:296,1,60.0000022888184,2|8,0:0|0:0,0:0:0:0:
185,209,39447,1,10,0:1:0:0:
182,296,39619,1,0,0:0:0:0:
98,247,39790,6,0,P|66:201|95:139,1,120.000004577637,10|8,0:1|0:1,0:0:0:0:
96,272,40304,2,0,P|63:317|-4:311,1,120.000004577637,2|0,0:0|0:0,0:0:0:0:
131,258,40819,2,0,P|185:272|202:338,1,120.000004577637,10|10,0:1|0:1,0:0:0:0:
141,377,41333,1,0,0:0:0:0:
288,327,41504,6,0,L|300:251,1,60.0000022888184,8|0,0:1|0:0,0:0:0:0:
333,321,41847,2,0,L|345:245,1,60.0000022888184,10|0,0:0|0:0,0:0:0:0:
380,319,42190,2,0,L|392:243,1,60.0000022888184,10|0,0:1|0:0,0:0:0:0:
336,90,42533,6,0,B|312:95|301:117|301:117|297:168|328:204,1,120.000004577637,4|8,0:1|0:1,0:0:0:0:
421,77,43047,1,0,0:0:0:0:
369,18,43219,2,0,P|333:-1|297:2,1,60.0000022888184,10|0,0:0|0:0,0:0:0:0:
229,53,43561,1,8,0:1:0:0:
144,27,43733,6,0,L|103:14,2,30.0000011444092,8|8|10,0:1|0:1|0:1,0:0:0:0:
226,38,44076,1,8,0:1:0:0:
138,125,44247,2,0,P|105:124|76:109,1,60.0000022888184,8|8,0:1|0:1,0:0:0:0:
45,95,44504,1,8,0:1:0:0:
49,99,44590,1,8,0:0:0:0:
68,180,44761,1,8,0:3:0:0:
93,259,44933,1,4,0:3:0:0:
93,259,45104,1,12,0:3:0:0:
112,340,45276,1,4,0:0:0:0:
269,297,45619,5,8,0:0:0:0:
269,297,45790,2,0,P|254:337|259:373,1,60.0000022888184,8|8,0:0|0:0,0:0:0:0:
339,258,46133,1,8,0:0:0:0:
358,266,46304,2,0,P|400:258|428:236,1,60.0000022888184,8|8,0:0|0:0,0:0:0:0:
266,207,46647,1,8,0:0:0:0:
258,177,46818,2,0,P|230:144|197:130,2,60.0000022888184,8|8|8,0:0|0:0|0:0,0:0:0:0:
362,142,47333,1,8,0:0:0:0:
233,191,47504,1,8,0:0:0:0:
403,208,47676,2,0,P|442:160|408:71,1,143.999995605469,8|0,0:0|0:0,0:0:0:0:
344,65,48019,6,0,P|314:89|307:127,1,80,8|8,0:0|0:0,0:0:0:0:
408,16,48361,1,8,0:0:0:0:
232,70,48533,2,0,P|185:70|143:47,2,80,8|8|8,0:0|0:0|0:0,0:0:0:0:
295,8,49047,1,8,0:0:0:0:
295,8,49219,1,8,0:0:0:0:
204,169,49390,5,8,0:0:0:0:
144,27,49561,1,8,0:0:0:0:
204,169,49733,5,8,0:0:0:0:
144,27,49904,1,8,0:0:0:0:
98,196,50076,1,8,0:0:0:0:
95,205,50161,1,8,0:1:0:0:
92,216,50247,1,8,0:1:0:0:
90,226,50333,1,8,0:1:0:0:
87,237,50419,2,0,L|103:305,3,47.9999985351563,8|8|8|8,0:0|0:1|0:1|0:1,0:0:0:0:
20,189,50761,22,0,B|89:180|89:180|143:216|143:216|206:210,1,191.999994140625,6|10,0:1|0:0,0:0:0:0:
185,119,51276,1,8,0:1:0:0:
6,190,51447,2,0,P|-4:149|9:107,1,88.000002685547,10|8,0:0|0:1,0:0:0:0:
108,44,51790,1,8,0:0:0:0:
185,119,51961,1,8,0:1:0:0:
346,65,52133,6,8,B|318:32|318:32|257:75|283:149,1,176.000005371094,10|8,0:0|0:0,0:0:0:0:
211,20,52647,1,0,0:0:0:0:
371,191,52819,2,8,P|400:158|403:115,1,88.000002685547,10|0,0:0|0:0,0:0:0:0:
377,279,53161,2,0,P|419:271|449:240,1,88.000002685547,10|8,0:0|0:1,0:0:0:0:
276,338,53504,5,10,0:0:0:0:
276,338,53676,1,8,0:1:0:0:
189,262,53847,2,0,P|160:229|156:186,1,88.000002685547,8|8,0:0|0:1,0:0:0:0:
163,361,54190,2,8,B|57:382|96:301|1:308,1,176.000005371094,10|8,0:0|0:0,0:0:0:0:
81,214,54704,1,8,0:1:0:0:
254,353,54876,2,8,P|294:336|316:299,1,88.000002685547,10|8,0:0|0:1,0:0:0:0:
269,121,55219,2,8,L|293:227,1,88.000002685547,14|8,0:0|0:1,0:0:0:0:
183,118,55561,5,10,0:0:0:0:
358,163,55733,1,8,0:1:0:0:
358,163,55819,1,8,0:0:0:0:
358,163,55904,1,10,0:0:0:0:
289,39,56076,1,8,0:0:0:0:
175,131,56247,6,0,P|108:126|-5:132,1,176.000005371094,6|8,0:1|0:0,0:0:0:0:
149,31,56761,1,8,0:1:0:0:
153,35,56933,1,10,0:0:0:0:
252,111,57104,1,8,0:1:0:0:
62,130,57276,2,0,P|57:84|81:38,1,88.000002685547,8|8,0:0|0:1,0:0:0:0:
172,186,57619,2,0,P|177:232|153:278,1,88.000002685547,10|8,0:0|0:1,0:0:0:0:
55,319,57961,1,10,0:0:0:0:
55,319,58133,1,8,0:1:0:0:
260,268,58304,6,8,B|364:256|312:316|427:304,1,176.000005371094,10|8,0:0|0:0,0:0:0:0:
491,229,58819,1,8,0:1:0:0:
415,127,58990,2,8,P|381:166|390:207,1,88.000002685547,10|8,0:0|0:1,0:0:0:0:
433,294,59333,1,14,0:0:0:0:
308,172,59504,1,8,0:1:0:0:
505,96,59676,2,0,L|481:243,2,132.00000402832,4|4|4,0:0|0:0|0:0,0:0:0:0:
442,39,60361,6,0,B|408:69|360:61|360:61|331:18|288:12,1,176.000005371094,6|8,0:1|0:0,0:0:0:0:
216,83,60876,1,0,0:0:0:0:
105,35,61047,1,8,0:0:0:0:
122,48,61132,1,8,0:0:0:0:
134,66,61218,1,8,0:0:0:0:
139,88,61304,1,8,0:0:0:0:
136,109,61390,2,0,L|79:99,3,44.0000013427735,8|8|8|12,0:0|0:3|0:3|0:3,0:0:0:0:
68,192,61733,6,0,B|101:222|149:214|149:214|178:171|221:165,2,176.000005371094,4|8|8,0:1|0:0|0:1,0:0:0:0:
43,283,62590,1,8,0:1:0:0:
43,283,62761,1,10,0:0:0:0:
101,216,62933,1,0,0:0:0:0:
142,361,63104,2,0,P|148:322|135:285,1,80,10|8,0:1|0:1,0:0:0:0:
53,375,63447,1,10,0:0:0:0:
228,351,63619,6,0,B|312:376|298:311|382:345,1,160,2|8,0:0|0:1,0:0:0:0:
456,364,64047,1,8,0:1:0:0:
456,364,64133,1,8,0:0:0:0:
332,247,64304,1,8,0:0:0:0:
416,237,64476,6,0,P|447:193|444:159,1,80,6|8,0:1|0:1,0:0:0:0:
510,257,64819,1,8,0:1:0:0:
364,138,64990,6,0,L|275:116,1,80,6|8,0:0|0:1,0:0:0:0:
432,88,65333,1,8,0:1:0:0:
216,101,65504,2,1,B|166:75|115:107|94:129|55:129|48:68|89:29|134:74,1,240,6|0,2:1|0:0,0:0:0:0:
143,257,66190,2,0,P|169:222|166:180,1,80,12|0,0:0|0:0,0:0:0:0:
57,211,66533,1,10,0:1:0:0:
147,340,66704,1,8,0:0:0:0:
162,337,66789,1,8,0:0:0:0:
177,334,66876,2,0,L|224:340,3,40,8|4|12|12,0:3|0:3|0:3|0:3,0:0:0:0:
309,368,67219,6,0,P|290:294|319:227,1,132.00000402832,4|0,0:1|0:0,0:0:0:0:
373,201,67562,1,2,0:0:0:0:
196,184,67733,2,0,P|155:178|120:159,1,80,12|8,0:0|0:1,0:0:0:0:
88,73,68076,1,10,0:1:0:0:
88,73,68247,1,10,0:1:0:0:
281,128,68419,6,0,B|330:141|361:100|363:74|363:74|334:64|312:82,1,160,12|8,0:0|0:1,0:0:0:0:
431,142,68933,2,0,P|450:105|454:65,1,80,12|0,0:0|0:0,0:0:0:0:
394,7,69276,1,8,0:1:0:0:
366,190,69447,1,8,0:0:0:0:
386,221,69533,1,8,0:0:0:0:
421,227,69619,2,0,P|440:224|459:232,2,40,8|8|8,0:0|0:1|0:3,0:0:0:0:
339,331,69962,6,0,L|178:309,1,132.00000402832,4|0,0:1|0:0,0:0:0:0:
161,256,70305,1,10,0:1:0:0:
17,366,70476,2,0,P|11:327|27:291,1,80,12|8,0:0|0:1,0:0:0:0:
133,380,70819,1,10,0:1:0:0:
133,380,70990,1,10,0:1:0:0:
81,223,71162,6,0,B|88:137|15:173|26:82,1,160,12|8,0:0|0:1,0:0:0:0:
166,160,71676,2,0,P|206:149|233:113,1,80,8|0,0:0|0:0,0:0:0:0:
169,31,72019,1,8,0:0:0:0:
154,25,72104,1,8,0:1:0:0:
139,23,72190,1,8,0:1:0:0:
124,26,72276,1,8,0:1:0:0:
110,34,72362,2,0,L|103:82,3,40,8|8|8|8,0:0|0:1|0:1|0:1,0:0:0:0:
257,46,72704,6,1,B|305:16|342:39|342:39|345:58|330:77,1,132.00000402832,12|0,0:2|0:0,0:0:0:0:
285,140,73047,1,10,0:1:0:0:
400,120,73219,2,0,L|479:90,1,80,12|8,0:0|0:1,0:0:0:0:
484,4,73562,1,10,0:1:0:0:
484,4,73733,1,10,0:1:0:0:
356,196,73904,6,0,L|385:358,1,160,12|8,0:0|0:1,0:0:0:0:
396,125,74419,2,0,P|354:122|303:142,1,80,12|2,0:0|0:0,0:0:0:0:
243,205,74762,2,0,P|221:241|215:296,1,80,8|8,0:1|0:0,0:0:0:0:
264,336,75019,1,8,0:0:0:0:
264,336,75105,1,8,0:3:0:0:
125,311,75276,6,0,P|42:320|15:241,1,179.2000021875,4|8,0:1|0:1,0:0:0:0:
83,152,75790,2,0,L|100:248,1,89.60000109375,8|8,0:1|0:1,0:0:0:0:
163,92,76133,2,0,L|180:188,1,89.60000109375,8|8,0:1|0:1,0:0:0:0:
252,47,76476,1,8,0:1:0:0:
252,47,76647,1,8,0:1:0:0:
290,179,76819,5,8,0:0:0:0:
343,29,76990,1,8,0:1:0:0:
290,179,77162,1,8,0:0:0:0:
343,29,77333,1,8,0:1:0:0:
394,148,77505,5,8,0:0:0:0:
209,116,77676,1,8,0:0:0:0:
413,66,77847,5,8,0:0:0:0:
348,255,78019,1,8,0:0:0:0:
256,192,78876,5,4,0:1:0:0:
256,192,78961,12,4,85047,0:3:0:0:
