osu file format v14

[General]
AudioFilename: audio.mp3
AudioLeadIn: 0
PreviewTime: 50487
Countdown: 0
SampleSet: Soft
StackLeniency: 0.7
Mode: 0
LetterboxInBreaks: 0
WidescreenStoryboard: 0

[Editor]
DistanceSpacing: 1
BeatDivisor: 4
GridSize: 4
TimelineZoom: 1

[Metadata]
Title:Hoshi to Koisuru Concerto
TitleUnicode:星と恋するコンチェルト
Artist:nayuta
ArtistUnicode:nayuta
Creator:Nana Abe
Version:Adoration
Source:宿星のガールフレンド2
Tags:shukusei no girlfriend 2 two なゆた the destiny star of opening eroge visual novel jpop japanese pop takekii takeki hanasaka yui mnyui reisevia cocona roda totsuki stratos deca gibune fuju fedora- gelidium
BeatmapID:2778308
BeatmapSetID:1341232

[Difficulty]
HPDrainRate:5
CircleSize:4.3
OverallDifficulty:8.5
ApproachRate:9.3
SliderMultiplier:1.76
SliderTickRate:1

[Events]
//Background and Video events
0,0,"mamma mia the bababoinkas.png",0,0
//Break Periods
//Storyboard Layer 0 (Background)
//Storyboard Layer 1 (Fail)
//Storyboard Layer 2 (Pass)
//Storyboard Layer 3 (Foreground)
//Storyboard Layer 4 (Overlay)
//Storyboard Sound Samples

[TimingPoints]
19,342.857142857143,4,2,1,45,1,0
2761,-100,4,2,1,55,0,0
4133,-100,4,2,1,75,0,0
12190,-87.719298245614,4,2,1,75,0,0
15104,-142.857142857143,4,2,1,75,0,0
15447,-142.857142857143,4,2,1,55,0,0
26076,-100,4,2,1,75,0,0
26419,-114.942528735632,4,2,1,65,0,0
29076,-114.942528735632,4,2,1,5,0,0
29161,-114.942528735632,4,2,1,65,0,0
34133,-100,4,2,1,65,0,0
37390,-133.333333333333,4,2,1,65,0,0
47676,-83.3333333333333,4,2,1,75,0,0
49390,-83.3333333333333,4,2,1,88,0,0
50761,-83.3333333333333,4,2,1,75,0,1
51019,-83.3333333333333,4,2,1,5,0,1
51104,-83.3333333333333,4,2,1,75,0,1
61733,-100,4,2,1,75,0,0
75276,-89.2857142857143,4,2,1,75,0,0

[Colours]
Combo1 : 250,180,240
Combo2 : 120,200,230
Combo3 : 255,230,130
Combo4 : 160,230,150

[HitObjects]
114,30,533,5,2,0:0:0:0:
114,30,619,1,2,0:0:0:0:
114,30,705,1,2,0:0:0:0:
43,53,876,1,2,0:0:0:0:
43,127,1048,1,2,0:0:0:0:
114,151,1219,1,2,0:0:0:0:
158,90,1561,1,2,0:0:0:0:
229,114,1904,1,2,0:0:0:0:
31,333,2761,5,8,0:0:0:0:
101,358,2933,2,0,P|109:323|104:307,1,44,0|8,0:0|0:1,0:0:0:0:
31,333,3104,1,8,0:0:0:0:
138,253,3276,2,0,P|115:225|99:219,1,44,0|8,0:0|0:1,0:0:0:0:
31,333,3447,5,8,0:0:0:0:
66,343,3532,1,8,0:1:0:0:
102,342,3618,1,8,0:1:0:0:
135,327,3704,1,8,0:1:0:0:
170,317,3789,1,8,0:0:0:0:
206,321,3875,1,8,0:1:0:0:
240,335,3961,2,8,P|246:358|251:394,1,44,8|8,0:1|0:1,0:1:0:0:
352,241,4133,5,6,0:1:0:0:
352,241,4304,1,10,0:1:0:0:
198,172,4476,1,2,0:0:0:0:
286,159,4647,6,0,P|314:127|322:84,1,88,14|8,0:0|0:1,0:0:0:0:
249,34,4990,1,10,0:1:0:0:
401,178,5161,1,10,0:1:0:0:
231,20,5333,6,0,P|220:80|323:130,1,176,14|8,0:0|0:1,0:0:0:0:
463,10,5847,2,0,P|422:23|397:59,1,88,12|0,0:0|0:0,0:0:0:0:
505,142,6190,1,8,0:1:0:0:
364,284,6361,1,8,0:1:0:0:
352,258,6446,1,8,0:1:0:0:
357,230,6533,1,8,0:0:0:0:
376,209,6618,1,8,0:1:0:0:
403,203,6703,1,4,0:3:0:0:
260,267,6875,5,12,0:2:0:0:
347,145,7047,1,10,0:1:0:0:
301,363,7219,1,2,0:0:0:0:
133,258,7390,6,0,P|91:247|48:252,1,88,12|8,0:0|0:1,0:0:0:0:
198,360,7733,1,10,0:1:0:0:
198,360,7904,1,2,0:0:0:0:
187,175,8076,6,0,P|165:136|135:104,1,88,14|0,0:0|0:0,0:0:0:0:
42,134,8419,1,8,0:1:0:0:
245,66,8590,2,0,P|291:73|331:81,1,88,12|0,0:0|0:0,0:0:0:0:
511,114,8933,1,8,0:0:0:0:
491,121,9018,1,8,0:1:0:0:
469,119,9104,1,8,0:1:0:0:
450,110,9190,1,8,0:1:0:0:
436,93,9276,1,8,0:0:0:0:
430,72,9361,1,8,0:1:0:0:
432,50,9447,1,8,0:1:0:0:
443,31,9533,1,8,0:1:0:0:
461,19,9618,5,12,0:0:0:0:
474,182,9790,1,10,0:1:0:0:
366,10,9961,1,2,0:0:0:0:
295,64,10133,6,0,P|252:68|210:55,1,88,14|8,0:0|0:1,0:0:0:0:
29,83,10476,1,10,0:1:0:0:
154,4,10647,1,10,0:1:0:0:
115,226,10819,6,0,L|97:336,1,88,14|0,0:0|0:0,0:0:0:0:
87,141,11161,1,8,0:1:0:0:
196,303,11333,2,0,P|239:304|282:293,1,88,12|2,0:0|0:0,0:0:0:0:
338,246,11590,1,2,0:0:0:0:
338,246,11676,1,8,0:1:0:0:
448,358,11847,1,8,0:0:0:0:
460,340,11932,1,8,0:0:0:0:
459,318,12018,1,8,0:3:0:0:
510,159,12190,6,0,B|462:188|462:188|310:156,1,200.639997550781,4|8,0:1|0:1,0:0:0:0:
202,57,12704,5,8,0:1:0:0:
245,194,12876,1,8,0:1:0:0:
187,47,13047,1,8,0:1:0:0:
320,158,13219,1,8,0:1:0:0:
169,34,13390,1,8,0:1:0:0:
344,74,13561,1,8,0:1:0:0:
146,26,13733,5,8,0:0:0:0:
178,242,13904,1,8,0:1:0:0:
408,223,14076,1,8,0:0:0:0:
382,4,14247,1,8,0:1:0:0:
168,148,14419,5,8,0:0:0:0:
454,59,14590,1,8,0:0:0:0:
255,293,14761,5,8,0:0:0:0:
288,1,14933,1,8,0:0:0:0:
438,297,15104,6,0,P|397:298|315:362,2,123.199996240234,6|0|0,0:1|0:0|0:0,0:0:0:0:
495,238,16133,1,2,0:0:0:0:
495,238,16304,1,2,0:0:0:0:
393,92,16476,2,0,P|389:133|443:221,2,123.199996240234
507,221,17504,1,2,0:0:0:0:
238,160,17847,6,0,B|176:118|179:171|98:116,2,123.199996240234,2|0|0,0:0|0:0|0:0,0:0:0:0:
266,88,18876,1,2,0:0:0:0:
266,88,19047,1,2,0:0:0:0:
183,217,19219,2,0,B|121:258|124:205|43:260,2,123.199996240234
261,240,20247,2,0,P|263:278|249:299,1,61.5999981201172,2|0,0:0|0:0,0:0:0:0:
82,161,20590,2,0,P|24:151|9:95,1,123.199996240234,2|0,0:0|0:0,0:0:0:0:
65,40,21276,2,0,P|122:49|137:105,1,123.199996240234,2|0,0:0|0:0,0:0:0:0:
61,290,21961,6,0,B|34:271|34:271|7:312|28:372,1,123.199996240234,2|0,0:0|0:0,0:0:0:0:
23,357,22647,1,2,0:0:0:0:
105,379,22819,1,2,0:0:0:0:
166,331,22990,2,0,P|201:331|230:345,1,61.5999981201172,2|0,0:0|0:0,0:0:0:0:
301,377,23333,2,0,P|360:388|414:362,2,123.199996240234,2|0|0,0:0|0:0|0:0,0:0:0:0:
288,296,24190,1,0,0:0:0:0:
288,296,24361,1,0,0:0:0:0:
301,377,24533,1,0,0:0:0:0:
462,305,24704,6,0,L|493:174,1,123.199996240234,2|0,0:0|0:0,0:0:0:0:
361,139,25390,6,0,L|392:270,1,123.199996240234,2|8,0:0|0:3,0:0:0:0:
484,37,26076,6,0,B|381:76|408:0|315:33,1,176,6|8,0:1|0:0,0:0:0:0:
315,33,26761,1,8,0:1:0:0:
237,81,26933,1,8,0:1:0:0:
151,35,27104,2,0,P|113:25|62:22,2,76.5600006425171,10|0|8,0:0|0:0|0:1,0:0:0:0:
237,4,27619,1,8,0:1:0:0:
142,167,27790,1,8,0:0:0:0:
142,167,28133,1,8,0:1:0:0:
97,98,28304,5,10,0:1:0:0:
195,234,28476,1,8,0:0:0:0:
200,107,28647,1,2,0:0:0:0:
71,295,28819,6,0,P|81:337|152:360,1,114.840000963776,8|0,0:1|0:0,0:0:0:0:
178,347,29161,2,0,P|221:339|268:356,1,76.5600006425171,10|0,0:0|0:0,0:0:0:0:
356,383,29504,1,8,0:1:0:0:
356,383,29676,1,8,0:1:0:0:
432,304,29847,2,0,P|443:267|431:232,2,76.5600006425171,10|0|8,0:0|0:0|0:1,0:0:0:0:
339,272,30361,1,8,0:1:0:0:
498,172,30533,1,10,0:0:0:0:
498,172,30876,1,8,0:1:0:0:
500,247,31047,5,10,0:1:0:0:
442,95,31219,1,8,0:0:0:0:
305,173,31390,5,10,0:0:0:0:
300,179,31476,1,8,0:0:0:0:
293,187,31561,2,0,P|220:199|164:150,1,153.120001285034,4|8,0:0|0:0,0:0:0:0:
163,148,32247,1,8,0:1:0:0:
244,114,32419,1,8,0:1:0:0:
92,200,32590,2,0,P|39:190|16:173,1,76.5600006425171,10|0,0:0|0:0,0:0:0:0:
161,239,32933,2,0,B|189:275|189:275|176:393,1,153.120001285034,8|10,0:1|0:0,0:0:0:0:
177,381,33619,5,8,0:1:0:0:
256,343,33790,1,8,0:1:0:0:
185,306,33961,1,10,0:0:0:0:
349,363,34133,6,0,B|359:287|433:267|433:267|465:312,1,176,6|8,0:0|0:1,0:0:0:0:
512,365,34647,1,8,0:0:0:0:
327,207,34819,2,0,P|317:124|386:78,1,176,6|8,0:1|0:1,0:0:0:0:
489,127,35333,1,8,0:0:0:0:
258,36,35504,2,0,L|71:71,1,176,6|0,0:0|0:0,0:0:0:0:
16,18,36019,5,8,0:0:0:0:
109,144,36190,1,8,0:1:0:0:
129,137,36275,1,8,0:1:0:0:
150,130,36361,1,8,0:0:0:0:
20,122,36533,1,8,0:1:0:0:
187,231,36704,1,8,0:3:0:0:
190,59,36876,1,12,0:3:0:0:
100,318,37047,1,4,0:1:0:0:
100,318,37390,5,10,0:1:0:0:
39,264,37561,2,0,P|31:227|39:194,1,66.0000025177003,2|8,0:0|0:0,0:0:0:0:
36,199,38076,1,10,0:1:0:0:
108,234,38247,1,8,0:1:0:0:
124,230,38333,1,8,0:1:0:0:
140,225,38419,1,10,0:1:0:0:
254,154,38761,5,10,0:1:0:0:
318,204,38933,2,0,P|353:200|384:182,1,66.0000025177003,2|8,0:0|0:0,0:0:0:0:
418,115,39447,1,10,0:1:0:0:
489,168,39619,1,0,0:0:0:0:
344,89,39790,6,0,P|331:52|404:8,1,132.000005035401,10|8,0:1|0:1,0:0:0:0:
301,53,40304,2,0,P|259:69|162:51,1,132.000005035401,2|0,0:0|0:0,0:0:0:0:
82,15,40819,2,0,L|112:165,1,132.000005035401,10|10,0:1|0:1,0:0:0:0:
174,57,41333,1,0,0:0:0:0:
27,117,41504,2,0,P|3:84|1:50,1,66.0000025177003,8|0,0:1|0:0,0:0:0:0:
88,169,41847,2,0,P|64:202|32:214,1,66.0000025177003,10|0,0:0|0:0,0:0:0:0:
173,173,42190,2,0,P|196:206|199:240,1,66.0000025177003,10|0,0:1|0:0,0:0:0:0:
82,345,42533,6,0,B|59:315|59:315|97:275|174:298,1,132.000005035401,4|8,0:1|0:1,0:0:0:0:
225,304,43047,1,0,0:0:0:0:
164,352,43219,2,0,P|145:316|150:281,1,66.0000025177003,10|0,0:0|0:0,0:0:0:0:
270,372,43561,1,8,0:1:0:0:
320,239,43733,5,8,0:1:0:0:
327,223,43819,1,8,0:1:0:0:
333,208,43904,1,10,0:1:0:0:
380,288,44076,1,8,0:1:0:0:
261,168,44247,2,0,P|225:156|190:154,1,66.0000025177003,8|8,0:1|0:1,0:0:0:0:
130,180,44504,1,8,0:1:0:0:
134,184,44590,1,8,0:0:0:0:
245,88,44761,1,8,0:3:0:0:
205,246,44933,1,4,0:3:0:0:
77,109,45104,1,12,0:3:0:0:
314,34,45276,5,4,0:0:0:0:
314,34,45619,1,8,0:0:0:0:
366,119,45790,1,8,0:0:0:0:
412,38,45961,1,8,0:0:0:0:
366,119,46133,1,8,0:0:0:0:
411,202,46304,5,8,0:0:0:0:
314,34,46476,1,8,0:0:0:0:
474,109,46647,1,8,0:0:0:0:
272,126,46819,5,8,0:0:0:0:
412,38,46990,1,8,0:0:0:0:
411,202,47161,1,8,0:0:0:0:
225,39,47333,5,8,0:0:0:0:
411,202,47504,1,8,0:0:0:0:
146,328,47676,2,0,P|119:288|126:232,1,105.599996777344,8|8,0:0|0:0,0:0:0:0:
205,126,48019,5,8,0:0:0:0:
241,327,48190,1,8,0:0:0:0:
288,114,48361,1,8,0:0:0:0:
325,315,48532,1,8,0:0:0:0:
195,96,48704,5,8,0:0:0:0:
235,311,48875,1,8,0:0:0:0:
278,84,49046,1,8,0:0:0:0:
318,293,49219,1,8,0:0:0:0:
168,19,49390,5,8,0:0:0:0:
229,299,49561,1,8,0:0:0:0:
262,14,49733,5,8,0:0:0:0:
311,275,49904,1,8,0:0:0:0:
452,39,50076,5,8,0:0:0:0:
474,51,50161,1,8,0:1:0:0:
488,74,50247,1,8,0:1:0:0:
489,99,50333,1,8,0:1:0:0:
478,123,50418,1,8,0:0:0:0:
463,100,50504,1,8,0:1:0:0:
460,74,50590,1,8,0:1:0:0:
471,50,50676,1,8,0:1:0:0:
495,41,50761,6,0,P|512:104|475:193,1,158.399995166016,6|0,0:1|0:0,0:0:0:0:
422,241,51104,2,8,P|371:229|319:225,1,105.599996777344,10|8,0:0|0:1,0:1:0:0:
113,288,51447,1,10,0:0:0:0:
287,150,51619,1,8,0:1:0:0:
263,346,51790,1,8,0:0:0:0:
163,136,51961,1,8,0:1:0:0:
91,175,52133,6,8,P|39:175|0:142,1,105.599996777344,10|8,0:0|0:1,0:0:0:0:
181,37,52476,1,8,0:0:0:0:
248,256,52647,1,0,0:0:0:0:
512,102,52819,2,8,P|438:32|341:58,1,211.199993554688,10|10,0:0|0:0,0:0:0:0:
373,185,53333,1,8,0:1:0:0:
239,98,53504,5,10,0:0:0:0:
239,98,53676,1,8,0:1:0:0:
322,294,53847,1,8,0:0:0:0:
451,143,54019,1,8,0:1:0:0:
505,268,54190,2,8,P|453:256|401:250,1,105.599996777344,10|8,0:0|0:1,0:0:0:0:
187,329,54533,5,8,0:0:0:0:
305,181,54704,1,8,0:1:0:0:
168,339,54876,2,8,P|116:327|64:321,1,105.599996777344,10|8,0:0|0:1,0:0:0:0:
367,380,55219,2,8,P|418:368|470:362,1,105.599996777344,14|8,0:0|0:1,0:0:0:0:
197,229,55561,2,8,P|145:217|93:211,1,105.599996777344,10|8,0:0|0:1,0:0:0:0:
19,236,55819,1,8,0:0:0:0:
19,236,55904,1,10,0:0:0:0:
103,58,56076,1,8,0:0:0:0:
291,127,56247,6,0,P|342:131|388:106,1,105.599996777344,6|0,0:1|0:0,0:0:0:0:
221,38,56590,1,8,0:0:0:0:
290,228,56761,1,8,0:1:0:0:
221,38,56933,5,10,0:0:0:0:
446,66,57104,1,8,0:1:0:0:
446,66,57276,1,8,0:0:0:0:
221,38,57447,1,8,0:1:0:0:
290,228,57619,5,10,0:0:0:0:
337,9,57790,1,8,0:1:0:0:
196,157,57961,1,10,0:0:0:0:
319,107,58133,1,8,0:1:0:0:
165,296,58304,6,8,P|67:315|2:238,1,211.199993554688,10|8,0:0|0:0,0:0:0:0:
227,358,58819,1,8,0:1:0:0:
303,316,58990,2,8,P|351:299|402:310,1,105.599996777344,10|8,0:0|0:1,0:0:0:0:
261,222,59333,1,14,0:0:0:0:
361,375,59504,1,8,0:1:0:0:
469,208,59676,6,0,L|366:184,1,105.599996777344,4|0,0:0|0:0,0:0:0:0:
361,203,59933,6,0,L|464:227,1,105.599996777344,4|0,0:0|0:0,0:0:0:0:
459,247,60190,5,4,0:0:0:0:
401,94,60361,6,0,B|410:23|482:4|482:4|520:37|496:94,1,211.199993554688,6|8,0:1|0:0,0:0:0:0:
370,166,60876,1,0,0:0:0:0:
249,68,61047,1,8,0:0:0:0:
226,35,61132,1,8,0:0:0:0:
192,15,61218,1,8,0:0:0:0:
153,11,61304,1,8,0:0:0:0:
117,28,61389,1,8,0:0:0:0:
102,36,61476,1,8,0:3:0:0:
87,35,61561,1,8,0:3:0:0:
73,26,61647,1,12,0:3:0:0:
65,13,61733,6,0,L|46:187,2,176,4|8|8,0:1|0:0|0:1,0:0:0:0:
142,155,62590,1,8,0:1:0:0:
142,155,62761,1,10,0:0:0:0:
39,103,62933,1,0,0:0:0:0:
121,253,63104,1,10,0:1:0:0:
239,128,63276,1,8,0:1:0:0:
142,155,63447,1,10,0:0:0:0:
252,261,63619,6,0,B|345:289|329:217|422:254,1,176,2|8,0:0|0:1,0:0:0:0:
499,279,64047,1,8,0:1:0:0:
499,279,64133,1,8,0:0:0:0:
358,166,64304,1,8,0:0:0:0:
367,351,64476,5,6,0:1:0:0:
463,169,64647,1,8,0:1:0:0:
367,351,64819,1,8,0:1:0:0:
270,137,64990,6,0,L|240:48,1,88,6|8,0:0|0:1,0:0:0:0:
342,86,65333,1,8,0:1:0:0:
184,213,65504,6,1,B|105:182|38:219|38:219|22:154|70:116,1,264,6|0,2:1|0:0,0:0:0:0:
216,282,66190,2,0,P|212:338|184:363,1,88,12|0,0:0|0:0,0:0:0:0:
292,230,66533,1,10,0:1:0:0:
110,358,66704,1,8,0:0:0:0:
88,354,66789,1,8,0:0:0:0:
66,350,66875,1,8,0:3:0:0:
45,346,66961,1,4,0:3:0:0:
23,342,67047,2,0,P|14:306|26:276,1,44,12|12,0:3|0:3,0:0:0:0:
187,167,67219,5,4,0:1:0:0:
90,264,67390,1,10,0:1:0:0:
59,107,67561,1,2,0:0:0:0:
272,222,67733,6,0,P|315:232|354:213,1,88,12|8,0:0|0:1,0:0:0:0:
443,118,68076,1,10,0:1:0:0:
443,118,68247,1,10,0:1:0:0:
377,324,68419,6,0,L|354:211,1,88,12|0,0:0|0:0,0:0:0:0:
302,344,68761,1,8,0:1:0:0:
443,118,68933,2,0,P|466:166|451:215,1,88,12|0,0:0|0:0,0:0:0:0:
359,237,69276,1,8,0:1:0:0:
341,76,69447,1,8,0:0:0:0:
357,47,69532,1,8,0:0:0:0:
383,28,69618,1,8,0:0:0:0:
415,22,69704,1,8,0:1:0:0:
447,30,69789,1,8,0:3:0:0:
279,151,69961,6,0,L|185:134,1,88,4|10,0:1|0:1,0:0:0:0:
68,51,70304,1,10,0:1:0:0:
162,279,70476,2,0,P|170:233|145:192,1,88,12|8,0:0|0:1,0:0:0:0:
24,240,70819,1,10,0:1:0:0:
192,135,70990,1,10,0:1:0:0:
268,313,71161,6,0,P|324:377|408:372,1,176,12|8,0:0|0:1,0:0:0:0:
425,209,71676,2,0,P|390:234|382:277,1,88,8|0,0:0|0:0,0:0:0:0:
481,132,72019,1,8,0:0:0:0:
478,110,72104,1,8,0:1:0:0:
469,90,72190,1,8,0:1:0:0:
453,75,72276,1,8,0:1:0:0:
430,66,72361,1,8,0:0:0:0:
409,90,72446,1,8,0:1:0:0:
380,105,72532,1,8,0:1:0:0:
347,110,72618,1,8,0:1:0:0:
314,102,72703,5,12,0:2:0:0:
496,18,72876,1,10,0:1:0:0:
503,194,73047,1,10,0:1:0:0:
343,26,73219,6,0,P|301:10|258:10,1,88,12|8,0:0|0:1,0:0:0:0:
152,140,73561,1,10,0:1:0:0:
102,9,73733,1,10,0:1:0:0:
27,240,73904,6,0,P|110:226|209:222,1,176,12|8,0:0|0:1,0:0:0:0:
45,155,74419,2,0,P|20:117|30:68,1,88,12|2,0:0|0:0,0:0:0:0:
81,37,74676,1,2,0:0:0:0:
81,37,74761,1,8,0:1:0:0:
196,138,74933,1,8,0:0:0:0:
187,109,75018,1,8,0:0:0:0:
178,81,75104,1,8,0:3:0:0:
311,204,75276,6,0,P|356:123|447:138,1,197.12000240625,4|8,0:1|0:1,0:0:0:0:
450,233,75790,1,8,0:1:0:0:
497,77,75961,1,8,0:1:0:0:
450,233,76133,1,8,0:1:0:0:
376,47,76304,1,8,0:1:0:0:
450,233,76476,1,8,0:1:0:0:
273,97,76647,1,8,0:1:0:0:
450,233,76819,5,8,0:0:0:0:
226,187,76990,1,8,0:1:0:0:
277,6,77161,1,8,0:0:0:0:
484,46,77333,1,8,0:1:0:0:
283,286,77504,5,8,0:0:0:0:
368,25,77676,1,8,0:0:0:0:
393,335,77847,5,8,0:0:0:0:
198,62,78019,1,8,0:0:0:0:
256,192,78876,5,4,0:1:0:0:
256,192,78961,12,4,85047,0:3:0:0:
