osu file format v14

[General]
AudioFilename: mp3.mp3
AudioLeadIn: 0
PreviewTime: 188038
Countdown: 0
SampleSet: Normal
StackLeniency: 0.4
Mode: 0
LetterboxInBreaks: 0
WidescreenStoryboard: 1

[Editor]
Bookmarks: 18089,74275,84172,134894,144790,154687,164584,174481,197986,210357,219945,8144790
DistanceSpacing: 1.2
BeatDivisor: 4
GridSize: 32
TimelineZoom: 2.8

[Metadata]
Title:Super nuko ni naritai
TitleUnicode:すーぱーぬこになりたい
Artist:nayuta & yuikonnu
ArtistUnicode:nayuta&ゆいこんぬ
Creator:Pho
Version:pkk's Extra
Source:
Tags:meow まふまふ にゃん mafumafu nya まふてる mafuteru nyaa neko i want to become a super alacat nyan milan- nyan appleeaterx nyan pkk nyan nyan nyan nyan
BeatmapID:1360931
BeatmapSetID:494097

[Difficulty]
HPDrainRate:6
CircleSize:4
OverallDifficulty:7
ApproachRate:9.1
SliderMultiplier:2
SliderTickRate:1

[Events]
//Background and Video events
Video,0,"niboshi.avi"
0,0,"bg2.jpg",0,0
//Break Periods
2,135274,144191
//Storyboard Layer 0 (Background)
//Storyboard Layer 1 (Fail)
//Storyboard Layer 2 (Pass)
//Storyboard Layer 3 (Foreground)
//Storyboard Sound Samples

[TimingPoints]
1285.82544421139,309.278350515464,4,1,10,75,1,0
3141,-111.111111111111,4,1,10,60,0,0
3450,-111.111111111111,4,2,10,5,0,0
3760,-111.111111111111,4,2,15,70,0,0
13038,-111.111111111111,4,1,10,60,0,0
13657,-83.3333333333333,4,2,10,80,0,0
17755,-83.3333333333333,4,2,10,5,0,0
17832,-83.3333333333333,4,2,10,80,0,0
17909,-83.3333333333333,4,2,10,5,0,0
17987,-83.3333333333333,4,2,10,80,0,0
18296,-83.3333333333333,4,2,10,80,0,0
18373,-83.3333333333333,4,2,10,80,0,0
22316,-83.3333333333333,4,2,10,95,0,0
23090,-83.3333333333333,4,2,10,95,0,0
23554,-83.3333333333333,4,2,14,40,0,0
24327,-83.3333333333333,4,2,10,60,0,0
24481,-133.333333333333,4,2,10,60,0,0
24713,-133.333333333333,4,2,10,5,0,0
24791,-100,4,1,10,70,0,0
29430,-133.333333333333,4,2,10,80,0,0
29662,-133.333333333333,4,2,10,5,0,0
29739,-100,4,2,10,60,0,0
33450,-100,4,2,10,75,0,0
34688,-100,4,1,10,75,0,0
36698,-100,4,1,12,80,0,0
36853,-100,4,1,12,90,0,0
36930,-100,4,1,10,25,0,0
37007,-100,4,1,12,80,0,0
37084,-100,4,1,10,25,0,0
37162,-100,4,1,10,75,0,0
39327,-133.333333333333,4,2,10,75,0,0
39559,-133.333333333333,4,2,10,5,0,0
39636,-100,4,2,10,75,0,0
43347,-100,4,2,10,80,0,0
44584,-100,4,2,10,70,0,0
44816,-100,4,2,10,5,0,0
44894,-100,4,2,10,70,0,0
46054,-100,4,2,10,5,0,0
46131,-100,4,2,10,70,0,0
46440,-83.3333333333333,4,2,10,80,0,0
46595,-83.3333333333333,4,2,10,15,0,0
46749,-83.3333333333333,4,2,10,80,0,0
46904,-83.3333333333333,4,2,10,15,0,0
47059,-100,4,2,10,70,0,0
47291,-100,4,2,10,5,0,0
47368,-100,4,2,10,70,0,0
48450,-100,4,2,10,15,0,0
48605,-100,4,2,10,70,0,0
48760,-100,4,2,10,15,0,0
48914,-100,4,2,10,70,0,0
49069,-100,4,2,10,15,0,0
49224,-100,4,2,10,70,0,0
49378,-100,4,2,10,15,0,0
49533,-100,4,2,10,70,0,0
49765,-100,4,2,10,5,0,0
49842,-100,4,2,10,70,0,0
51002,-100,4,2,10,5,0,0
51079,-100,4,2,10,70,0,0
51389,-83.3333333333333,4,2,10,80,0,0
51543,-83.3333333333333,4,2,10,15,0,0
51698,-83.3333333333333,4,2,10,80,0,0
51853,-83.3333333333333,4,2,10,15,0,0
52007,-125,4,2,10,70,0,0
54017,-125,4,2,14,75,0,0
54481,-83.3333333333333,4,1,10,90,0,1
58656,-83.3333333333333,4,1,13,100,0,1
58733,-83.3333333333333,4,1,13,15,0,1
58810,-83.3333333333333,4,1,13,100,0,1
58888,-83.3333333333333,4,1,13,15,0,1
58965,-83.3333333333333,4,1,13,100,0,1
59042,-83.3333333333333,4,1,13,85,0,1
59120,-83.3333333333333,4,1,10,90,0,1
64223,-83.3333333333333,4,1,10,90,0,0
64378,-83.3333333333333,4,1,10,90,0,1
64533,-83.3333333333333,4,1,10,5,0,1
64687,-83.3333333333333,4,1,10,90,0,1
64842,-83.3333333333333,4,1,10,5,0,1
64997,-83.3333333333333,4,1,10,90,0,1
65151,-83.3333333333333,4,1,10,45,0,1
65306,-83.3333333333333,4,1,10,90,0,1
65461,-83.3333333333333,4,1,10,45,0,1
65615,-83.3333333333333,4,1,10,90,0,1
65770,-83.3333333333333,4,1,10,5,0,1
65925,-83.3333333333333,4,1,10,90,0,1
66079,-83.3333333333333,4,1,10,5,0,1
66234,-83.3333333333333,4,1,10,90,0,1
66388,-83.3333333333333,4,1,10,5,0,1
66543,-83.3333333333333,4,1,10,90,0,1
67703,-83.3333333333333,4,1,10,5,0,1
67780,-83.3333333333333,4,1,10,90,0,1
68476,-83.3333333333333,4,1,10,5,0,1
68553,-83.3333333333333,4,1,10,90,0,1
69327,-125,4,1,10,80,0,1
71337,-125,4,2,10,80,0,1
71801,-125,4,1,10,80,0,1
74275,-83.3333333333333,4,2,10,80,0,0
78372,-83.3333333333333,4,2,10,5,0,0
78449,-83.3333333333333,4,2,10,80,0,0
78527,-83.3333333333333,4,2,10,5,0,0
78604,-83.3333333333333,4,2,10,80,0,0
82934,-83.3333333333333,4,2,10,95,0,0
84171,-83.3333333333333,4,2,10,60,0,0
84480,-83.3333333333333,4,2,10,70,0,0
84790,-83.3333333333333,4,2,15,70,0,0
85099,-83.3333333333333,4,1,10,40,0,0
85408,-100,4,1,10,70,0,0
90047,-133.333333333333,4,2,10,60,0,0
90279,-133.333333333333,4,2,10,5,0,0
90357,-100,4,2,10,60,0,0
94068,-100,4,2,10,75,0,0
95305,-100,4,1,10,75,0,0
97315,-100,4,1,12,75,0,0
97779,-100,4,1,10,75,0,0
99944,-133.333333333333,4,2,10,75,0,0
100176,-133.333333333333,4,2,10,5,0,0
100254,-100,4,2,10,70,0,0
105434,-100,4,2,10,5,0,0
105511,-100,4,2,10,70,0,0
106671,-100,4,2,10,5,0,0
106748,-100,4,2,10,70,0,0
107058,-83.3333333333333,4,2,10,95,0,0
107212,-83.3333333333333,4,2,10,15,0,0
107367,-83.3333333333333,4,2,10,95,0,0
107522,-83.3333333333333,4,2,10,15,0,0
107676,-100,4,2,10,70,0,0
107908,-100,4,2,10,5,0,0
107986,-100,4,2,10,70,0,0
109068,-100,4,2,10,15,0,0
109223,-100,4,2,10,70,0,0
109377,-100,4,2,10,15,0,0
109532,-100,4,2,10,70,0,0
109687,-100,4,2,10,15,0,0
109841,-100,4,2,10,70,0,0
109996,-100,4,2,10,15,0,0
110150,-100,4,2,10,70,0,0
110382,-100,4,2,10,5,0,0
110460,-100,4,2,10,70,0,0
111620,-100,4,2,10,5,0,0
111697,-100,4,2,10,70,0,0
112006,-83.3333333333333,4,2,10,95,0,0
112161,-83.3333333333333,4,2,10,15,0,0
112315,-83.3333333333333,4,2,10,95,0,0
112470,-83.3333333333333,4,2,10,15,0,0
112625,-125,4,2,10,70,0,0
114635,-125,4,2,14,75,0,0
115100,-83.3333333333333,4,1,10,90,0,1
119274,-83.3333333333333,4,1,13,100,0,1
119352,-83.3333333333333,4,1,13,15,0,1
119429,-83.3333333333333,4,1,13,100,0,1
119506,-83.3333333333333,4,1,13,15,0,1
119583,-83.3333333333333,4,1,13,100,0,1
119661,-83.3333333333333,4,1,13,85,0,1
119738,-83.3333333333333,4,1,10,90,0,1
124842,-83.3333333333333,4,1,10,90,0,0
124997,-83.3333333333333,4,1,10,90,0,1
125150,-83.3333333333333,4,1,10,5,0,1
125305,-83.3333333333333,4,1,10,90,0,1
125460,-83.3333333333333,4,1,10,5,0,1
125614,-83.3333333333333,4,1,10,90,0,1
125769,-83.3333333333333,4,1,10,45,0,1
125924,-83.3333333333333,4,1,10,90,0,1
126078,-83.3333333333333,4,1,10,45,0,1
126233,-83.3333333333333,4,1,10,90,0,1
126388,-83.3333333333333,4,1,10,5,0,1
126542,-83.3333333333333,4,1,10,90,0,1
126697,-83.3333333333333,4,1,10,5,0,1
126852,-83.3333333333333,4,1,10,90,0,1
127006,-83.3333333333333,4,1,10,5,0,1
127161,-83.3333333333333,4,1,10,90,0,1
128321,-83.3333333333333,4,1,10,5,0,1
128398,-83.3333333333333,4,1,10,90,0,1
129094,-83.3333333333333,4,1,10,5,0,1
129171,-83.3333333333333,4,1,10,90,0,1
129944,-125,4,1,10,80,0,1
131955,-125,4,2,10,80,0,1
132419,-125,4,1,10,80,0,1
134894,-100,4,2,10,60,0,0
144790,-125,4,2,10,60,0,0
162728,-125,4,2,10,70,0,0
163037,-125,4,2,10,90,0,0
163346,-100,4,2,10,70,0,0
163965,-100,4,2,10,80,0,0
164274,-100,4,2,10,90,0,0
164583,-83.3333333333333,4,1,10,95,0,0
179197,-83.3333333333333,4,1,10,5,0,0
179274,-83.3333333333333,4,1,10,95,0,0
179352,-83.3333333333333,4,1,10,5,0,0
179429,-83.3333333333333,4,2,10,75,0,0
180047,-83.3333333333333,4,2,10,80,0,0
180666,-83.3333333333333,4,2,10,85,0,0
181285,-83.3333333333333,4,2,10,90,0,0
181903,-125,4,2,10,75,0,0
187470,-100,4,1,10,55,0,0
188089,-83.3333333333333,4,2,10,90,0,1
192264,-83.3333333333333,4,1,13,100,0,1
192341,-83.3333333333333,4,1,13,15,0,1
192419,-83.3333333333333,4,1,13,100,0,1
192496,-83.3333333333333,4,1,13,15,0,1
192573,-83.3333333333333,4,1,13,100,0,1
192650,-83.3333333333333,4,1,13,85,0,1
192728,-83.3333333333333,4,1,10,90,0,1
197832,-83.3333333333333,4,1,10,90,0,0
197986,-83.3333333333333,4,1,10,90,0,1
201310,-83.3333333333333,4,1,10,5,0,1
201388,-83.3333333333333,4,1,10,90,0,1
202083,-83.3333333333333,4,1,10,5,0,1
202161,-83.3333333333333,4,1,10,90,0,1
202934,-125,4,1,10,80,0,1
207728,-125,4,1,10,60,0,1
207882,-125,4,1,10,80,0,1
208965,-125,4,1,10,85,0,1
209738,-100,4,1,10,80,0,1
210047,-100,4,1,10,5,0,1
210202,-100,4,1,10,40,0,1
210357,-83.3333333333333,4,2,10,80,0,0
214455,-83.3333333333333,4,2,10,5,0,0
214532,-83.3333333333333,4,2,10,80,0,0
214609,-83.3333333333333,4,2,10,5,0,0
214687,-83.3333333333333,4,2,10,80,0,0
214996,-83.3333333333333,4,2,10,50,0,0
215073,-83.3333333333333,4,2,10,80,0,0
219016,-83.3333333333333,4,2,10,95,0,0
219945,-83.3333333333333,4,1,42,85,0,0

[Colours]
Combo1 : 208,222,253
Combo2 : 241,88,126
Combo3 : 157,250,131
Combo4 : 249,242,125

[HitObjects]
313,97,1285,5,0,0:0:0:0:
95,145,1595,5,0,0:0:0:0:
375,188,1749,1,0,0:0:0:0:
44,223,2059,5,0,0:0:0:0:
428,272,2368,5,0,0:0:0:0:
95,145,2677,5,0,0:0:0:0:
479,183,2987,5,0,0:0:0:0:
285,106,3141,2,0,B|252:93|233:48|233:48|248:115|213:142,1,179.999994506836
212,142,3760,6,0,P|202:186|196:231,1,89.9999972534181,0|0,3:0|0:0,0:0:0:0:
193,331,3992,1,0,0:0:0:0:
193,331,4069,1,0,3:0:0:0:
321,240,4224,2,0,P|324:284|326:302,1,44.999998626709,0|0,0:0|0:0,0:0:0:0:
401,342,4378,5,0,3:0:0:0:
413,317,4456,1,0,0:0:0:0:
433,299,4533,1,0,0:0:0:0:
458,288,4610,1,0,0:0:0:0:
485,287,4688,2,0,P|499:231|503:162,1,89.9999972534181,0|0,3:0|0:0,0:0:0:0:
425,72,4997,6,0,L|323:58,1,89.9999972534181,0|0,3:0|0:0,0:0:0:0:
238,70,5229,1,0,0:0:0:0:
238,70,5306,2,0,P|237:113|242:167,1,89.9999972534181,0|0,3:0|0:0,0:0:0:0:
174,287,5615,1,0,3:0:0:0:
26,176,5770,1,0,0:0:0:0:
26,176,5847,1,0,0:0:0:0:
26,176,5925,2,0,L|123:182,1,89.9999972534181,0|0,3:0|0:0,0:0:0:0:
315,228,6234,5,0,3:0:0:0:
289,232,6311,1,0,0:0:0:0:
262,237,6389,1,0,0:0:0:0:
235,241,6466,1,0,0:0:0:0:
208,244,6543,2,0,P|219:167|230:123,1,89.9999972534181,0|0,3:0|0:0,0:0:0:0:
256,73,6775,1,0,0:0:0:0:
256,73,6853,5,0,3:0:0:0:
149,23,7007,1,0,0:0:0:0:
367,55,7162,1,0,3:0:0:0:
370,82,7239,1,0,0:0:0:0:
373,109,7316,1,0,0:0:0:0:
376,136,7394,1,0,0:0:0:0:
379,163,7471,6,0,L|391:272,1,89.9999972534181,0|0,3:0|0:0,0:0:0:0:
232,363,7780,2,0,L|226:308,1,44.999998626709,0|0,3:0|0:0,0:0:0:0:
166,232,7935,1,0,0:0:0:0:
166,232,8012,1,0,0:0:0:0:
166,232,8090,6,0,L|280:221,1,89.9999972534181,0|0,3:0|0:0,0:0:0:0:
375,84,8399,2,0,L|366:128,3,44.999998626709,2|0|0|0,3:2|0:0|0:0|0:0,0:0:0:0:
426,194,8708,5,0,3:0:0:0:
435,219,8786,1,0,0:0:0:0:
445,249,8863,2,0,P|451:275|454:295,1,44.999998626709
324,346,9017,1,0,3:0:0:0:
328,320,9095,1,0,0:0:0:0:
333,288,9172,2,0,P|339:262|346:243,1,44.999998626709
226,132,9327,5,0,3:0:0:0:
233,158,9404,1,0,0:0:0:0:
237,185,9481,1,0,0:0:0:0:
238,212,9559,1,0,0:0:0:0:
234,239,9636,2,0,P|228:289|214:342,1,89.9999972534181,0|0,3:0|0:0,0:0:0:0:
129,358,9868,1,0,0:0:0:0:
129,358,9945,6,0,L|85:345,2,44.999998626709,0|0|0,3:0|0:0|0:0,0:0:0:0:
128,236,10255,2,0,L|89:139,1,89.9999972534181,0|0,3:0|0:0,0:0:0:0:
63,71,10487,1,0,0:0:0:0:
63,71,10564,1,0,3:0:0:0:
179,24,10718,2,0,P|206:32|229:43,1,44.999998626709,0|0,0:0|0:0,0:0:0:0:
283,122,10873,6,0,L|269:224,1,89.9999972534181,0|0,3:0|0:0,0:0:0:0:
264,301,11105,1,0,0:0:0:0:
264,301,11182,1,0,3:0:0:0:
406,208,11337,1,0,0:0:0:0:
406,208,11414,1,0,0:0:0:0:
406,208,11492,5,0,3:0:0:0:
174,251,11646,1,0,3:0:0:0:
283,122,11801,1,0,3:0:0:0:
253,325,11956,1,0,3:0:0:0:
26,221,12110,1,0,3:0:0:0:
49,193,12188,1,0,3:0:0:0:
80,174,12265,1,0,3:0:0:0:
115,167,12342,1,0,3:0:0:0:
151,172,12420,5,0,3:0:0:0:
180,193,12497,1,0,0:0:0:0:
215,202,12574,1,0,0:0:0:0:
250,200,12651,1,0,0:0:0:0:
284,186,12729,2,0,P|302:163|250:53,1,134.999995880127,0|0,0:0|0:0,0:0:0:0:
211,112,13038,5,8,0:0:0:0:
213,157,13115,1,8,3:0:0:0:
215,202,13193,1,0,3:0:0:0:
217,248,13270,1,0,3:0:0:0:
220,293,13347,1,8,0:0:0:0:
454,254,13502,5,2,2:0:0:0:
454,254,13579,1,2,2:0:0:0:
454,254,13657,2,0,P|398:225|339:232,1,119.999996337891,4|0,0:0|0:0,0:0:0:0:
282,293,13889,1,8,0:0:0:0:
277,304,13966,2,0,P|221:333|162:326,1,119.999996337891,2|8,3:2|0:0,0:0:0:0:
104,258,14198,1,0,0:0:0:0:
99,246,14275,2,0,P|89:217|89:187,1,59.9999981689454,2|0,3:2|0:0,0:0:0:0:
147,93,14430,2,0,P|175:83|205:83,1,59.9999981689454,8|0,0:0|0:0,0:0:0:0:
296,147,14584,1,2,3:2:0:0:
459,65,14739,1,8,0:0:0:0:
459,65,14816,1,0,0:0:0:0:
459,65,14894,6,0,P|446:136|438:198,1,119.999996337891,2|8,3:2|0:0,0:0:0:0:
382,243,15126,1,0,0:0:0:0:
377,259,15203,2,0,P|351:202|308:133,1,119.999996337891,2|8,3:2|0:0,0:0:0:0:
236,105,15435,1,0,0:0:0:0:
228,114,15512,2,0,P|203:155|195:177,1,59.9999981689454,2|0,3:2|0:0,0:0:0:0:
174,255,15667,2,0,P|171:284|174:314,1,59.9999981689454,8|0,0:0|0:0,0:0:0:0:
236,381,15822,1,2,3:2:0:0:
81,278,15976,1,8,0:0:0:0:
81,278,16054,1,0,0:0:0:0:
81,278,16131,6,0,P|69:220|72:152,1,119.999996337891,2|8,3:2|0:0,0:0:0:0:
122,75,16363,1,0,0:0:0:0:
126,82,16440,2,0,P|176:104|251:100,1,119.999996337891,2|8,3:2|0:0,0:0:0:0:
334,42,16672,1,0,0:0:0:0:
347,53,16749,2,0,P|363:77|373:106,1,59.9999981689454,2|0,3:2|0:0,0:0:0:0:
369,195,16904,2,0,P|344:211|315:221,1,59.9999981689454,8|0,0:0|0:0,0:0:0:0:
225,205,17059,1,2,3:2:0:0:
194,223,17136,1,0,0:0:0:0:
175,253,17213,1,8,0:0:0:0:
171,288,17291,1,0,0:0:0:0:
183,322,17368,5,4,3:2:0:0:
74,241,17523,1,8,0:0:0:0:
262,283,17677,2,0,L|328:299,1,59.9999981689454,4|0,3:2|0:0,0:0:0:0:
465,210,17832,2,0,L|399:194,1,59.9999981689454,8|0,0:0|0:0,0:0:0:0:
348,66,17987,1,4,3:2:0:0:
348,66,18296,5,8,0:0:0:0:
306,68,18373,1,0,1:0:0:0:
264,70,18450,1,0,1:0:0:0:
222,72,18528,1,0,1:0:0:0:
180,74,18605,6,0,P|115:87|57:110,1,119.999996337891,4|0,3:1|0:0,0:0:0:0:
5,170,18837,1,8,0:0:0:0:
12,177,18914,2,0,P|62:224|101:271,1,119.999996337891,2|8,3:2|0:0,0:0:0:0:
123,337,19146,1,0,0:0:0:0:
125,346,19224,2,0,P|161:329|191:319,1,59.9999981689454,2|0,3:2|0:0,0:0:0:0:
279,321,19378,2,0,P|307:331|333:344,1,59.9999981689454,8|0,0:0|0:0,0:0:0:0:
427,301,19533,1,2,3:2:0:0:
346,159,19688,1,8,0:0:0:0:
346,159,19765,1,0,0:0:0:0:
345,159,19842,6,0,P|306:203|249:217,1,119.999996337891,2|8,3:2|0:0,0:0:0:0:
239,306,20074,1,0,0:0:0:0:
233,310,20151,2,0,P|174:302|130:262,1,119.999996337891,2|8,3:2|0:0,0:0:0:0:
42,291,20383,1,0,0:0:0:0:
38,286,20461,2,0,P|36:256|41:226,1,59.9999981689454,2|0,3:2|0:0,0:0:0:0:
0,142,20615,2,0,P|47:115|69:112,1,59.9999981689454,8|0,0:0|0:0,0:0:0:0:
149,138,20770,1,2,3:2:0:0:
106,18,20925,1,8,0:0:0:0:
106,18,21002,1,0,0:0:0:0:
106,18,21079,6,0,P|166:24|227:33,1,119.999996337891,2|8,3:2|0:0,0:0:0:0:
324,17,21311,1,0,0:0:0:0:
325,23,21389,2,0,P|337:81|358:137,1,119.999996337891,2|8,3:2|0:0,0:0:0:0:
445,181,21621,1,0,0:0:0:0:
446,188,21698,2,0,P|433:215|416:239,1,59.9999981689454,2|0,3:2|0:0,0:0:0:0:
320,240,21853,2,0,P|332:267|349:291,1,59.9999981689454,8|0,0:0|0:0,0:0:0:0:
456,343,22007,1,2,3:2:0:0:
415,367,22084,1,0,0:0:0:0:
368,380,22162,1,8,0:0:0:0:
320,378,22239,1,0,0:0:0:0:
275,364,22316,5,4,3:2:0:0:
223,201,22471,1,8,0:0:0:0:
349,291,22626,1,4,3:2:0:0:
152,336,22780,1,8,0:0:0:0:
250,124,22935,1,4,3:2:0:0:
250,124,23554,6,0,L|173:115,3,59.9999981689454,2|2|2|2,3:2|3:2|3:2|3:2,0:0:0:0:
312,214,23863,2,0,L|371:207,3,59.9999981689454,2|2|2|2,3:2|3:2|3:2|3:2,0:0:0:0:
234,281,24172,1,2,3:2:0:0:
363,134,24327,1,2,3:2:0:0:
363,134,24404,1,0,3:0:0:0:
363,134,24481,6,0,L|234:122,1,112.500004291535,8|0,0:0|0:0,0:0:0:0:
222,95,24791,6,0,P|230:146|232:201,1,100,4|0,3:2|0:0,0:0:0:0:
197,274,25023,1,8,0:0:0:0:
197,274,25100,2,0,P|269:270|317:267,1,100,0|8,3:0|0:0,0:0:0:0:
118,153,25409,1,0,3:0:0:0:
216,46,25564,1,8,0:0:0:0:
216,46,25641,1,0,0:0:0:0:
216,46,25718,1,0,3:0:0:0:
44,80,25873,1,8,0:0:0:0:
200,209,26028,5,0,3:0:0:0:
282,116,26182,1,8,0:0:0:0:
338,300,26337,2,0,P|340:250|346:200,1,100,0|8,3:0|0:0,0:0:0:0:
232,21,26646,1,0,3:0:0:0:
232,21,27265,6,0,P|170:31|128:41,1,100,0|0,3:0|0:0,0:0:0:0:
47,39,27497,1,8,0:0:0:0:
47,39,27574,2,0,L|68:146,1,100,0|8,3:0|0:0,0:0:0:0:
187,140,27883,1,0,3:0:0:0:
256,256,28038,1,8,0:0:0:0:
260,231,28115,1,0,0:0:0:0:
265,206,28193,1,0,3:0:0:0:
286,89,28347,1,8,0:0:0:0:
373,168,28502,5,0,3:0:0:0:
174,231,28657,1,8,0:0:0:0:
343,286,28811,2,0,L|446:280,1,100,0|8,3:0|0:0,0:0:0:0:
186,152,29121,1,0,3:0:0:0:
186,152,29430,6,0,L|181:264,1,112.500004291535,4|0,3:0|0:0,0:0:0:0:
211,199,29739,6,0,P|262:193|310:191,1,100,4|0,3:2|0:0,0:0:0:0:
401,186,29971,1,2,0:1:0:0:
405,200,30048,2,0,L|386:308,1,100,0|2,3:0|0:1,0:0:0:0:
133,91,30358,2,0,P|184:85|232:83,1,100,0|0,3:0|0:0,0:0:0:0:
323,78,30590,1,2,0:1:0:0:
327,92,30667,2,0,L|308:200,1,100,0|2,3:0|0:1,0:0:0:0:
2,205,30976,6,0,P|53:199|101:197,1,100,0|0,3:0|0:0,0:0:0:0:
192,192,31208,1,0,0:0:0:0:
196,206,31286,2,0,L|177:314,1,100,0|2,3:0|0:1,0:0:0:0:
232,82,31595,2,0,P|283:76|331:74,1,100,0|0,3:0|0:0,0:0:0:0:
422,69,31827,1,2,0:1:0:0:
426,83,31904,2,0,L|407:191,1,100,0|2,3:0|0:1,0:0:0:0:
420,324,32213,6,0,P|354:305|315:300,1,100,0|0,3:0|0:0,0:0:0:0:
233,289,32445,1,2,0:1:0:0:
219,291,32523,2,0,P|169:299|122:314,1,100,0|2,3:0|0:1,0:0:0:0:
28,112,32832,2,0,P|73:135|120:151,1,100,0|0,3:0|0:0,0:0:0:0:
204,159,33064,1,2,0:1:0:0:
216,157,33141,2,0,P|265:148|312:133,1,100,0|2,3:0|0:1,0:0:0:0:
434,77,33450,5,2,3:0:0:0:
302,32,33605,1,0,0:0:0:0:
388,186,33760,2,0,P|397:251|397:340,1,150,0|8,3:0|1:0,0:0:0:0:
317,355,34069,5,0,3:0:0:0:
287,357,34146,1,0,1:0:0:0:
257,359,34224,1,0,1:0:0:0:
226,243,34378,1,0,3:0:0:0:
183,257,34456,1,0,0:0:0:0:
139,267,34533,1,8,0:0:0:0:
94,273,34610,1,0,0:0:0:0:
49,279,34688,6,0,P|69:191|75:168,1,100,4|0,3:2|0:0,0:0:0:0:
92,90,34920,1,8,0:0:0:0:
92,90,34997,1,0,3:0:0:0:
226,243,35151,1,8,0:0:0:0:
385,38,35306,2,0,P|336:48|287:60,1,100,0|8,3:0|0:0,0:0:0:0:
202,96,35538,1,0,0:0:0:0:
202,96,35615,1,0,3:0:0:0:
273,227,35770,1,8,0:0:0:0:
445,258,35925,5,0,3:0:0:0:
255,210,36079,1,8,0:0:0:0:
412,164,36234,1,0,3:0:0:0:
314,350,36389,1,8,0:0:0:0:
111,271,36543,5,2,3:2:0:0:
111,271,36621,1,0,2:0:0:0:
111,271,36698,2,0,L|179:255,1,50,2|0,0:2|0:0,0:0:0:0:
283,181,36853,2,0,L|215:197,1,50,2|2,0:2|2:0,0:0:0:0:
111,146,37007,2,0,L|179:130,1,50,0|2,0:0|2:0,0:0:0:0:
363,135,37162,6,0,B|376:184|376:184|356:254,1,100,4|0,3:1|0:0,0:0:0:0:
321,314,37394,1,8,0:0:0:0:
321,314,37471,2,0,L|434:303,1,100,0|8,3:0|0:0,0:0:0:0:
283,181,37780,2,0,L|170:170,1,100,0|8,3:0|0:0,0:0:0:0:
94,160,38012,1,0,0:0:0:0:
94,160,38090,1,0,3:0:0:0:
198,56,38244,1,8,0:0:0:0:
32,239,38399,5,0,3:0:0:0:
106,48,38554,1,8,0:0:0:0:
106,48,38631,1,0,0:0:0:0:
106,48,38708,1,0,3:0:0:0:
173,203,38863,1,8,0:0:0:0:
355,90,39017,1,0,3:0:0:0:
355,90,39327,6,0,P|345:155|336:227,1,112.500004291535,2|0,3:2|0:0,0:0:0:0:
325,277,39636,5,4,3:2:0:0:
175,194,39791,1,0,0:0:0:0:
175,194,39868,1,0,0:0:0:0:
175,194,39945,2,0,L|72:183,1,100,0|2,3:0|0:1,0:0:0:0:
201,311,40255,2,0,L|304:300,1,100,2|0,3:2|0:0,0:0:0:0:
434,235,40564,1,0,3:0:0:0:
402,357,40718,1,2,0:1:0:0:
302,201,40873,6,0,P|315:151|334:103,1,100,2|0,3:2|0:0,0:0:0:0:
377,30,41105,1,0,0:0:0:0:
377,30,41182,2,0,L|254:12,1,100,0|2,3:0|0:1,0:0:0:0:
119,125,41492,2,0,L|242:107,1,100,2|0,3:2|0:0,0:0:0:0:
466,170,41801,1,2,3:2:0:0:
290,206,41956,1,2,0:1:0:0:
377,30,42110,6,0,P|384:96|386:155,1,100,2|0,3:2|0:0,0:0:0:0:
380,224,42342,1,2,0:1:0:0:
380,224,42420,1,0,3:0:0:0:
271,314,42574,1,2,0:1:0:0:
161,192,42729,2,0,P|155:142|153:92,1,100,2|0,3:2|0:0,0:0:0:0:
280,228,43038,2,0,P|277:178|271:128,1,100,2|0,3:2|0:0,0:0:0:0:
390,283,43347,5,4,3:2:0:0:
220,333,43502,1,2,0:0:0:0:
352,153,43657,1,4,3:2:0:0:
471,251,43811,1,2,0:0:0:0:
272,212,43966,5,4,3:2:0:0:
261,178,44043,1,0,1:0:0:0:
251,145,44121,1,2,1:2:0:0:
243,110,44198,1,0,0:0:0:0:
237,76,44275,1,4,3:2:0:0:
122,221,44430,1,10,1:2:0:0:
122,221,44507,1,8,1:0:0:0:
122,221,44584,6,0,P|207:212|292:212,1,150,4|0,3:1|0:0,0:0:0:0:
371,217,44894,2,0,P|321:212|271:210,1,100,0|0,3:0|0:0,0:0:0:0:
126,225,45203,1,0,3:0:0:0:
326,107,45358,1,0,0:0:0:0:
326,107,45512,2,0,P|262:100|221:98,1,100,0|0,3:0|0:0,0:0:0:0:
102,243,45822,6,0,P|187:234|272:234,1,150,0|0,3:0|0:0,0:0:0:0:
351,239,46131,2,0,P|301:234|251:232,1,100,0|0,3:0|0:0,0:0:0:0:
51,333,46440,6,0,P|121:340|175:340,1,119.999996337891,2|0,3:0|0:0,0:0:0:0:
436,137,46749,2,0,P|366:130|312:130,1,119.999996337891,2|0,3:0|0:0,0:0:0:0:
67,133,47059,6,0,P|152:124|237:124,1,150,0|0,3:0|0:0,0:0:0:0:
316,129,47368,2,0,P|266:124|216:122,1,100,0|0,3:0|0:0,0:0:0:0:
71,137,47677,1,0,3:0:0:0:
271,19,47832,1,0,0:0:0:0:
271,19,47987,2,0,P|207:12|166:10,1,100,0|0,3:0|0:0,0:0:0:0:
35,220,48296,6,0,P|99:227|140:229,1,100,2|0,3:2|0:0,0:0:0:0:
333,228,48605,2,0,P|269:235|228:237,1,100,2|0,3:0|0:0,0:0:0:0:
134,228,48914,2,0,P|198:235|239:237,1,100,2|0,3:2|0:0,0:0:0:0:
432,219,49224,2,0,P|368:226|327:228,1,100,2|0,3:0|0:0,0:0:0:0:
330,77,49533,6,0,P|333:154|332:229,1,150,0|0,3:0|0:0,0:0:0:0:
325,326,49842,2,0,P|331:264|332:226,1,100,0|0,3:0|0:0,0:0:0:0:
330,77,50151,1,0,3:0:0:0:
439,278,50306,1,0,0:0:0:0:
439,278,50461,2,0,P|445:216|446:178,1,100,0|0,3:0|0:0,0:0:0:0:
246,56,50770,6,0,P|241:131|242:206,1,150,0|0,3:0|0:0,0:0:0:0:
254,305,51079,2,0,P|245:249|242:206,1,100,0|0,3:0|0:0,0:0:0:0:
356,19,51389,6,0,P|360:78|361:138,1,119.999996337891,2|0,3:0|0:0,0:0:0:0:
113,334,51698,2,0,P|113:274|118:214,1,119.999996337891,2|0,3:0|0:0,0:0:0:0:
404,252,52007,5,4,1:2:0:0:
323,318,52162,1,0,0:0:0:0:
234,264,52316,1,0,0:0:0:0:
262,163,52471,1,0,3:0:0:0:
262,163,52548,1,0,3:0:0:0:
262,163,52626,2,0,L|373:155,1,80,8|0,1:0|0:0,0:0:0:0:
234,264,52935,2,0,L|154:269,1,80,0|0,0:0|3:0,0:0:0:0:
5,170,53244,5,12,1:0:0:0:
29,143,53322,1,0,0:0:0:0:
62,129,53399,1,0,3:0:0:0:
97,131,53476,1,0,3:0:0:0:
128,150,53554,1,8,3:0:0:0:
161,162,53631,1,8,3:0:0:0:
196,154,53708,1,0,3:0:0:0:
224,131,53786,1,0,3:0:0:0:
233,100,53863,1,4,1:0:0:0:
141,11,54017,5,2,3:2:0:0:
336,24,54172,1,2,3:2:0:0:
341,55,54249,1,2,3:2:0:0:
345,87,54327,1,2,3:2:0:0:
348,119,54404,1,2,3:2:0:0:
352,154,54481,6,0,P|343:218|339:291,1,119.999996337891,4|2,3:1|0:0,0:0:0:0:
377,358,54713,1,8,0:0:0:0:
377,358,54791,2,0,L|250:341,1,119.999996337891,0|10,3:0|0:0,0:0:0:0:
111,274,55100,1,0,3:0:0:0:
218,204,55255,1,10,0:0:0:0:
222,174,55332,1,0,1:0:0:0:
227,144,55409,1,0,3:0:0:0:
128,64,55564,1,10,0:0:0:0:
345,126,55718,5,2,3:2:0:0:
223,56,55873,2,0,L|231:130,1,59.9999981689454,10|0,0:0|1:0,0:0:0:0:
228,266,56028,1,0,3:0:0:0:
228,266,56182,2,0,P|160:255|107:254,1,119.999996337891,10|0,0:2|3:0,0:0:0:0:
319,330,56492,2,0,P|377:317|434:298,1,119.999996337891,10|0,0:2|3:0,0:0:0:0:
494,186,56801,1,10,0:0:0:0:
320,140,56956,5,4,3:1:0:0:
393,34,57110,1,0,0:0:0:0:
398,62,57188,1,8,0:0:0:0:
403,92,57265,1,0,3:0:0:0:
319,183,57420,1,10,0:0:0:0:
184,129,57574,2,0,P|170:196|161:254,1,119.999996337891,2|10,3:2|0:0,0:0:0:0:
146,333,57806,1,0,1:0:0:0:
146,333,57883,2,0,P|211:325|280:323,1,119.999996337891,0|10,3:0|0:0,0:0:0:0:
66,212,58193,6,0,P|57:152|50:89,1,119.999996337891,6|8,3:2|0:2,0:0:0:0:
87,9,58425,1,0,1:0:0:0:
87,9,58502,1,0,3:0:0:0:
223,196,58657,6,0,L|206:127,1,59.9999981689454,10|0,0:0|0:0,0:0:0:0:
305,58,58811,2,0,L|303:118,1,59.9999981689454,2|0,3:1|0:0,0:0:0:0:
378,198,58966,2,0,L|391:137,1,59.9999981689454,2|8,0:0|0:0,0:0:0:0:
463,242,59121,1,0,3:0:0:0:
440,261,59198,1,0,0:0:0:0:
417,281,59275,1,10,0:0:0:0:
394,300,59353,1,0,0:0:0:0:
371,319,59430,6,0,P|312:316|252:323,1,119.999996337891,4|2,3:1|0:0,0:0:0:0:
167,351,59662,1,8,0:0:0:0:
167,351,59739,1,0,3:0:0:0:
218,206,59894,1,10,0:2:0:0:
79,249,60048,1,0,3:0:0:0:
305,238,60203,1,10,0:2:0:0:
246,82,60358,1,0,3:0:0:0:
136,171,60512,1,10,0:2:0:0:
377,60,60667,6,0,P|388:119|396:178,1,119.999996337891,4|10,3:1|0:0,0:0:0:0:
396,272,60899,1,0,1:0:0:0:
396,272,60976,1,0,3:0:0:0:
497,178,61131,1,10,0:0:0:0:
297,232,61286,2,0,P|238:221|178:212,1,119.999996337891,2|10,3:2|0:0,0:0:0:0:
88,204,61517,1,2,0:1:0:0:
79,211,61595,2,0,P|44:250|34:269,1,59.9999981689454,0|0,3:0|0:0,0:0:0:0:
127,129,61749,2,0,L|121:69,1,59.9999981689454,10|0,0:0|0:0,0:0:0:0:
199,14,61904,6,0,P|264:43|316:62,1,119.999996337891,6|10,3:2|0:0,0:0:0:0:
395,61,62136,1,0,1:0:0:0:
406,61,62213,2,0,L|539:36,1,119.999996337891,0|10,3:0|0:0,0:0:0:0:
358,140,62523,1,0,3:0:0:0:
246,252,62677,2,0,L|319:241,1,59.9999981689454,10|0,0:0|1:0,0:0:0:0:
431,224,62832,1,0,3:0:0:0:
235,354,62987,2,0,L|162:343,1,59.9999981689454,10|0,0:0|1:0,0:0:0:0:
66,326,63141,5,0,3:0:0:0:
94,109,63296,2,0,P|111:141|124:165,1,59.9999981689454,2|0,0:2|0:0,0:0:0:0:
208,148,63450,2,0,P|211:118|216:89,1,59.9999981689454,2|0,3:2|0:0,0:0:0:0:
328,140,63605,2,0,P|303:166|285:187,1,59.9999981689454,2|10,0:2|0:0,0:0:0:0:
210,255,63760,5,2,3:2:0:0:
225,293,63837,1,0,0:0:0:0:
254,323,63914,1,10,0:0:0:0:
292,341,63992,1,2,0:0:0:0:
334,342,64069,1,0,3:0:0:0:
373,328,64146,1,2,0:0:0:0:
404,300,64224,1,2,0:2:0:0:
422,262,64301,1,0,0:0:0:0:
424,220,64378,6,0,P|422:170|412:92,1,119.999996337891,4|0,3:2|0:0,0:0:0:0:
307,37,64688,2,0,P|294:112|286:179,1,119.999996337891,0|0,3:0|0:0,0:0:0:0:
216,258,64997,1,0,3:0:0:0:
167,156,65151,1,2,2:1:0:0:
312,257,65306,1,0,3:0:0:0:
236,366,65461,1,2,2:1:0:0:
123,307,65615,6,0,P|64:293|5:285,1,119.999996337891,2|0,3:2|2:0,0:0:0:0:
216,258,65925,2,0,P|286:233|337:215,1,119.999996337891,0|0,3:0|2:0,0:0:0:0:
146,23,66234,2,0,P|137:114|132:171,1,119.999996337891,2|0,3:2|2:0,0:0:0:0:
216,258,66543,1,0,3:0:0:0:
307,145,66698,1,2,2:1:0:0:
325,140,66775,1,2,2:1:0:0:
344,136,66853,5,6,3:1:0:0:
410,259,67007,1,2,2:1:0:0:
215,275,67162,1,0,3:0:0:0:
298,98,67316,1,2,2:0:0:0:
471,223,67471,6,0,P|410:260|295:212,1,179.999994506836,4|0,3:2|0:0,0:0:0:0:
229,156,67780,2,0,P|225:213|211:296,1,119.999996337891,0|2,3:0|2:1,0:0:0:0:
152,333,68012,1,0,0:0:0:0:
152,333,68090,5,0,3:0:0:0:
61,173,68244,2,0,P|51:144|47:92,1,59.9999981689454,2|2,1:0|2:1,0:0:0:0:
129,66,68399,2,0,P|142:39|176:-2,1,59.9999981689454,2|0,3:1|2:0,0:0:0:0:
252,38,68554,2,0,P|280:28|333:23,1,59.9999981689454,0|0,3:0|3:0,0:0:0:0:
436,116,68708,1,4,3:2:0:0:
286,242,68863,5,8,3:0:0:0:
290,283,68940,1,2,0:1:0:0:
312,318,69017,1,8,3:0:0:0:
347,341,69095,1,2,1:0:0:0:
388,346,69172,1,4,3:0:0:0:
428,333,69249,1,0,1:0:0:0:
458,305,69327,6,0,B|477:249|461:198|461:198|470:167|490:138|490:138|460:184|387:184|377:118,1,320,4|2,3:1|2:0,0:0:0:0:
127,66,70255,1,2,2:0:0:0:
61,209,70409,1,0,3:0:0:0:
61,209,70487,1,0,3:0:0:0:
61,209,70564,6,0,B|95:219|147:193|147:193|206:222|206:222|286:184|364:224,1,320,6|2,3:2|2:0,0:0:0:0:
288,308,71337,1,8,3:0:0:0:
425,330,71492,1,8,3:0:0:0:
219,375,71646,1,4,3:0:0:0:
271,94,71801,5,4,0:0:0:0:
109,198,72110,5,0,0:0:0:0:
365,140,72265,1,0,0:0:0:0:
77,94,72574,5,0,0:0:0:0:
403,52,72883,5,0,0:0:0:0:
43,174,73193,5,0,3:0:0:0:
364,137,73347,1,0,0:0:0:0:
128,40,73502,1,0,0:0:0:0:
274,31,73657,2,0,P|262:110|253:189,1,160,0|4,0:0|3:0,0:0:0:0:
266,343,74121,1,2,2:0:0:0:
266,343,74198,1,2,2:0:0:0:
266,341,74275,6,0,P|323:324|382:317,1,119.999996337891,4|0,0:0|0:0,0:0:0:0:
475,288,74507,1,8,0:0:0:0:
475,288,74584,2,0,P|440:226|416:172,1,119.999996337891,2|8,3:2|0:0,0:0:0:0:
344,115,74816,1,0,0:0:0:0:
344,115,74894,2,0,L|331:183,1,59.9999981689454,2|0,3:2|0:0,0:0:0:0:
243,139,75048,2,0,L|231:80,1,59.9999981689454,8|0,0:0|0:0,0:0:0:0:
145,32,75203,1,2,3:2:0:0:
61,228,75358,1,8,0:0:0:0:
61,228,75435,1,0,0:0:0:0:
61,228,75512,6,0,P|110:206|185:217,1,119.999996337891,2|8,3:2|0:0,0:0:0:0:
251,274,75744,1,0,0:0:0:0:
251,274,75822,2,0,P|305:296|364:289,1,119.999996337891,2|8,3:2|0:0,0:0:0:0:
460,254,76054,1,0,0:0:0:0:
460,254,76131,2,0,P|444:229|423:208,1,59.9999981689454,2|0,3:2|0:0,0:0:0:0:
352,144,76286,2,0,P|330:166|314:191,1,59.9999981689454,8|0,0:0|0:0,0:0:0:0:
251,274,76440,1,2,3:2:0:0:
72,150,76595,1,8,0:0:0:0:
72,150,76672,1,0,0:0:0:0:
72,150,76749,6,0,P|131:161|190:169,1,119.999996337891,2|8,3:2|0:0,0:0:0:0:
272,118,76981,1,0,0:0:0:0:
272,118,77059,2,0,P|259:46|254:-12,1,119.999996337891,2|8,3:2|0:0,0:0:0:0:
357,22,77291,1,0,0:0:0:0:
357,22,77368,2,0,P|360:54|374:98,1,59.9999981689454,2|0,3:2|0:0,0:0:0:0:
427,161,77523,2,0,P|383:177|342:200,1,59.9999981689454,8|0,0:0|0:0,0:0:0:0:
291,234,77677,1,2,3:2:0:0:
249,228,77755,1,0,0:0:0:0:
207,223,77832,1,8,0:0:0:0:
165,218,77909,1,0,0:0:0:0:
124,213,77987,5,4,3:2:0:0:
255,129,78141,1,8,0:0:0:0:
177,300,78296,2,0,P|180:329|184:359,1,59.9999981689454,4|0,3:2|0:0,0:0:0:0:
124,213,78450,2,0,P|129:183|135:154,1,59.9999981689454,8|0,0:0|0:0,0:0:0:0:
97,38,78605,1,4,3:2:0:0:
97,38,78914,5,8,0:0:0:0:
138,41,78992,1,0,1:0:0:0:
180,44,79069,1,0,1:0:0:0:
222,47,79146,1,0,1:0:0:0:
264,51,79224,6,0,P|334:24|402:49,1,119.999996337891,4|0,3:1|0:0,0:0:0:0:
441,93,79456,1,8,0:0:0:0:
441,93,79533,2,0,P|430:168|421:219,1,119.999996337891,2|8,3:2|0:0,0:0:0:0:
362,276,79765,1,0,0:0:0:0:
362,276,79842,2,0,P|315:261|274:253,1,59.9999981689454,2|0,3:2|0:0,0:0:0:0:
237,190,79997,2,0,P|193:212|158:235,1,59.9999981689454,8|0,0:0|0:0,0:0:0:0:
111,280,80151,1,2,3:2:0:0:
39,161,80306,1,8,0:0:0:0:
39,161,80383,1,0,0:0:0:0:
39,161,80461,6,0,P|29:89|24:32,1,119.999996337891,2|8,3:2|0:0,0:0:0:0:
110,68,80693,1,0,0:0:0:0:
110,68,80770,2,0,P|173:54|240:19,1,119.999996337891,2|8,3:2|0:0,0:0:0:0:
308,72,81002,1,0,0:0:0:0:
308,72,81079,2,0,L|378:84,1,59.9999981689454,2|0,3:2|0:0,0:0:0:0:
496,143,81234,2,0,L|436:153,1,59.9999981689454,8|0,0:0|0:0,0:0:0:0:
339,170,81389,1,2,3:2:0:0:
248,295,81543,1,8,0:0:0:0:
248,295,81621,1,0,0:0:0:0:
248,295,81698,6,0,P|226:215|202:145,1,119.999996337891,2|8,3:2|0:0,0:0:0:0:
133,151,81930,1,0,0:0:0:0:
133,151,82007,2,0,P|153:68|173:12,1,119.999996337891,2|8,3:2|0:0,0:0:0:0:
245,18,82239,1,0,0:0:0:0:
245,18,82316,2,0,P|273:19|307:16,1,59.9999981689454,2|0,3:2|0:0,0:0:0:0:
388,56,82471,2,0,P|372:81|360:109,1,59.9999981689454,8|0,0:0|0:0,0:0:0:0:
384,200,82626,1,2,3:2:0:0:
409,233,82703,1,0,0:0:0:0:
414,274,82780,1,8,0:0:0:0:
398,312,82858,1,0,0:0:0:0:
366,338,82935,5,4,3:2:0:0:
197,190,83090,1,8,0:0:0:0:
328,260,83244,1,4,3:2:0:0:
121,303,83399,1,8,0:0:0:0:
226,91,83554,1,4,3:2:0:0:
226,91,84172,5,0,3:0:0:0:
226,91,84327,1,0,3:0:0:0:
346,18,84481,6,0,B|347:44|337:60|337:60|344:100|344:100|316:142|327:207,1,179.999994506836,2|0,0:0|0:0,0:0:0:0:
403,165,84791,6,0,L|471:158,1,59.9999981689454,2|0,0:0|0:0,0:0:0:0:
349,274,84945,2,0,L|281:267,1,59.9999981689454,2|0,0:0|0:0,0:0:0:0:
236,187,85100,2,0,B|157:193,2,79.9999975585938
76,238,85409,6,0,P|62:191|57:141,1,100,4|0,3:2|0:0,0:0:0:0:
70,54,85641,1,8,0:0:0:0:
70,54,85718,1,0,3:0:0:0:
179,106,85873,1,8,0:0:0:0:
305,33,86028,1,0,3:0:0:0:
245,200,86182,1,8,0:0:0:0:
245,200,86260,1,0,0:0:0:0:
245,200,86337,1,0,3:0:0:0:
379,138,86492,1,8,0:0:0:0:
421,316,86646,6,0,P|344:295|312:286,1,100,0|8,3:0|0:0,0:0:0:0:
246,355,86878,1,0,0:0:0:0:
246,355,86956,2,0,P|223:305|197:255,1,100,0|8,3:0|0:0,0:0:0:0:
62,244,87265,1,0,3:0:0:0:
62,244,87883,6,0,P|54:190|54:116,1,100,0|0,3:0|0:0,0:0:0:0:
121,95,88115,1,8,0:0:0:0:
121,95,88193,2,0,P|190:124|228:135,1,100,0|8,3:0|0:0,0:0:0:0:
397,134,88502,1,0,3:0:0:0:
313,32,88657,1,8,0:0:0:0:
310,56,88734,1,0,0:0:0:0:
307,81,88811,1,0,3:0:0:0:
296,188,88966,1,8,0:0:0:0:
418,235,89121,5,0,3:0:0:0:
316,300,89275,1,8,0:0:0:0:
121,211,89430,2,0,P|169:224|216:239,1,100,0|8,3:0|0:0,0:0:0:0:
390,360,89739,1,0,3:0:0:0:
390,360,90048,6,0,P|400:304|411:249,1,112.500004291535,4|0,3:0|0:0,0:0:0:0:
389,232,90358,6,0,P|344:271|290:282,1,100,4|0,3:2|0:0,0:0:0:0:
289,281,90590,1,2,0:1:0:0:
272,277,90667,2,0,P|224:261|188:227,1,100,0|2,3:0|0:1,0:0:0:0:
395,153,90976,6,0,P|370:207|326:240,1,100,0|0,3:0|0:0,0:0:0:0:
325,239,91208,1,2,0:1:0:0:
307,243,91286,2,0,P|256:248|209:233,1,100,0|2,3:0|0:1,0:0:0:0:
393,92,91595,6,0,P|387:151|356:196,1,100,0|0,3:0|0:0,0:0:0:0:
354,196,91827,1,0,0:0:0:0:
339,205,91904,2,0,P|293:226|243:227,1,100,0|2,3:0|0:1,0:0:0:0:
344,34,92213,6,0,P|364:89|355:144,1,100,0|0,3:0|0:0,0:0:0:0:
352,144,92445,1,2,0:1:0:0:
342,159,92523,2,0,P|309:198|265:219,1,100,0|2,3:0|0:1,0:0:0:0:
257,0,92832,6,0,P|302:38|321:89,1,100,0|0,3:0|0:0,0:0:0:0:
318,91,93064,1,2,0:1:0:0:
317,109,93141,2,0,P|308:158|280:199,1,100,0|2,3:0|0:1,0:0:0:0:
8,230,93450,6,0,P|34:176|78:144,1,100,2|0,3:2|0:0,0:0:0:0:
80,146,93682,1,2,0:1:0:0:
98,143,93760,2,0,P|146:145|196:171,1,100,0|2,3:2|0:1,0:0:0:0:
385,239,94069,5,2,3:0:0:0:
263,256,94224,1,0,0:0:0:0:
349,356,94378,1,0,3:0:0:0:
142,319,94533,1,2,0:1:0:0:
142,319,94610,1,8,1:0:0:0:
142,319,94688,6,0,L|117:247,1,50,0|0,3:0|1:0,0:0:0:0:
171,160,94842,2,0,L|196:88,1,50,0|0,1:0|0:0,0:0:0:0:
127,9,94997,1,0,3:0:0:0:
392,123,95151,1,8,0:0:0:0:
392,123,95229,1,0,0:0:0:0:
391,123,95306,6,0,P|344:137|295:150,1,100,4|0,3:2|0:0,0:0:0:0:
240,216,95538,1,8,0:0:0:0:
240,216,95615,2,0,P|245:293|248:326,1,100,0|8,3:0|0:0,0:0:0:0:
131,271,95925,1,0,3:0:0:0:
359,257,96079,1,8,0:0:0:0:
359,257,96157,1,0,0:0:0:0:
359,257,96234,1,0,3:0:0:0:
296,130,96389,1,8,0:0:0:0:
443,37,96543,5,0,3:0:0:0:
208,37,96698,2,0,L|195:114,1,50,8|0,0:0|0:0,0:0:0:0:
177,198,96853,1,0,3:0:0:0:
384,126,97007,2,0,L|397:203,1,50,8|0,0:0|0:0,0:0:0:0:
418,289,97162,5,2,3:2:0:0:
264,305,97316,1,2,0:0:0:0:
268,255,97394,1,2,0:0:0:0:
272,205,97471,1,2,0:0:0:0:
137,35,97626,1,2,0:0:0:0:
141,84,97703,1,2,0:0:0:0:
145,134,97780,6,0,L|155:239,1,100,4|0,0:0|0:0,0:0:0:0:
165,320,98012,1,8,0:0:0:0:
165,320,98090,1,0,3:0:0:0:
272,205,98244,1,8,0:0:0:0:
430,307,98399,2,0,L|323:300,1,100,0|8,3:0|0:0,0:0:0:0:
247,297,98631,1,0,0:0:0:0:
247,297,98708,1,0,3:0:0:0:
355,172,98863,1,8,0:0:0:0:
199,63,99017,5,0,3:0:0:0:
282,215,99172,1,8,0:0:0:0:
282,215,99249,1,0,0:0:0:0:
282,215,99327,1,0,3:0:0:0:
375,96,99481,1,8,0:0:0:0:
447,280,99636,1,0,3:0:0:0:
447,280,99945,6,0,L|309:306,1,112.500004291535,2|0,3:2|0:0,0:0:0:0:
257,316,100255,5,4,3:2:0:0:
113,355,100409,1,0,0:0:0:0:
113,355,100487,1,0,0:0:0:0:
112,354,100564,2,0,P|92:308|85:258,1,100,0|2,3:0|0:1,0:0:0:0:
208,102,100873,2,0,P|201:151|181:197,1,100,2|0,3:2|0:0,0:0:0:0:
4,187,101182,1,0,3:0:0:0:
85,104,101337,1,2,0:1:0:0:
178,210,101492,6,0,L|295:196,1,100,2|0,3:2|0:0,0:0:0:0:
362,239,101724,1,0,0:0:0:0:
362,239,101801,2,0,L|479:253,1,100,0|2,3:0|0:1,0:0:0:0:
495,122,102110,2,0,P|467:64|450:23,1,100,2|0,3:2|0:0,0:0:0:0:
351,151,102420,1,2,3:2:0:0:
351,151,102574,1,2,0:1:0:0:
265,19,102729,6,0,P|238:77|216:141,1,100,2|0,3:2|0:0,0:0:0:0:
202,195,102961,1,2,0:1:0:0:
202,195,103038,1,0,3:0:0:0:
306,266,103193,1,2,0:1:0:0:
205,334,103347,6,0,L|98:321,1,100,2|0,3:2|0:0,0:0:0:0:
306,266,103657,2,0,L|405:253,1,100,2|0,3:2|0:0,0:0:0:0:
283,120,103966,5,4,3:2:0:0:
201,234,104121,1,2,0:0:0:0:
191,62,104275,1,4,3:2:0:0:
385,149,104430,1,2,0:0:0:0:
385,149,104507,1,8,1:0:0:0:
385,149,104584,2,0,P|407:130|434:100,1,50,4|0,3:2|1:0,0:0:0:0:
313,214,104739,2,0,P|317:242|330:280,1,50,10|0,1:2|0:0,0:0:0:0:
262,361,104894,1,4,3:2:0:0:
57,244,105048,1,10,1:2:0:0:
57,244,105126,1,8,1:0:0:0:
57,244,105203,6,0,P|124:258|228:262,1,150,4|0,3:1|0:0,0:0:0:0:
304,251,105512,2,0,P|259:259|202:261,1,100,0|0,3:0|0:0,0:0:0:0:
55,241,105822,1,0,3:0:0:0:
131,55,105976,1,0,0:0:0:0:
131,55,106131,2,0,P|127:118|126:154,1,100,0|0,3:0|0:0,0:0:0:0:
235,132,106440,6,0,P|308:146|383:150,1,150,0|0,3:0|0:0,0:0:0:0:
482,141,106749,2,0,P|432:149|382:151,1,100,0|0,3:0|0:0,0:0:0:0:
187,233,107059,6,0,P|246:238|315:233,1,119.999996337891,2|0,3:0|0:0,0:0:0:0:
484,40,107368,2,0,P|425:35|356:40,1,119.999996337891,2|0,3:0|0:0,0:0:0:0:
232,106,107677,6,0,P|246:180|251:255,1,150,0|0,3:0|0:0,0:0:0:0:
244,354,107987,2,0,P|249:304|250:254,1,100,0|0,3:0|0:0,0:0:0:0:
231,104,108296,1,0,3:0:0:0:
49,196,108450,1,0,0:0:0:0:
49,196,108605,2,0,P|116:202|160:202,1,100,0|0,3:0|0:0,0:0:0:0:
312,133,108914,6,0,P|319:72|321:25,1,100,2|0,3:2|0:0,0:0:0:0:
148,201,109224,2,0,P|141:152|138:102,1,100,2|0,3:0|0:0,0:0:0:0:
303,232,109533,2,0,P|310:171|312:124,1,100,2|0,3:2|0:0,0:0:0:0:
156,300,109842,2,0,P|149:251|146:201,1,100,2|0,3:0|0:0,0:0:0:0:
405,294,110151,6,0,P|347:289|251:288,1,150,0|0,3:0|0:0,0:0:0:0:
156,301,110461,2,0,P|205:292|254:287,1,100,0|0,3:0|0:0,0:0:0:0:
408,294,110770,1,0,3:0:0:0:
314,96,110925,1,0,0:0:0:0:
314,96,111079,2,0,P|311:162|311:202,1,100,0|0,3:0|0:0,0:0:0:0:
156,301,111389,6,0,P|160:225|160:147,1,150,0|0,3:0|0:0,0:0:0:0:
152,51,111698,2,0,P|157:100|159:150,1,100,0|0,3:0|0:0,0:0:0:0:
40,353,112007,6,0,P|36:293|41:233,1,119.999996337891,2|0,3:0|0:0,0:0:0:0:
277,39,112316,2,0,P|280:98|275:158,1,119.999996337891,2|0,3:0|0:0,0:0:0:0:
63,120,112626,5,4,1:2:0:0:
156,207,112780,1,0,0:0:0:0:
274,158,112935,1,0,0:0:0:0:
382,250,113090,1,0,3:0:0:0:
382,250,113167,1,0,3:0:0:0:
382,250,113244,2,0,P|391:211|391:171,1,80,8|0,1:0|0:0,0:0:0:0:
346,9,113554,2,0,P|336:48|336:88,1,80,0|0,3:0|3:0,0:0:0:0:
265,312,113863,5,12,1:0:0:0:
276,279,113940,1,0,0:0:0:0:
272,244,114017,1,0,3:0:0:0:
256,214,114095,1,0,3:0:0:0:
229,191,114172,1,8,3:0:0:0:
196,181,114249,1,8,3:0:0:0:
162,186,114327,1,0,3:0:0:0:
131,203,114404,1,0,3:0:0:0:
111,229,114481,1,4,1:0:0:0:
189,265,114636,5,2,3:2:0:0:
327,145,114791,1,2,3:2:0:0:
358,147,114868,1,2,3:2:0:0:
390,149,114945,1,2,3:2:0:0:
422,151,115023,1,2,3:2:0:0:
454,153,115100,6,0,P|464:225|462:282,1,119.999996337891,4|2,3:1|0:0,0:0:0:0:
387,324,115332,1,8,0:0:0:0:
387,324,115409,2,0,P|307:307|267:302,1,119.999996337891,0|10,3:0|0:0,0:0:0:0:
112,346,115718,1,0,3:0:0:0:
49,211,115873,1,10,0:0:0:0:
49,211,115950,1,0,0:0:0:0:
49,211,116028,2,0,L|186:185,1,119.999996337891,0|10,3:0|0:0,0:0:0:0:
330,142,116337,5,2,3:2:0:0:
243,40,116492,2,0,L|235:113,1,59.9999981689454,10|0,0:0|0:0,0:0:0:0:
255,239,116646,1,0,3:0:0:0:
255,238,116801,2,0,P|312:222|371:228,1,119.999996337891,10|0,0:2|3:0,0:0:0:0:
212,345,117110,2,0,P|152:351|95:334,1,119.999996337891,10|0,0:2|3:0,0:0:0:0:
259,243,117420,1,10,0:0:0:0:
112,182,117574,5,4,3:1:0:0:
251,68,117729,1,0,0:0:0:0:
254,97,117806,1,8,0:0:0:0:
258,127,117883,1,0,3:0:0:0:
182,249,118038,1,10,0:0:0:0:
48,148,118193,2,0,P|60:74|71:26,1,119.999996337891,2|10,3:2|0:0,0:0:0:0:
224,155,118502,2,0,P|212:229|201:277,1,119.999996337891,0|10,3:0|0:0,0:0:0:0:
394,337,118811,6,0,L|373:212,1,119.999996337891,6|8,3:2|0:2,0:0:0:0:
356,126,119043,1,0,0:0:0:0:
356,126,119121,1,0,3:0:0:0:
466,106,119275,6,0,P|451:133|423:160,1,59.9999981689454,10|0,0:0|0:0,0:0:0:0:
301,216,119430,2,0,P|254:214|229:208,1,59.9999981689454,2|0,3:1|0:0,0:0:0:0:
95,133,119584,2,0,P|77:110|62:84,1,59.9999981689454,2|8,0:0|0:0,0:0:0:0:
189,44,119739,1,0,3:0:0:0:
179,84,119816,1,0,0:0:0:0:
171,126,119894,1,10,0:0:0:0:
166,167,119971,1,0,0:0:0:0:
163,209,120048,6,0,P|175:278|185:330,1,119.999996337891,4|2,3:1|0:0,0:0:0:0:
249,379,120280,1,8,0:0:0:0:
249,379,120358,1,0,3:0:0:0:
334,285,120512,1,10,0:2:0:0:
442,342,120667,1,0,3:0:0:0:
262,204,120822,1,10,0:2:0:0:
364,367,120976,1,0,3:0:0:0:
433,163,121131,1,10,0:2:0:0:
245,88,121286,6,0,P|228:170|222:217,1,119.999996337891,4|10,3:1|0:0,0:0:0:0:
211,290,121517,1,0,0:0:0:0:
211,290,121595,1,0,3:0:0:0:
106,165,121749,1,10,0:0:0:0:
341,189,121904,2,0,P|351:267|354:336,1,119.999996337891,2|10,3:2|0:0,0:0:0:0:
300,372,122136,1,0,0:0:0:0:
300,372,122213,2,0,P|271:369|233:365,1,59.9999981689454,0|0,3:0|0:0,0:0:0:0:
151,344,122368,2,0,P|122:347|84:351,1,59.9999981689454,10|0,0:0|0:0,0:0:0:0:
13,313,122523,5,6,3:2:0:0:
164,210,122677,1,10,0:0:0:0:
164,210,122755,1,0,0:0:0:0:
164,210,122832,1,0,3:0:0:0:
83,78,122987,1,10,0:0:0:0:
253,145,123141,1,0,3:0:0:0:
396,40,123296,2,0,L|381:118,1,59.9999981689454,10|0,0:0|0:0,0:0:0:0:
362,198,123450,1,0,3:0:0:0:
282,338,123605,2,0,L|270:259,1,59.9999981689454,10|0,0:0|0:0,0:0:0:0:
253,145,123760,5,0,3:0:0:0:
39,133,123914,2,0,P|73:163|112:188,1,59.9999981689454,2|0,0:2|0:0,0:0:0:0:
120,259,124069,2,0,P|165:256|210:246,1,59.9999981689454,2|0,3:2|0:0,0:0:0:0:
272,278,124224,2,0,P|302:244|327:205,1,59.9999981689454,2|10,0:2|0:0,0:0:0:0:
429,98,124378,5,2,3:2:0:0:
425,127,124456,1,0,0:0:0:0:
422,157,124533,1,10,0:0:0:0:
419,187,124610,1,2,0:0:0:0:
416,217,124688,1,0,3:0:0:0:
413,247,124765,1,2,0:0:0:0:
410,277,124842,1,2,0:2:0:0:
407,306,124920,1,0,0:0:0:0:
404,336,124997,6,0,P|322:354|287:363,1,119.999996337891,4|0,3:2|2:0,0:0:0:0:
154,318,125306,2,0,P|83:303|31:293,1,119.999996337891,0|0,3:0|2:0,0:0:0:0:
158,168,125615,1,0,3:0:0:0:
257,233,125770,1,2,2:1:0:0:
210,91,125925,1,0,3:0:0:0:
82,226,126079,1,2,2:1:0:0:
202,337,126234,6,0,P|265:318|339:304,1,119.999996337891,2|0,3:2|2:0,0:0:0:0:
485,185,126543,2,0,P|426:172|368:155,1,119.999996337891,0|0,3:0|2:0,0:0:0:0:
232,59,126853,2,0,P|244:121|254:189,1,119.999996337891,2|0,3:2|2:0,0:0:0:0:
149,293,127162,1,0,3:0:0:0:
340,229,127316,1,2,2:1:0:0:
370,234,127394,1,2,2:1:0:0:
399,240,127471,5,6,3:1:0:0:
289,321,127626,1,2,2:1:0:0:
374,124,127780,1,0,3:0:0:0:
498,291,127935,1,0,0:0:0:0:
271,223,128090,6,0,P|250:155|234:42,1,179.999994506836,4|0,3:2|0:0,0:0:0:0:
139,82,128399,2,0,P|117:139|82:198,1,119.999996337891,0|2,3:0|2:1,0:0:0:0:
17,247,128631,1,0,0:0:0:0:
17,247,128708,1,4,3:2:0:0:
148,336,128863,6,0,P|179:340|207:329,1,59.9999981689454,2|2,1:0|2:1,0:0:0:0:
293,347,129017,2,0,P|315:323|321:294,1,59.9999981689454,2|0,3:1|0:0,0:0:0:0:
385,234,129172,2,0,P|378:202|358:180,1,59.9999981689454,0|0,3:0|3:0,0:0:0:0:
229,129,129327,1,4,3:2:0:0:
107,292,129481,5,8,3:0:0:0:
122,317,129559,1,0,0:0:0:0:
146,336,129636,1,8,3:0:0:0:
177,340,129713,1,0,0:0:0:0:
206,333,129791,1,4,3:0:0:0:
231,317,129868,1,0,0:0:0:0:
250,297,129945,6,0,B|282:237|258:176|200:152|200:152|279:132|320:211,1,320,4|2,3:1|2:0,0:0:0:0:
172,242,130873,1,2,2:0:0:0:
129,78,131028,1,0,3:0:0:0:
129,78,131105,1,0,3:0:0:0:
129,78,131182,6,0,B|205:59|205:59|283:77|283:77|359:34|443:69,1,320,6|2,3:2|2:0,0:0:0:0:
375,143,131956,1,8,3:0:0:0:
490,163,132110,1,8,3:0:0:0:
313,234,132265,1,4,3:0:0:0:
133,77,132420,5,4,0:0:0:0:
375,143,132729,5,0,0:0:0:0:
68,181,132883,1,0,0:0:0:0:
432,216,133193,5,0,0:0:0:0:
212,44,133502,5,0,0:0:0:0:
253,300,133811,5,0,3:0:0:0:
302,111,133966,1,0,0:0:0:0:
156,208,134121,1,0,0:0:0:0:
347,241,134275,2,0,P|409:233|520:229,1,160,0|4,0:0|3:0,0:0:0:0:
303,110,134894,5,0,3:0:0:0:
464,128,144791,5,0,3:0:0:0:
359,201,144945,2,0,P|368:135|385:35,1,160,0|0,0:0|0:0,0:0:0:0:
254,22,145409,2,0,P|264:60|276:98,1,80,0|0,3:0|0:0,0:0:0:0:
179,118,145718,2,0,P|189:156|201:194,1,80,0|0,3:0|0:0,0:0:0:0:
104,214,146028,6,0,P|114:252|126:290,1,80,0|0,3:0|0:0,0:0:0:0:
263,274,146337,1,0,3:0:0:0:
212,355,146492,1,0,0:0:0:0:
333,205,146646,1,0,3:0:0:0:
356,300,146801,1,0,0:0:0:0:
186,222,146956,1,0,3:0:0:0:
186,222,147110,1,0,0:0:0:0:
271,123,147265,6,0,P|331:112|370:107,1,80,0|0,3:0|0:0,0:0:0:0:
191,50,147574,2,0,P|251:39|290:34,1,80,0|0,3:0|0:0,0:0:0:0:
455,98,147883,2,0,P|434:142|421:173,1,80,0|0,3:0|0:0,0:0:0:0:
483,237,148193,2,0,P|462:281|449:312,1,80,0|0,3:0|0:0,0:0:0:0:
331,214,148502,6,0,P|310:258|297:289,1,80,0|0,3:0|0:0,0:0:0:0:
263,106,148811,1,0,3:0:0:0:
225,180,148966,1,0,0:0:0:0:
110,234,149121,2,0,P|148:246|185:259,1,80,0|0,3:0|0:0,0:0:0:0:
309,330,149430,2,0,L|268:335,3,40,2|0|0|0,3:2|0:0|0:0|0:0,0:0:0:0:
397,337,149739,6,0,P|428:327|474:311,1,80,0|0,3:0|0:0,0:0:0:0:
417,232,150048,2,0,P|436:206|465:166,1,80,0|0,3:0|0:0,0:0:0:0:
372,135,150358,2,0,P|373:102|373:53,1,80,0|0,3:0|0:0,0:0:0:0:
279,73,150667,2,0,P|261:45|233:5,1,80,0|0,3:0|0:0,0:0:0:0:
170,78,150976,5,0,3:0:0:0:
95,49,151131,1,0,0:0:0:0:
98,145,151286,1,0,3:0:0:0:
21,164,151440,1,0,0:0:0:0:
90,229,151595,1,0,3:0:0:0:
38,289,151749,1,0,0:0:0:0:
132,300,151904,1,0,3:0:0:0:
124,379,152059,1,0,0:0:0:0:
212,343,152213,6,0,P|261:332|310:329,1,80,0|0,3:0|0:0,0:0:0:0:
321,237,152523,2,0,P|348:266|370:299,1,80,0|0,3:0|0:0,0:0:0:0:
468,177,152832,2,0,P|451:212|440:251,1,80,0|0,3:0|0:0,0:0:0:0:
297,127,153141,2,0,P|338:143|385:173,1,80,0|0,3:0|0:0,0:0:0:0:
503,58,153450,6,0,P|457:78|408:85,1,80,0|0,3:0|0:0,0:0:0:0:
257,34,153760,1,0,3:0:0:0:
297,127,153914,1,0,0:0:0:0:
185,117,154069,2,0,P|164:178|157:209,1,80,0|0,3:0|0:0,0:0:0:0:
167,235,154301,1,0,1:0:0:0:
167,235,154378,2,0,L|215:223,1,40,2|0,3:2|0:0,0:0:0:0:
305,220,154533,1,0,1:0:0:0:
336,227,154610,1,0,1:0:0:0:
365,241,154688,5,0,3:0:0:0:
341,359,154842,1,2,0:0:0:0:
461,304,154997,2,0,P|468:253|473:215,1,80,8|0,3:2|0:0,0:0:0:0:
394,142,155306,1,0,3:0:0:0:
465,68,155461,1,0,0:0:0:0:
326,222,155615,1,8,3:2:0:0:
252,141,155770,1,0,0:0:0:0:
278,325,155925,5,0,3:0:0:0:
175,352,156079,1,0,0:0:0:0:
313,239,156234,1,8,3:2:0:0:
378,316,156389,1,0,0:0:0:0:
370,158,156543,1,0,3:0:0:0:
223,266,156698,1,0,0:0:0:0:
293,121,156853,1,8,3:2:0:0:
406,233,157007,1,0,0:0:0:0:
221,180,157162,6,0,P|183:167|144:157,1,80,0|0,3:0|0:0,0:0:0:0:
130,68,157471,2,0,P|94:86|59:105,1,80,8|0,3:2|0:0,0:0:0:0:
218,29,157780,1,0,3:0:0:0:
288,100,157935,1,0,0:0:0:0:
370,69,158090,1,8,3:2:0:0:
199,116,158244,1,0,0:0:0:0:
352,157,158399,5,0,3:0:0:0:
304,14,158554,1,0,0:0:0:0:
261,181,158708,1,8,3:2:0:0:
415,221,158863,1,0,0:0:0:0:
289,276,159017,2,0,P|226:283|187:285,1,80,0|0,3:0|0:0,0:0:0:0:
104,214,159327,2,0,L|97:268,3,40,10|0|0|0,3:2|0:0|0:0|0:0,0:0:0:0:
116,127,159636,6,0,L|130:26,1,80,0|0,3:0|0:0,0:0:0:0:
251,15,159945,2,0,L|261:94,1,80,8|0,3:2|0:0,0:0:0:0:
352,164,160255,1,0,3:0:0:0:
254,235,160409,1,0,0:0:0:0:
191,159,160564,1,8,3:2:0:0:
345,268,160718,1,0,0:0:0:0:
211,332,160873,5,0,3:0:0:0:
273,145,161028,1,0,0:0:0:0:
88,239,161182,2,0,L|179:247,1,80,8|0,3:2|0:0,0:0:0:0:
340,204,161492,1,0,3:0:0:0:
399,311,161646,1,0,0:0:0:0:
383,133,161801,1,8,3:2:0:0:
239,190,161956,1,0,0:0:0:0:
316,20,162110,6,0,L|308:111,1,80,0|0,3:0|0:0,0:0:0:0:
189,112,162420,1,8,3:2:0:0:
274,213,162574,1,0,3:0:0:0:
217,333,162729,1,0,3:0:0:0:
85,331,162883,1,0,3:0:0:0:
0,211,163038,1,8,3:2:0:0:
18,195,163115,1,0,3:0:0:0:
38,182,163193,1,0,3:0:0:0:
60,172,163270,1,0,3:0:0:0:
83,163,163347,6,0,P|133:154|189:158,1,100,2|0,3:2|0:0,0:0:0:0:
429,221,163657,2,0,P|379:230|323:226,1,100,0|0,0:0|0:0,0:0:0:0:
263,26,163966,5,8,3:2:0:0:
278,57,164043,1,8,3:0:0:0:
284,91,164121,1,0,3:0:0:0:
281,126,164198,1,0,3:0:0:0:
268,158,164275,2,0,P|248:213|250:263,1,100,8|0,3:2|0:0,0:0:0:0:
307,362,164584,6,0,P|364:345|423:335,1,119.999996337891,4|2,3:1|0:1,0:0:0:0:
511,328,164816,1,8,0:0:0:0:
511,328,164894,1,0,3:0:0:0:
435,186,165048,1,10,0:1:0:0:
310,267,165203,2,0,P|252:250|193:240,1,119.999996337891,2|10,3:2|0:1,0:0:0:0:
106,233,165435,1,8,0:0:0:0:
106,233,165512,1,0,3:0:0:0:
194,112,165667,1,10,0:1:0:0:
89,25,165822,5,2,3:2:0:0:
313,23,165976,1,10,0:1:0:0:
307,45,166054,1,8,0:0:0:0:
303,65,166130,1,0,3:0:0:0:
344,197,166286,2,0,P|411:184|476:179,1,119.999996337891,10|0,0:2|3:0,0:0:0:0:
347,297,166595,1,10,0:1:0:0:
331,309,166672,1,0,0:0:0:0:
315,321,166749,2,0,P|271:310|250:306,1,59.9999981689454,2|0,3:2|0:0,0:0:0:0:
129,301,166904,2,0,P|99:307|70:314,1,59.9999981689454,10|0,0:1|0:0,0:0:0:0:
196,217,167059,6,0,P|221:154|222:92,1,119.999996337891,6|2,3:2|2:1,0:0:0:0:
189,27,167291,1,8,0:0:0:0:
189,27,167368,1,0,3:0:0:0:
69,105,167523,1,10,0:1:0:0:
166,277,167677,2,0,P|228:250|272:206,1,119.999996337891,2|10,3:2|0:1,0:0:0:0:
295,137,167909,1,8,0:0:0:0:
295,137,167987,1,0,3:0:0:0:
179,74,168141,1,10,0:1:0:0:
141,330,168296,5,6,3:2:0:0:
325,280,168450,1,10,0:1:0:0:
325,280,168528,1,8,0:0:0:0:
325,280,168605,1,0,3:0:0:0:
87,203,168760,1,10,0:2:0:0:
220,50,168914,5,0,3:0:0:0:
273,156,169069,1,10,0:1:0:0:
277,173,169146,1,0,0:0:0:0:
278,190,169224,2,0,P|276:223|269:263,1,59.9999981689454,0|0,3:0|0:0,0:0:0:0:
157,338,169378,1,10,0:2:0:0:
157,338,169456,1,0,0:0:0:0:
157,338,169533,6,0,B|186:334|215:318|215:318|261:343|261:343|292:332|326:343,1,179.999994506836,4|8,3:2|0:0,0:0:0:0:
417,369,169842,2,0,P|423:326|429:297,1,59.9999981689454,2|0,3:2|0:0,0:0:0:0:
370,141,169997,2,0,P|375:170|379:200,1,59.9999981689454,10|0,0:1|0:0,0:0:0:0:
486,213,170151,1,2,3:2:0:0:
278,231,170306,1,10,0:1:0:0:
248,227,170383,1,0,0:0:0:0:
218,224,170461,1,0,3:0:0:0:
311,98,170615,1,10,0:1:0:0:
156,42,170770,6,0,P|167:103|186:227,1,179.999994506836,4|8,3:2|0:0,0:0:0:0:
118,291,171079,2,0,P|90:282|60:275,1,59.9999981689454,2|0,3:2|0:0,0:0:0:0:
201,348,171234,2,0,P|230:341|258:332,1,59.9999981689454,10|0,0:1|0:0,0:0:0:0:
375,349,171389,1,2,3:2:0:0:
325,215,171543,1,10,0:1:0:0:
329,185,171621,1,8,0:0:0:0:
333,155,171698,1,0,3:0:0:0:
461,250,171853,1,10,0:2:0:0:
203,207,172007,6,0,P|174:145|163:67,1,119.999996337891,4|2,3:2|2:1,0:0:0:0:
191,15,172239,1,8,0:0:0:0:
191,15,172316,1,2,3:2:0:0:
69,136,172471,1,10,0:1:0:0:
271,81,172626,1,2,3:2:0:0:
96,40,172780,1,10,0:1:0:0:
196,180,172935,1,0,3:0:0:0:
365,125,173090,1,10,0:1:0:0:
457,294,173244,6,0,P|380:281|325:273,1,119.999996337891,6|10,3:2|0:1,0:0:0:0:
239,79,173554,2,0,P|264:132|274:196,1,119.999996337891,6|10,3:2|0:1,0:0:0:0:
220,270,173786,1,8,0:0:0:0:
220,270,173863,2,0,L|155:262,1,59.9999981689454,6|8,3:2|0:0,0:0:0:0:
48,195,174017,2,0,L|131:185,1,59.9999981689454,10|0,0:1|0:0,0:0:0:0:
167,87,174172,2,0,L|107:94,1,59.9999981689454,0|0,3:0|0:0,0:0:0:0:
199,174,174327,1,10,0:1:0:0:
199,174,174404,1,8,0:0:0:0:
199,174,174481,6,0,B|244:161|290:153|290:153|337:163|387:182,1,179.999994506836,6|0,3:2|1:0,0:0:0:0:
446,221,174791,1,0,3:0:0:0:
369,67,174945,1,2,2:0:0:0:
290,268,175100,1,0,3:0:0:0:
127,225,175255,1,2,2:0:0:0:
265,128,175409,1,0,3:0:0:0:
171,324,175564,1,2,2:0:0:0:
30,148,175718,6,0,L|168:124,1,119.999996337891,0|2,3:0|2:0,0:0:0:0:
346,143,176028,1,0,3:0:0:0:
211,232,176182,1,2,2:0:0:0:
290,47,176337,1,2,3:2:0:0:
382,240,176492,1,2,2:0:0:0:
290,47,176646,2,0,L|152:23,1,119.999996337891,2|0,3:2|2:0,0:0:0:0:
98,206,176956,5,4,3:2:0:0:
236,167,177110,1,2,2:0:0:0:
21,283,177265,1,0,3:0:0:0:
197,309,177420,1,2,2:0:0:0:
149,117,177574,1,4,3:2:0:0:
365,218,177729,2,0,L|236:201,1,119.999996337891,2|0,2:0|3:0,0:0:0:0:
341,83,178038,1,2,2:0:0:0:
370,79,178115,1,0,0:0:0:0:
400,76,178193,5,4,3:2:0:0:
206,23,178347,2,0,L|218:81,1,59.9999981689454,2|0,1:2|1:0,0:0:0:0:
246,202,178502,1,2,3:2:0:0:
92,338,178657,2,0,L|104:279,1,59.9999981689454,2|0,3:2|3:0,0:0:0:0:
131,158,178811,1,6,3:2:0:0:
381,143,178966,2,0,P|372:172|361:200,1,59.9999981689454,2|2,3:0|2:1,0:0:0:0:
294,295,179121,2,0,P|265:304|236:311,1,59.9999981689454,0|0,3:0|2:0,0:0:0:0:
104,279,179275,2,0,P|79:261|57:240,1,59.9999981689454,0|0,3:0|2:0,0:0:0:0:
49,105,179430,5,4,3:2:0:0:
49,105,179584,1,0,3:0:0:0:
187,20,179739,5,0,3:0:0:0:
185,33,179894,1,0,3:0:0:0:
301,64,180048,5,0,3:0:0:0:
294,91,180203,1,0,3:0:0:0:
144,111,180358,5,0,3:0:0:0:
165,163,180512,1,0,3:0:0:0:
366,155,180667,5,0,3:0:0:0:
323,222,180822,1,0,3:0:0:0:
128,240,180976,5,0,3:0:0:0:
203,313,181131,1,0,3:0:0:0:
410,283,181286,5,0,3:0:0:0:
297,344,181440,1,0,3:0:0:0:
79,358,181595,5,0,3:0:0:0:
385,380,181749,1,0,3:0:0:0:
230,206,181904,6,0,B|219:153|255:88|255:88|246:49|225:33|225:33|192:44|189:72,1,240,6|0,3:2|0:0,0:0:0:0:
364,306,182523,2,0,B|375:253|339:188|339:188|348:149|369:133|369:133|402:144|405:172,1,240,6|0,3:2|0:0,0:0:0:0:
160,344,183141,2,0,B|149:291|185:226|185:226|176:187|155:171|155:171|122:182|119:210,1,240,6|0,3:2|0:0,0:0:0:0:
276,317,183760,6,0,P|338:325|395:314,1,120,6|0,3:2|0:0,0:0:0:0:
450,256,184069,1,2,0:1:0:0:
456,237,184146,1,2,0:1:0:0:
460,217,184224,1,2,3:1:0:0:
463,197,184301,1,2,3:1:0:0:
462,180,184378,5,4,3:2:0:0:
329,54,184584,1,0,3:0:0:0:
287,233,184791,1,0,3:0:0:0:
417,93,184997,5,2,3:2:0:0:
209,80,185203,1,0,3:0:0:0:
302,266,185409,1,0,3:0:0:0:
318,102,185615,5,2,3:2:0:0:
233,308,185822,2,0,L|205:341,2,26.6666666666667
453,275,186028,1,0,3:0:0:0:
161,161,186234,5,2,3:2:0:0:
120,214,187471,6,0,P|168:201|217:204,1,100,0|0,1:0|1:0,0:0:0:0:
296,264,187703,1,0,1:0:0:0:
312,283,187780,5,0,1:0:0:0:
351,286,187858,1,0,1:0:0:0:
387,270,187935,1,0,1:0:0:0:
412,239,188012,1,0,1:0:0:0:
420,200,188090,6,0,P|411:129|394:79,1,119.999996337891,4|2,3:1|0:0,0:0:0:0:
342,25,188322,1,8,0:0:0:0:
342,25,188399,2,0,P|279:42|208:60,1,119.999996337891,0|10,3:0|0:0,0:0:0:0:
75,29,188708,1,0,3:0:0:0:
126,179,188863,1,10,0:0:0:0:
130,149,188940,1,0,0:0:0:0:
135,119,189017,1,0,3:0:0:0:
112,287,189172,1,10,0:0:0:0:
256,205,189327,5,2,3:2:0:0:
387,300,189481,2,0,P|402:252|407:223,1,59.9999981689454,10|0,0:0|0:0,0:0:0:0:
383,103,189636,1,0,3:0:0:0:
383,103,189791,2,0,P|329:77|269:68,1,119.999996337891,10|0,0:2|3:0,0:0:0:0:
54,190,190100,2,0,P|113:180|167:155,1,119.999996337891,10|0,0:2|3:0,0:0:0:0:
140,27,190409,1,10,0:0:0:0:
244,221,190564,5,4,3:1:0:0:
383,103,190718,1,0,0:0:0:0:
412,98,190796,1,8,0:0:0:0:
442,94,190873,1,0,3:0:0:0:
265,44,191028,1,10,0:0:0:0:
348,200,191182,2,0,P|401:238|466:259,1,119.999996337891,2|10,3:2|0:0,0:0:0:0:
321,305,191414,1,0,0:0:0:0:
304,307,191492,2,0,P|241:322|186:345,1,119.999996337891,0|10,3:0|0:0,0:0:0:0:
101,221,191801,6,0,L|87:141,1,59.9999981689454,6|0,3:2|0:0,0:0:0:0:
126,77,191956,1,8,0:2:0:0:
128,47,192033,1,0,0:0:0:0:
130,17,192110,1,0,3:0:0:0:
258,100,192265,6,0,P|294:113|323:117,1,59.9999981689454,10|0,0:0|0:0,0:0:0:0:
465,152,192420,2,0,P|429:165|400:169,1,59.9999981689454,2|0,3:1|0:0,0:0:0:0:
273,257,192574,2,0,P|309:221|325:207,1,59.9999981689454,2|8,0:0|0:0,0:0:0:0:
361,302,192729,1,0,3:0:0:0:
333,324,192806,1,0,0:0:0:0:
301,341,192883,1,10,0:0:0:0:
266,349,192961,1,0,0:0:0:0:
230,350,193038,6,0,P|165:328|102:314,1,119.999996337891,4|2,3:1|0:0,0:0:0:0:
24,316,193270,1,8,0:0:0:0:
24,316,193347,1,0,3:0:0:0:
158,132,193502,1,10,0:2:0:0:
79,211,193657,1,0,3:0:0:0:
42,74,193811,1,10,0:2:0:0:
185,235,193966,1,0,3:0:0:0:
266,33,194121,1,10,0:2:0:0:
428,173,194275,6,0,P|364:185|307:186,1,119.999996337891,4|10,3:1|0:0,0:0:0:0:
230,142,194507,1,0,0:0:0:0:
230,142,194584,2,0,P|171:130|111:128,1,119.999996337891,0|10,3:0|0:0,0:0:0:0:
307,71,194894,1,2,3:2:0:0:
217,246,195048,1,10,0:0:0:0:
217,246,195126,1,0,0:0:0:0:
217,246,195203,1,0,3:0:0:0:
182,26,195358,1,10,0:0:0:0:
380,133,195512,5,6,3:2:0:0:
182,167,195667,1,10,0:0:0:0:
182,167,195744,1,0,0:0:0:0:
182,167,195822,1,0,3:0:0:0:
325,239,195976,1,10,0:0:0:0:
244,93,196131,1,0,3:0:0:0:
231,362,196286,2,0,P|225:332|219:303,1,59.9999981689454,10|0,0:0|0:0,0:0:0:0:
206,189,196440,1,0,3:0:0:0:
257,35,196595,2,0,P|251:64|245:93,1,59.9999981689454,10|0,0:0|0:0,0:0:0:0:
232,208,196749,5,0,3:0:0:0:
232,208,196904,2,0,P|270:231|290:238,1,59.9999981689454,2|0,0:2|0:0,0:0:0:0:
400,234,197059,2,0,P|438:211|455:196,1,59.9999981689454,2|0,3:2|0:0,0:0:0:0:
497,99,197213,2,0,P|493:53|487:33,1,59.9999981689454,2|10,0:2|0:0,0:0:0:0:
360,38,197368,5,2,3:2:0:0:
343,69,197445,1,0,0:0:0:0:
317,94,197523,1,10,0:0:0:0:
284,108,197600,1,2,0:0:0:0:
248,112,197677,1,0,3:0:0:0:
213,104,197755,1,2,0:0:0:0:
181,87,197832,1,2,0:2:0:0:
144,90,197909,1,0,0:0:0:0:
114,111,197987,6,0,P|113:180|116:240,1,119.999996337891,4|0,3:2|2:0,0:0:0:0:
239,344,198296,2,0,P|240:284|237:224,1,119.999996337891,0|0,3:0|2:0,0:0:0:0:
215,53,198605,1,0,3:0:0:0:
299,147,198760,1,0,2:0:0:0:
157,213,198914,1,0,3:0:0:0:
219,95,199069,1,0,2:0:0:0:
364,244,199224,6,0,P|304:239|244:233,1,119.999996337891,2|0,3:2|2:0,0:0:0:0:
51,316,199533,2,0,P|110:311|170:305,1,119.999996337891,0|0,3:0|2:0,0:0:0:0:
457,349,199842,2,0,P|397:345|337:339,1,119.999996337891,2|0,3:2|2:0,0:0:0:0:
258,138,200151,1,0,3:0:0:0:
440,90,200306,1,2,2:1:0:0:
433,119,200383,1,2,2:1:0:0:
426,148,200461,5,6,3:1:0:0:
303,233,200615,1,2,2:1:0:0:
325,89,200770,1,0,3:0:0:0:
451,276,200925,1,2,2:1:0:0:
243,334,201079,6,0,P|206:261|196:143,1,179.999994506836,4|0,3:2|0:0,0:0:0:0:
255,93,201389,2,0,L|383:100,1,119.999996337891,0|2,3:0|2:1,0:0:0:0:
466,111,201621,1,0,0:0:0:0:
466,111,201698,1,0,3:0:0:0:
350,226,201853,6,0,P|324:210|301:190,1,59.9999981689454,2|2,1:0|2:1,0:0:0:0:
189,208,202007,2,0,P|181:178|179:148,1,59.9999981689454,0|0,3:0|2:0,0:0:0:0:
87,81,202162,2,0,P|102:55|122:32,1,59.9999981689454,0|0,3:0|3:0,0:0:0:0:
277,15,202316,1,4,3:2:0:0:
441,116,202471,1,8,3:0:0:0:
457,145,202548,1,0,0:0:0:0:
465,179,202626,1,8,3:0:0:0:
464,213,202703,1,0,0:0:0:0:
454,245,202780,1,4,3:0:0:0:
436,274,202858,1,0,0:0:0:0:
410,297,202935,6,0,B|358:315|303:274|303:274|317:319|317:319|235:273|209:322|200:365|243:379,1,320,4|2,3:1|2:0,0:0:0:0:
373,209,203863,1,2,2:0:0:0:
281,92,204017,1,0,3:0:0:0:
281,92,204095,1,0,3:0:0:0:
281,92,204172,6,0,B|246:148|264:208|264:208|226:177|226:177|223:230|160:273|108:238,1,320,6|2,3:2|2:0,0:0:0:0:
142,162,204945,1,8,3:0:0:0:
222,315,205100,1,8,3:0:0:0:
50,305,205255,1,4,3:0:0:0:
346,231,205409,5,4,0:0:0:0:
145,162,205718,5,0,0:0:0:0:
407,139,205873,1,0,0:0:0:0:
85,73,206182,5,0,0:0:0:0:
343,25,206492,5,0,0:0:0:0:
237,248,206801,5,0,3:0:0:0:
249,9,206956,1,0,0:0:0:0:
321,296,207110,1,0,0:0:0:0:
83,184,207265,1,0,0:0:0:0:
216,112,207420,1,0,0:0:0:0:
216,112,207497,1,0,0:0:0:0:
216,112,207574,1,0,0:0:0:0:
294,179,207729,1,0,0:0:0:0:
467,42,207883,5,4,0:0:0:0:
246,248,208193,5,0,0:0:0:0:
345,41,208347,1,0,0:0:0:0:
296,341,208657,5,0,0:0:0:0:
113,211,208966,5,4,0:0:0:0:
386,227,209275,5,4,0:0:0:0:
66,288,209584,5,0,0:0:0:0:
217,128,209739,2,0,B|238:83|242:64|242:64|235:124|266:207,1,200,4|0,0:0|0:0,0:0:0:0:
397,232,210203,1,2,2:0:0:0:
397,232,210280,1,2,2:0:0:0:
397,232,210358,6,0,P|441:179|447:114,1,119.999996337891,4|0,0:0|0:0,0:0:0:0:
426,45,210590,1,8,0:0:0:0:
426,45,210667,2,0,P|357:22|296:27,1,119.999996337891,2|8,3:2|0:0,0:0:0:0:
226,88,210899,1,0,0:0:0:0:
226,88,210976,2,0,P|176:109|146:108,1,59.9999981689454,2|0,3:2|0:0,0:0:0:0:
81,104,211131,2,0,P|51:97|25:82,1,59.9999981689454,8|0,0:0|0:0,0:0:0:0:
126,23,211286,1,2,3:2:0:0:
261,204,211440,1,8,0:0:0:0:
261,204,211517,1,0,0:0:0:0:
261,204,211595,6,0,P|325:197|404:192,1,119.999996337891,2|8,3:2|0:0,0:0:0:0:
374,279,211827,1,0,0:0:0:0:
374,279,211904,2,0,P|438:272|517:267,1,119.999996337891,2|8,3:2|0:0,0:0:0:0:
461,359,212136,1,0,0:0:0:0:
461,359,212213,2,0,P|431:361|401:365,1,59.9999981689454,2|0,3:2|0:0,0:0:0:0:
308,345,212368,2,0,P|278:347|248:351,1,59.9999981689454,8|0,0:0|0:0,0:0:0:0:
151,298,212523,1,2,3:2:0:0:
35,362,212677,1,8,0:0:0:0:
35,362,212755,1,0,0:0:0:0:
34,361,212832,6,0,P|17:304|18:244,1,119.999996337891,2|8,3:2|0:0,0:0:0:0:
77,176,213064,1,0,0:0:0:0:
77,176,213141,2,0,P|146:191|205:200,1,119.999996337891,2|8,3:2|0:0,0:0:0:0:
271,254,213373,1,0,0:0:0:0:
271,254,213450,2,0,P|311:228|324:216,1,59.9999981689454,2|0,3:2|0:0,0:0:0:0:
402,267,213605,2,0,P|411:220|412:202,1,59.9999981689454,8|0,0:0|0:0,0:0:0:0:
470,135,213760,1,2,3:2:0:0:
453,103,213837,1,0,0:0:0:0:
423,83,213914,1,8,0:0:0:0:
388,81,213992,1,0,0:0:0:0:
356,97,214069,5,4,3:2:0:0:
320,219,214224,1,8,0:0:0:0:
113,179,214378,2,0,P|153:166|195:158,1,59.9999981689454,4|0,3:2|0:0,0:0:0:0:
356,97,214533,2,0,P|326:89|298:80,1,59.9999981689454,8|0,0:0|0:0,0:0:0:0:
197,22,214688,1,4,3:2:0:0:
197,22,214997,5,8,0:0:0:0:
190,57,215074,1,0,0:0:0:0:
183,92,215151,1,0,0:0:0:0:
177,128,215229,1,0,0:0:0:0:
171,163,215306,6,0,P|179:243|190:312,1,119.999996337891,4|0,3:1|0:0,0:0:0:0:
276,244,215538,1,8,0:0:0:0:
276,244,215615,2,0,P|337:226|404:232,1,119.999996337891,2|8,3:2|0:0,0:0:0:0:
475,268,215847,1,0,0:0:0:0:
475,267,215925,2,0,P|482:237|485:208,1,59.9999981689454,2|0,3:2|0:0,0:0:0:0:
431,137,216079,2,0,P|423:107|420:78,1,59.9999981689454,8|0,0:0|0:0,0:0:0:0:
486,12,216234,1,2,3:2:0:0:
315,123,216389,1,8,0:0:0:0:
315,123,216466,1,0,0:0:0:0:
315,123,216543,6,0,P|236:114|167:104,1,119.999996337891,2|8,3:2|0:0,0:0:0:0:
130,44,216775,1,0,0:0:0:0:
130,44,216853,2,0,P|110:125|96:179,1,119.999996337891,2|8,3:2|0:0,0:0:0:0:
40,227,217084,1,0,0:0:0:0:
40,227,217162,2,0,P|47:268|51:298,1,59.9999981689454,2|0,3:2|0:0,0:0:0:0:
134,368,217316,2,0,P|138:338|144:308,1,59.9999981689454,8|0,0:0|0:0,0:0:0:0:
237,256,217471,1,2,3:2:0:0:
366,323,217626,1,8,0:0:0:0:
366,323,217703,1,0,0:0:0:0:
366,323,217780,6,0,P|380:246|391:183,1,119.999996337891,2|8,3:2|0:0,0:0:0:0:
475,186,218012,1,0,0:0:0:0:
475,186,218090,2,0,P|441:99|428:57,1,119.999996337891,2|8,3:2|0:0,0:0:0:0:
344,93,218322,1,0,0:0:0:0:
344,93,218399,2,0,P|314:87|285:78,1,59.9999981689454,2|0,3:2|0:0,0:0:0:0:
202,29,218554,2,0,P|172:34|143:43,1,59.9999981689454,8|0,0:0|0:0,0:0:0:0:
78,108,218708,1,2,3:2:0:0:
93,140,218786,1,0,0:0:0:0:
101,175,218863,1,8,0:0:0:0:
100,211,218940,1,0,0:0:0:0:
92,246,219017,5,4,3:2:0:0:
0,174,219172,1,8,0:0:0:0:
200,262,219327,1,4,3:2:0:0:
23,319,219481,1,8,0:0:0:0:
388,268,219636,2,0,P|345:193|319:290,1,239.999992675781,4|6,3:2|0:0,0:0:0:0:
