osu file format v14

[General]
AudioFilename: mp3.mp3
AudioLeadIn: 0
PreviewTime: 188038
Countdown: 0
SampleSet: Soft
StackLeniency: 0.7
Mode: 0
LetterboxInBreaks: 0
WidescreenStoryboard: 1

[Editor]
DistanceSpacing: 1
BeatDivisor: 4
GridSize: 4
TimelineZoom: 3

[Metadata]
Title:Super nuko ni naritai
TitleUnicode:すーぱーぬこになりたい
Artist:nayuta & yuikonnu
ArtistUnicode:nayuta&ゆいこんぬ
Creator:Pho
Version:alacat's Normal
Source:
Tags:meow まふまふ にゃん mafumafu nya まふてる mafuteru nyaa neko i want to become a super alacat nyan milan- nyan appleeaterx nyan pkk nyan nyan nyan nyan
BeatmapID:1360930
BeatmapSetID:494097

[Difficulty]
HPDrainRate:4
CircleSize:3.6
OverallDifficulty:4
ApproachRate:5
SliderMultiplier:1.1
SliderTickRate:1

[Events]
//Background and Video events
0,0,"bg.jpg",0,0
Video,0,"niboshi.avi"
//Break Periods
2,44784,50807
2,105403,111426
2,134784,143590
//Storyboard Layer 0 (Background)
//Storyboard Layer 1 (Fail)
//Storyboard Layer 2 (Pass)
//Storyboard Layer 3 (Foreground)
//Storyboard Sound Samples

[TimingPoints]
1285.82544421139,309.278350515464,4,2,1,50,1,0
3450,-100,4,2,1,40,0,0
3760,-100,4,2,1,50,0,0
5925,-100,4,2,1,50,0,0
6234,-100,4,2,1,50,0,0
8399,-100,4,2,1,50,0,0
8708,-100,4,2,1,50,0,0
10873,-100,4,2,1,50,0,0
11105,-100,4,2,1,5,0,0
11182,-100,4,2,1,50,0,0
13656,-100,4,2,42,60,0,0
13734,-100,4,2,1,70,0,0
18605,-100,4,2,42,60,0,0
18682,-100,4,2,1,70,0,0
23553,-100,4,2,1,50,0,0
24790,-100,4,2,1,70,0,0
29739,-100,4,2,1,60,0,0
30048,-100,4,2,1,60,0,0
30358,-100,4,2,1,60,0,0
30667,-100,4,2,1,60,0,0
30976,-100,4,2,1,60,0,0
31286,-100,4,2,1,60,0,0
31595,-100,4,2,1,60,0,0
31904,-100,4,2,1,60,0,0
32213,-100,4,2,1,60,0,0
32523,-100,4,2,1,60,0,0
32832,-100,4,2,1,60,0,0
33141,-100,4,2,1,60,0,0
34688,-100,4,2,1,70,0,0
36543,-100,4,2,1,60,0,0
37162,-100,4,2,1,70,0,0
39327,-100,4,2,1,60,0,0
39636,-100,4,2,1,70,0,0
39945,-100,4,2,1,70,0,0
40873,-100,4,2,1,70,0,0
41182,-100,4,2,1,70,0,0
42110,-100,4,2,1,70,0,0
42419,-100,4,2,1,70,0,0
43347,-100,4,2,1,80,0,0
44662,-100,4,2,1,65,0,0
52007,-100,4,2,1,70,0,0
54481,-100,4,2,42,60,0,1
54559,-100,4,2,2,80,0,1
64378,-100,4,2,42,60,0,1
64455,-100,4,2,2,80,0,1
68476,-100,4,2,3,80,0,1
69327,-100,4,2,1,60,0,0
69404,-100,4,2,1,60,0,0
71801,-100,4,2,2,60,0,0
73966,-100,4,2,3,60,0,0
74275,-100,4,2,42,50,0,0
74352,-100,4,2,1,70,0,0
84172,-100,4,2,1,50,0,0
84481,-100,4,2,1,60,0,0
84790,-100,4,2,1,50,0,0
85409,-100,4,2,1,70,0,0
90048,-100,4,2,3,70,0,0
90280,-100,4,2,3,70,0,0
90357,-100,4,2,1,70,0,0
90435,-100,4,2,1,60,0,0
91595,-100,4,2,1,55,0,0
92832,-100,4,2,1,50,0,0
93450,-100,4,2,1,65,0,0
93760,-100,4,2,1,60,0,0
95306,-100,4,2,1,70,0,0
97316,-100,4,2,1,60,0,0
97780,-100,4,2,1,70,0,0
103888,-100,4,2,1,70,0,0
103966,-100,4,2,1,80,0,0
105126,-100,4,2,1,10,0,0
105203,-100,4,2,1,80,0,0
105280,-100,4,2,1,65,0,0
107368,-100,4,2,1,65,0,0
107677,-100,4,2,1,65,0,0
112007,-100,4,2,1,65,0,0
112626,-100,4,2,1,75,0,0
113863,-100,4,2,2,75,0,0
115100,-100,4,2,42,60,0,1
115177,-100,4,2,2,80,0,1
124997,-100,4,2,42,60,0,1
125074,-100,4,2,2,80,0,1
129636,-100,4,2,3,80,0,1
129790,-100,4,2,2,80,0,1
129945,-100,4,2,1,60,0,0
130022,-100,4,2,1,60,0,0
131955,-100,4,2,3,60,0,0
132419,-100,4,2,1,60,0,0
134894,-100,4,2,1,50,0,0
144790,-100,4,2,1,60,0,0
154687,-100,4,2,1,60,0,0
154919,-100,4,2,1,10,0,0
154997,-100,4,2,1,60,0,0
156814,-100,4,2,1,5,0,0
156852,-100,4,2,1,60,0,0
157123,-100,4,2,1,5,0,0
157162,-100,4,2,1,60,0,0
159288,-100,4,2,1,5,0,0
159327,-100,4,2,1,60,0,0
159597,-100,4,2,1,5,0,0
159636,-100,4,2,1,60,0,0
161801,-100,4,2,1,40,0,0
161917,-100,4,2,1,10,0,0
161955,-100,4,2,1,45,0,0
162071,-100,4,2,1,10,0,0
162110,-100,4,2,1,50,0,0
162226,-100,4,2,1,10,0,0
162265,-100,4,2,1,55,0,0
162381,-100,4,2,1,10,0,0
162419,-100,4,2,1,60,0,0
162535,-100,4,2,1,10,0,0
162574,-100,4,2,1,65,0,0
162690,-100,4,2,1,10,0,0
162729,-100,4,2,1,70,0,0
162845,-100,4,2,1,10,0,0
162883,-100,4,2,1,75,0,0
162999,-100,4,2,1,10,0,0
163038,-100,4,2,1,80,0,0
163347,-100,4,2,1,70,0,0
164275,-100,4,2,1,80,0,0
164584,-100,4,2,2,80,0,0
174481,-100,4,2,1,80,0,0
174790,-100,4,2,2,80,0,0
176955,-100,4,2,1,80,0,0
177110,-100,4,2,2,80,0,0
177574,-100,4,2,1,80,0,0
177729,-100,4,2,1,80,0,0
178193,-100,4,2,2,80,0,0
178347,-100,4,2,1,80,0,0
178811,-100,4,2,1,80,0,0
179430,-100,4,2,1,80,0,0
179739,-100,4,2,1,40,0,0
180048,-100,4,2,1,45,0,0
180357,-100,4,2,1,50,0,0
180667,-100,4,2,1,55,0,0
180976,-100,4,2,1,60,0,0
181131,-100,4,2,1,65,0,0
181285,-100,4,2,1,70,0,0
181440,-100,4,2,1,75,0,0
181595,-100,4,2,1,80,0,0
181749,-100,4,2,1,85,0,0
181904,-100,4,2,1,90,0,0
182213,-100,4,2,1,30,0,0
182368,-100,4,2,1,90,0,0
182832,-100,4,2,1,30,0,0
183141,-100,4,2,1,90,0,0
183450,-100,4,2,1,30,0,0
183605,-100,4,2,1,90,0,0
187471,-100,4,2,1,40,0,0
188089,-100,4,2,42,60,0,1
188167,-100,4,2,2,80,0,1
197986,-100,4,2,42,60,0,1
198064,-100,4,2,1,80,0,1
202935,-100,4,2,1,50,0,0
204945,-100,4,2,3,50,0,0
205409,-100,4,2,2,50,0,0
207265,-100,4,2,1,50,0,0
207883,-100,4,2,1,50,0,0
208115,-100,4,2,1,5,0,0
208193,-100,4,2,1,50,0,0
209739,-100,4,2,1,70,0,0
210203,-100,4,2,2,50,0,0
210357,-100,4,2,2,50,0,0
210435,-100,4,2,1,50,0,0
219945,-100,4,1,42,100,0,0

[Colours]
Combo1 : 0,64,128
Combo2 : 240,57,208
Combo3 : 71,181,60
Combo4 : 243,39,90
Combo5 : 48,155,220
Combo6 : 255,159,64
Combo7 : 255,255,66
Combo8 : 81,101,104

[HitObjects]
488,200,1285,6,0,P|456:236|439:297,1,110,2|2,0:1|0:1,0:0:0:0:
388,312,1749,2,0,P|352:280|290:263,1,110,2|2,0:1|0:1,0:0:0:0:
196,312,2368,2,0,P|143:298|101:263,1,110,2|2,0:1|0:1,0:0:0:0:
64,160,2986,1,2,0:1:0:0:
64,160,3141,2,0,L|80:48,1,110,0|0,0:0|0:1,0:0:0:0:
188,28,3760,6,0,L|300:44,1,110,0|0,3:0|3:0,0:0:0:0:
228,128,4378,2,0,L|340:144,1,110,0|0,3:0|3:0,0:0:0:0:
442,110,4997,1,0,3:0:0:0:
488,208,5306,1,0,3:0:0:0:
384,240,5615,2,0,L|396:296,1,55,2|2,3:2|0:2,0:0:0:0:
368,340,5925,2,0,L|312:352,1,55,2|0,3:2|0:0,0:0:0:0:
264,328,6234,6,0,P|208:328|160:352,1,110,0|0,3:0|3:0,0:0:0:0:
84,272,6852,2,0,P|112:223|115:169,1,110,0|0,3:0|3:0,0:0:0:0:
24,108,7471,1,2,3:0:0:0:
120,56,7780,1,0,0:0:0:0:
212,116,8089,2,0,L|272:108,1,55,2|2,3:0|3:0,0:0:0:0:
316,132,8399,2,0,P|328:156|336:192,1,55,0|0,3:0|0:0,0:0:0:0:
320,236,8708,5,0,3:0:0:0:
372,332,9017,1,0,3:0:0:0:
480,312,9327,2,0,P|508:264|508:208,1,110,0|0,3:0|3:0,0:0:0:0:
432,132,9945,1,0,3:0:0:0:
335,183,10254,1,0,3:0:0:0:
248,116,10564,2,0,L|260:60,1,55,2|2,3:2|3:2,0:0:0:0:
232,16,10874,2,0,L|176:4,1,55,2|0,3:2|0:0,0:0:0:0:
128,28,11182,5,0,0:0:0:0:
60,112,11492,2,0,L|60:172,1,55,0|0,3:0|3:0,0:0:0:0:
21,205,11801,2,0,L|21:265,1,55,0|0,3:0|3:0,0:0:0:0:
59,298,12110,2,0,P|107:318|163:298,1,110,0|0,3:0|3:0,0:0:0:0:
312,144,13038,2,0,P|360:124|416:144,1,110,8|8,0:0|0:0,0:0:0:0:
488,220,13656,6,0,L|468:328,2,110,12|0|0,0:1|3:0|3:0,0:0:0:0:
512,112,14584,1,2,3:2:0:0:
424,44,14894,2,0,B|368:44|368:44|320:68,1,110,0|0,3:0|3:0,0:0:0:0:
256,156,15512,1,0,3:0:0:0:
156,112,15821,1,2,3:2:0:0:
80,192,16131,6,0,L|96:304,1,110,0|0,3:0|3:0,0:0:0:0:
200,336,16749,2,0,L|184:227,1,110,0|0,3:0|3:2,0:0:0:0:
280,176,17368,2,0,L|336:176,1,55,4|10,3:0|0:0,0:0:0:0:
373,214,17677,2,0,L|429:214,2,55,4|10|4,3:0|0:0|3:0,0:0:0:0:
280,272,18296,2,0,L|292:328,1,55,0|0,3:0|3:0,0:0:0:0:
304,380,18605,6,0,L|196:360,1,110,8|0,0:1|3:0,0:0:0:0:
88,340,19223,1,0,3:0:0:0:
60,232,19533,1,2,3:2:0:0:
128,148,19842,2,0,L|236:168,2,110,0|0|0,3:0|3:0|3:0,0:0:0:0:
20,132,20770,1,2,3:2:0:0:
92,48,21079,6,0,B|132:40|132:40|204:52,1,110,0|0,3:0|3:0,0:0:0:0:
308,24,21698,2,0,L|416:44,1,110,0|2,3:0|3:2,0:0:0:0:
492,124,22316,2,0,L|480:180,1,55,4|10,3:0|0:0,0:0:0:0:
440,212,22626,2,0,L|452:268,1,55,4|10,3:0|0:0,0:0:0:0:
440,320,22935,1,2,0:1:0:0:
264,192,23553,6,0,B|220:188|168:140|168:140|188:248,1,220,0|0,0:0|0:0,0:0:0:0:
208,356,24481,1,8,0:0:0:0:
296,292,24790,6,0,P|352:292|408:316,1,110,4|0,3:0|3:0,0:0:0:0:
448,344,25254,1,8,0:0:0:0:
448,344,25409,2,0,L|432:236,1,110,0|0,3:3|3:0,0:0:0:0:
368,144,26028,2,0,L|384:36,2,110,0|0|0,3:0|3:0|3:0,0:0:0:0:
256,332,27265,5,4,3:0:0:0:
172,264,27574,2,0,L|116:272,1,55,0|8,3:0|0:0,0:0:0:0:
68,244,27883,2,0,P|56:188|68:136,1,110,0|0,3:0|3:0,0:0:0:0:
136,52,28502,2,0,L|24:40,2,110,0|0|0,3:0|3:0|3:0,0:0:0:0:
244,64,29430,1,8,0:3:0:0:
348,28,29739,6,0,P|404:28|452:52,1,110,4|8,3:0|0:0,0:0:0:0:
428,160,30357,2,0,P|372:160|324:136,1,110,0|8,3:0|0:0,0:0:0:0:
244,64,30976,2,0,L|136:80,1,110,0|8,3:0|0:0,0:0:0:0:
96,184,31595,2,0,L|204:168,1,110,0|8,3:0|0:0,0:0:0:0:
292,224,32213,6,0,B|308:280|308:280|292:332,1,110,0|8,3:0|0:0,0:0:0:0:
192,372,32832,2,0,B|176:316|176:316|192:264,1,110,0|8,3:0|0:0,0:0:0:0:
292,224,33450,2,0,L|400:240,1,110,0|8,3:0|0:0,0:0:0:0:
488,308,34069,1,4,3:0:0:0:
488,308,34378,1,4,3:0:0:0:
384,348,34687,6,0,P|328:328|276:328,1,110,6|0,3:2|3:0,0:0:0:0:
232,356,35151,1,10,0:0:0:0:
232,356,35306,2,0,L|120:356,1,110,0|0,3:0|3:0,0:0:0:0:
64,260,35925,2,0,L|174:260,2,110,0|0|2,3:0|3:0|3:2,0:0:0:0:
12,164,36852,1,2,0:3:0:0:
92,88,37162,6,0,P|152:88|200:120,1,110,4|0,3:0|3:0,0:0:0:0:
224,160,37626,1,10,0:0:0:0:
224,160,37780,2,0,P|268:132|328:132,1,110,0|2,3:0|3:2,0:0:0:0:
424,180,38399,2,0,L|408:68,2,110,0|2|0,3:0|3:2|3:0,0:0:0:0:
440,288,39327,2,0,L|384:272,1,55,12|0,0:3|0:0,0:0:0:0:
332,264,39636,6,0,L|347:372,2,110,4|8|0,3:0|0:0|3:0,0:0:0:0:
316,156,40564,2,0,L|260:168,1,55,10|0,0:0|0:0,0:0:0:0:
208,180,40873,1,0,3:0:0:0:
100,200,41182,1,10,0:0:0:0:
28,116,41492,1,0,3:0:0:0:
84,20,41801,2,0,L|140:32,1,55,10|8,0:0|0:0,0:0:0:0:
176,72,42110,6,0,P|228:56|284:56,1,110,0|8,3:0|0:0,0:0:0:0:
376,116,42729,1,0,3:0:0:0:
480,84,43038,1,10,0:0:0:0:
460,192,43347,2,0,L|476:244,1,55,4|0,3:0|0:0,0:0:0:0:
440,288,43656,2,0,L|456:340,2,55,4|0|4,0:0|0:0|3:0,0:0:0:0:
348,228,44275,2,0,L|332:176,1,55,12|8,0:0|0:0,0:0:0:0:
316,124,44584,5,4,3:0:0:0:
212,320,52007,6,0,L|56:264,1,165,4|0,3:0|3:0,0:0:0:0:
36,212,52626,2,0,L|162:104,1,165,4|0,3:0|3:0,0:0:0:0:
216,120,53244,2,0,L|236:176,1,55,12|0,0:0|3:0,0:0:0:0:
284,196,53553,2,0,L|304:252,1,55,12|0,0:3|3:0,0:0:0:0:
348,280,53863,2,0,P|400:284|444:248,1,110,12|8,0:0|0:0,0:0:0:0:
488,148,54481,6,0,L|456:40,1,110,12|0,0:1|3:0,0:0:0:0:
348,28,55100,2,0,L|379:133,1,110,0|2,3:0|3:3,0:0:0:0:
304,212,55718,2,0,P|248:196|192:196,1,110,0|0,3:0|3:0,0:0:0:0:
152,228,56182,1,10,0:3:0:0:
56,172,56492,2,0,L|36:284,1,110,10|8,0:3|0:0,0:0:0:0:
72,320,56955,6,0,P|128:320|180:340,1,110,4|0,3:3|3:0,0:0:0:0:
268,276,57574,2,0,P|319:256|374:257,1,110,0|2,3:0|3:3,0:0:0:0:
472,304,58193,2,0,L|456:196,1,110,0|0,3:0|3:0,0:0:0:0:
448,140,58656,1,10,0:3:0:0:
408,104,58811,2,0,P|352:104|300:128,1,110,0|0,3:0|3:0,0:0:0:0:
204,172,59430,6,0,P|148:172|96:148,1,110,4|0,3:3|3:0,0:0:0:0:
56,116,59894,2,0,L|44:228,1,110,10|10,0:3|0:3,0:0:0:0:
28,336,60512,2,0,B|72:368|72:368|128:368,1,110,8|10,0:3|0:3,0:0:0:0:
164,328,60976,2,0,L|220:328,1,55,0|10,3:0|0:3,0:0:0:0:
257,289,61285,1,0,3:0:0:0:
328,372,61595,2,0,L|384:372,1,55,2|10,3:3|0:3,0:0:0:0:
432,348,61904,6,0,P|464:300|464:248,1,110,6|0,3:3|3:0,0:0:0:0:
428,208,62368,1,10,0:3:0:0:
428,208,62522,2,0,L|368:216,2,55,0|10|2,3:0|0:3|3:3,0:0:0:0:
384,108,63141,2,0,L|328:100,1,55,4|8,3:0|0:0,0:0:0:0:
284,132,63450,2,0,L|228:124,1,55,4|8,3:0|0:0,0:0:0:0:
188,88,63760,2,0,P|132:88|84:120,1,110,4|4,3:0|3:0,0:0:0:0:
52,160,64223,1,12,0:0:0:0:
40,212,64378,6,0,L|60:320,1,110,8|0,3:1|3:0,0:0:0:0:
160,368,64997,2,0,B|208:336|208:336|260:336,1,110,0|0,3:0|3:0,0:0:0:0:
299,297,65461,1,2,0:3:0:0:
299,297,65615,2,0,L|411:297,1,110,0|0,3:0|3:0,0:0:0:0:
464,297,66079,1,2,0:3:0:0:
496,192,66388,2,0,L|384:192,1,110,2|10,0:3|0:3,0:0:0:0:
347,153,66852,6,0,L|347:97,2,55,6|0|8,3:3|0:0|3:0,0:0:0:0:
308,191,67316,1,0,0:0:0:0:
308,191,67471,2,0,B|256:191|256:191|208:160,1,110,6|8,3:0|3:0,0:0:0:0:
164,124,67935,1,10,0:3:0:0:
164,124,68089,2,0,P|108:124|56:152,1,110,4|8,3:0|0:0,0:0:0:0:
28,252,68708,1,4,0:0:0:0:
28,252,69017,1,4,0:3:0:0:
108,324,69327,6,0,P|160:304|216:304,1,110,4|0,0:3|0:0,0:0:0:0:
316,340,69945,2,0,P|296:288|296:232,1,110,2|0,0:3|0:0,0:0:0:0:
384,172,70564,2,0,L|496:188,2,110,4|0|0,0:0|0:0|0:3,0:0:0:0:
296,104,71492,2,0,L|240:112,1,55,2|2,0:3|0:3,0:0:0:0:
192,88,71801,6,0,L|172:200,1,110,2|2,3:0|3:0,0:0:0:0:
160,248,72265,1,2,0:3:0:0:
56,284,72574,1,2,3:0:0:0:
0,188,72883,2,0,L|19:79,1,110,2|2,3:0|3:0,0:0:0:0:
64,44,73347,2,0,L|120:52,1,55,0|2,3:0|3:0,0:0:0:0:
168,24,73656,1,2,3:0:0:0:
256,92,73966,1,8,0:3:0:0:
156,140,74275,6,0,L|136:248,2,110,12|0|0,0:1|3:0|3:0,0:0:0:0:
256,92,75203,1,2,3:2:0:0:
356,48,75512,2,0,P|408:48|460:80,1,110,0|0,3:0|3:0,0:0:0:0:
504,176,76131,1,0,3:0:0:0:
432,256,76440,1,2,3:2:0:0:
336,204,76750,6,0,L|224:220,1,110,0|0,3:0|0:0,0:0:0:0:
248,112,77368,2,0,L|136:128,1,110,0|0,3:0|3:0,0:0:0:0:
64,208,77987,2,0,L|53:262,1,55,4|8,3:0|0:0,0:0:0:0:
84,306,78296,2,0,L|73:360,2,55,4|8|4,3:0|0:0|0:0,0:0:0:0:
180,252,78915,2,0,L|192:308,1,55,0|0,3:0|3:0,0:0:0:0:
236,340,79224,6,0,P|284:320|344:320,1,110,4|0,3:0|3:0,0:0:0:0:
444,356,79842,1,0,3:0:0:0:
480,252,80152,1,0,3:0:0:0:
376,216,80461,2,0,L|268:236,2,110,0|0|0,3:0|3:0|3:0,0:0:0:0:
460,148,81389,1,8,3:2:0:0:
360,104,81698,6,0,L|252:124,1,110,0|0,3:0|3:0,0:0:0:0:
188,32,82317,2,0,L|80:52,1,110,0|0,3:0|3:0,0:0:0:0:
24,148,82935,2,0,L|36:204,1,55,4|8,3:0|0:0,0:0:0:0:
76,236,83245,2,0,L|64:292,1,55,4|8,3:0|0:0,0:0:0:0:
76,344,83554,1,4,0:0:0:0:
256,220,84172,6,0,L|256:164,1,55,0|0,0:0|0:0,0:0:0:0:
256,108,84481,1,2,0:3:0:0:
360,72,84790,2,0,L|360:132,1,55,0|0,0:0|0:0,0:0:0:0:
404,164,85100,2,0,L|404:220,1,55,0|0,0:0|0:0,0:0:0:0:
380,268,85409,6,0,P|328:276|284:312,1,110,4|0,3:0|3:0,0:0:0:0:
264,364,85873,1,8,0:0:0:0:
264,364,86028,2,0,L|156:348,1,110,0|0,3:0|3:0,0:0:0:0:
76,272,86647,2,0,P|52:224|60:168,2,110,0|0|0,3:0|0:0|3:0,0:0:0:0:
288,220,87884,5,4,0:3:0:0:
360,304,88193,2,0,L|416:312,1,55,8|8,3:2|0:0,0:0:0:0:
464,284,88502,2,0,P|476:228|464:176,1,110,0|0,3:0|3:0,0:0:0:0:
396,92,89121,2,0,L|508:80,2,110,0|0|0,3:0|3:0|3:0,0:0:0:0:
288,104,90049,1,12,0:3:0:0:
240,204,90358,6,0,L|224:312,1,110,4|8,3:0|0:0,0:0:0:0:
312,380,90977,2,0,L|328:272,1,110,0|8,3:0|0:0,0:0:0:0:
348,164,91596,2,0,P|396:187|451:187,1,110,0|8,3:0|0:0,0:0:0:0:
472,80,92214,2,0,P|423:56|368:56,1,110,0|0,3:0|0:0,0:0:0:0:
264,92,92832,6,0,B|208:108|208:108|156:92,1,110,0|8,3:0|0:0,0:0:0:0:
64,40,93451,2,0,B|48:89|48:89|64:145,1,110,0|8,3:0|0:0,0:0:0:0:
160,200,94069,2,0,L|144:308,1,110,2|2,3:1|3:1,0:0:0:0:
232,376,94688,1,6,3:1:0:0:
232,376,94997,1,6,3:1:0:0:
320,312,95306,6,0,P|374:313|426:332,1,110,4|0,3:0|3:0,0:0:0:0:
472,364,95770,1,10,0:0:0:0:
472,364,95925,2,0,L|446:254,1,110,0|0,3:0|3:0,0:0:0:0:
420,148,96544,2,0,L|310:148,1,110,0|0,3:0|0:0,0:0:0:0:
236,232,97162,1,0,3:0:0:0:
236,232,97316,2,0,L|244:288,2,55,0|0|0,0:0|0:0|0:0,0:0:0:0:
200,192,97781,6,0,P|140:192|92:224,1,110,4|0,3:0|0:0,0:0:0:0:
56,256,98245,1,10,0:0:0:0:
56,256,98399,2,0,P|28:212|28:152,1,110,2|2,3:0|0:0,0:0:0:0:
92,68,99017,1,0,3:0:0:0:
92,68,99327,2,0,L|204:80,1,110,2|0,3:2|3:0,0:0:0:0:
292,140,99946,2,0,L|348:132,1,55,8|0,0:3|0:0,0:0:0:0:
400,120,100255,6,0,L|385:228,1,110,4|8,3:0|0:0,0:0:0:0:
372,336,100873,1,0,3:0:0:0:
280,276,101183,2,0,L|224:288,1,55,10|0,0:0|0:0,0:0:0:0:
188,324,101492,1,0,3:0:0:0:
80,344,101801,1,8,0:0:0:0:
20,252,102111,1,0,3:0:0:0:
84,164,102420,2,0,L|72:108,1,55,10|2,0:0|0:0,0:0:0:0:
100,60,102729,6,0,P|152:44|208:44,1,110,0|10,3:0|0:0,0:0:0:0:
268,136,103348,1,0,3:2:0:0:
368,88,103657,1,10,0:0:0:0:
448,160,103966,2,0,L|464:212,1,55,4|0,3:0|0:0,0:0:0:0:
440,264,104275,2,0,L|456:316,2,55,12|0|12,3:2|0:0|3:2,0:0:0:0:
332,236,104894,2,0,L|280:252,1,55,4|0,3:0|0:0,0:0:0:0:
228,272,105203,5,4,3:0:0:0:
292,352,112626,6,0,P|360:312|444:312,1,165,4|0,3:0|3:0,0:0:0:0:
472,264,113244,2,0,P|403:225|361:152,1,165,4|0,3:0|3:0,0:0:0:0:
316,120,113863,2,0,L|260:132,1,55,4|0,3:0|3:0,0:0:0:0:
212,104,114172,2,0,L|156:116,1,55,12|0,3:0|3:0,0:0:0:0:
108,92,114481,2,0,P|52:104|24:148,1,110,4|8,3:0|3:2,0:0:0:0:
84,236,115100,5,12,3:1:0:0:
56,340,115409,1,0,3:0:0:0:
164,316,115718,2,0,P|224:316|272:340,1,110,0|2,3:0|3:0,0:0:0:0:
304,376,116182,1,8,0:0:0:0:
304,376,116337,2,0,L|416:360,1,110,0|0,3:0|3:0,0:0:0:0:
444,316,116801,1,10,0:3:0:0:
496,220,117110,2,0,L|387:235,1,110,10|10,0:3|0:3,0:0:0:0:
340,208,117574,6,0,P|328:152|340:100,1,110,4|0,3:0|3:0,0:0:0:0:
252,32,118193,2,0,P|198:44|145:32,1,110,0|0,3:0|3:0,0:0:0:0:
44,76,118812,2,0,L|60:184,1,110,0|0,3:0|0:0,0:0:0:0:
108,212,119275,1,10,0:3:0:0:
108,212,119430,2,0,L|92:320,1,110,0|2,3:0|3:0,0:0:0:0:
188,372,120049,6,0,P|238:351|292:351,1,110,4|0,3:0|0:0,0:0:0:0:
340,380,120512,2,0,L|356:272,1,110,10|10,0:3|0:3,0:0:0:0:
292,180,121131,2,0,P|241:201|187:201,1,110,8|0,0:0|0:0,0:0:0:0:
144,164,121595,2,0,L|136:104,1,55,0|10,3:0|0:3,0:0:0:0:
168,64,121904,1,0,3:0:0:0:
272,24,122214,2,0,L|328:24,1,55,2|10,3:3|0:3,0:0:0:0:
376,48,122523,6,0,P|408:96|408:148,1,110,4|2,3:0|3:0,0:0:0:0:
388,196,122987,1,8,0:0:0:0:
388,196,123141,2,0,L|396:252,2,55,0|10|2,3:0|0:3|3:0,0:0:0:0:
296,260,123760,2,0,L|304:316,1,55,4|0,3:0|0:0,0:0:0:0:
264,353,124069,2,0,L|208:361,1,55,4|0,3:0|0:0,0:0:0:0:
156,344,124378,1,4,3:0:0:0:
72,276,124687,2,0,L|64:221,1,55,4|8,3:0|0:0,0:0:0:0:
92,172,124997,6,0,P|140:152|200:152,1,110,12|2,3:1|3:0,0:0:0:0:
288,212,125615,2,0,P|342:211|393:191,1,110,0|2,3:0|3:0,0:0:0:0:
428,148,126080,1,0,0:0:0:0:
428,148,126234,2,0,L|453:257,1,110,0|2,3:0|3:0,0:0:0:0:
464,308,126698,1,0,0:0:0:0:
376,372,127007,2,0,B|324:352|324:352|268:352,1,110,0|2,0:0|0:3,0:0:0:0:
230,313,127471,6,0,L|174:313,2,55,6|0|0,3:0|0:0|3:0,0:0:0:0:
268,274,127935,1,2,0:3:0:0:
268,274,128089,2,0,P|292:232|292:172,1,110,6|0,3:0|3:0,0:0:0:0:
248,136,128553,1,2,0:3:0:0:
248,136,128707,2,0,P|224:94|224:34,1,110,6|8,3:0|3:0,0:0:0:0:
332,60,129327,1,4,3:0:0:0:
332,60,129636,1,8,3:3:0:0:
400,148,129945,6,0,L|512:128,1,110,4|0,3:0|0:0,0:0:0:0:
472,232,130564,2,0,L|360:252,1,110,0|0,3:0|0:0,0:0:0:0:
272,192,131182,2,0,P|264:136|276:84,2,110,12|0|2,0:0|0:0|0:3,0:0:0:0:
184,260,132111,2,0,L|192:316,1,55,4|4,0:3|0:3,0:0:0:0:
232,352,132419,6,0,P|288:336|340:336,1,110,2|2,3:0|3:0,0:0:0:0:
388,364,132883,1,2,3:0:0:0:
484,312,133193,1,2,3:0:0:0:
392,252,133502,2,0,P|380:196|392:144,1,110,2|2,3:0|3:0,0:0:0:0:
356,104,133966,2,0,L|300:116,1,55,2|0,0:3|3:0,0:0:0:0:
256,84,134275,1,2,3:0:0:0:
192,176,134584,1,8,0:3:0:0:
60,156,144790,6,0,L|168:140,1,110,0|0,3:0|3:0,0:0:0:0:
256,208,145409,1,0,3:0:0:0:
256,208,145718,1,0,3:0:0:0:
360,168,146028,2,0,P|372:112|360:56,2,110,0|0|2,3:0|3:0|3:0,0:0:0:0:
256,208,146955,1,2,3:0:0:0:
344,272,147265,6,0,L|452:256,1,110,0|0,3:0|3:0,0:0:0:0:
412,356,147883,2,0,L|304:372,1,110,0|0,3:0|3:0,0:0:0:0:
224,296,148502,1,2,3:2:0:0:
128,352,148811,1,0,3:0:0:0:
28,304,149120,2,0,P|20:252|36:196,1,110,2|0,3:2|3:0,0:0:0:0:
128,140,149739,5,0,3:0:0:0:
32,84,150048,1,0,3:0:0:0:
128,32,150357,2,0,L|240:48,1,110,0|0,3:0|3:0,0:0:0:0:
300,136,150976,2,0,L|412:120,2,110,0|0|2,3:0|3:0|3:0,0:0:0:0:
220,212,151904,1,2,3:0:0:0:
112,196,152213,6,0,P|58:199|13:232,1,110,0|0,3:0|3:0,0:0:0:0:
52,335,152832,2,0,P|105:331|150:298,1,110,0|0,3:0|3:0,0:0:0:0:
220,212,153450,2,0,L|332:228,1,110,2|0,3:2|3:0,0:0:0:0:
404,308,154069,1,2,3:2:0:0:
504,264,154378,2,0,L|492:208,1,55,8|8,3:2|0:0,0:0:0:0:
480,156,154687,5,0,3:0:0:0:
372,128,154997,1,8,0:0:0:0:
288,196,155306,2,0,L|179:180,1,110,0|8,3:0|3:2,0:0:0:0:
116,92,155925,2,0,P|60:92|12:116,2,110,0|8|0,3:0|3:2|3:0,0:0:0:0:
208,36,156852,1,8,3:2:0:0:
292,108,157162,6,0,L|280:220,1,110,0|8,3:0|3:2,0:0:0:0:
200,292,157780,1,0,3:0:0:0:
200,292,158089,1,8,3:2:0:0:
308,324,158399,2,0,P|360:300|416:300,2,110,2|8|2,3:2|3:2|3:2,0:0:0:0:
200,292,159327,1,8,0:2:0:0:
116,364,159636,6,0,P|64:364|20:328,1,110,0|8,3:0|3:2,0:0:0:0:
60,224,160254,2,0,L|40:116,1,110,0|8,3:0|3:2,0:0:0:0:
128,52,160873,2,0,L|148:160,2,110,0|8|0,3:2|3:2|3:2,0:0:0:0:
232,84,161801,1,8,0:0:0:0:
324,20,162110,6,0,P|380:20|428:48,1,110,0|8,3:0|0:0,0:0:0:0:
464,88,162574,1,0,3:0:0:0:
464,88,162729,2,0,L|472:144,1,55,0|0,3:0|3:0,0:0:0:0:
440,188,163038,2,0,L|432:244,1,55,0|8,3:0|0:0,0:0:0:0:
464,288,163347,5,0,3:0:0:0:
256,360,163966,2,0,L|200:360,2,55,8|0|8,0:0|3:0|0:0,0:0:0:0:
348,296,164584,6,0,B|368:240|368:240|368:188,1,110,4|0,0:3|3:0,0:0:0:0:
260,212,165203,2,0,L|260:102,1,110,4|0,3:2|3:0,0:0:0:0:
221,63,165667,2,0,B|165:63|165:63|117:95,1,110,8|0,0:0|0:0,0:0:0:0:
84,132,166131,2,0,L|24:132,1,55,0|8,3:0|0:0,0:0:0:0:
60,240,166595,2,0,L|115:240,2,55,8|0|8,0:3|3:0|0:0,0:0:0:0:
21,278,167059,6,0,B|21:334|21:334|57:374,1,110,4|0,3:0|3:0,0:0:0:0:
160,332,167677,2,0,L|272:332,1,110,4|0,3:2|3:0,0:0:0:0:
308,293,168141,2,0,B|308:237|308:237|272:197,1,110,8|8,0:0|0:0,0:0:0:0:
228,164,168605,2,0,L|172:164,1,55,0|8,3:0|0:0,0:0:0:0:
128,64,169069,2,0,L|184:64,1,55,0|4,0:0|3:2,0:0:0:0:
221,25,169378,6,0,B|277:25|277:25|325:53,1,110,8|0,0:0|0:0,0:0:0:0:
364,88,169842,2,0,L|364:144,1,55,0|8,3:0|0:0,0:0:0:0:
402,181,170151,2,0,L|402:237,1,55,4|8,3:2|0:0,0:0:0:0:
344,328,170615,2,0,B|297:300|297:300|241:300,1,110,8|0,0:0|0:0,0:0:0:0:
202,339,171079,2,0,L|142:339,1,55,0|8,3:0|0:0,0:0:0:0:
108,377,171388,2,0,L|48:377,1,55,4|8,3:2|0:0,0:0:0:0:
4,276,171852,6,0,L|4:164,1,110,8|0,0:0|0:0,0:0:0:0:
42,127,172316,2,0,L|42:71,1,55,0|8,3:0|0:0,0:0:0:0:
81,32,172626,2,0,B|137:32|137:32|181:68,1,110,4|0,3:2|3:0,0:0:0:0:
216,108,173089,1,8,0:0:0:0:
256,144,173244,2,0,L|256:256,2,110,4|4|4,3:0|3:0|3:0,0:0:0:0:
296,108,174017,1,12,0:0:0:0:
334,66,174172,1,12,2:2:0:0:
436,108,174481,6,0,P|464:156|464:212,1,110,4|10,3:1|0:3,0:0:0:0:
424,244,174945,2,0,P|396:292|396:348,1,110,0|0,0:0|0:0,0:0:0:0:
292,308,175564,2,0,L|176:324,1,110,2|2,0:3|0:3,0:0:0:0:
80,288,176182,1,2,0:3:0:0:
80,288,176337,2,0,L|76:344,2,55,0|2|10,3:0|0:3|0:3,0:0:0:0:
132,192,176955,6,0,L|128:136,2,55,4|2|10,3:0|0:3|0:3,0:0:0:0:
176,228,177419,2,0,P|232:236|284:216,1,110,0|2,0:3|0:3,0:0:0:0:
376,164,178038,1,2,0:3:0:0:
376,164,178193,2,0,L|384:220,1,55,12|8,3:0|0:0,0:0:0:0:
428,252,178502,2,0,L|420:308,2,55,10|0|4,3:0|3:3|3:0,0:0:0:0:
488,160,179120,1,10,3:0:0:0:
424,68,179430,6,0,P|372:52|320:68,1,110,4|0,3:0|3:0,0:0:0:0:
252,152,180048,2,0,P|200:168|148:152,1,110,0|0,3:0|3:0,0:0:0:0:
52,104,180667,2,0,P|36:156|52:208,1,110,0|8,3:0|3:2,0:0:0:0:
140,272,181285,1,8,3:2:0:0:
244,240,181595,1,8,0:0:0:0:
348,208,181904,6,0,B|336:268|376:304|376:304|354:310|328:340,1,165,4|0,3:0|3:0,0:0:0:0:
280,364,182522,2,0,B|200:336|200:388|116:364,1,165,12|0,0:0|0:0,0:0:0:0:
64,360,183141,2,0,P|4:356|32:280,1,165,4|0,3:0|3:0,0:0:0:0:
84,284,183760,1,12,0:0:0:0:
152,196,184069,2,0,L|144:140,1,55,8|8,0:0|0:0,0:0:0:0:
256,192,184378,12,0,186234,3:0:0:0:
188,360,187471,6,0,B|188:304|188:304|160:256,1,110,8|8,0:0|0:0,0:0:0:0:
68,200,188089,6,0,P|104:164|160:152,1,110,12|0,0:1|3:0,0:0:0:0:
256,208,188708,1,0,3:0:0:0:
344,144,189017,2,0,L|332:88,1,55,2|8,3:3|0:0,0:0:0:0:
304,40,189327,2,0,P|252:20|196:20,1,110,0|0,3:0|3:0,0:0:0:0:
152,52,189790,1,10,0:3:0:0:
48,20,190100,2,0,L|28:132,1,110,10|10,0:3|0:3,0:0:0:0:
68,164,190563,6,0,P|116:152|184:164,2,110,4|0|0,3:0|3:0|3:0,0:0:0:0:
0,252,191492,1,0,3:0:0:0:
92,312,191801,2,0,L|204:312,1,110,0|0,3:0|3:0,0:0:0:0:
240,352,192264,1,8,0:0:0:0:
240,352,192419,2,0,P|294:352|346:333,1,110,0|0,3:0|3:0,0:0:0:0:
408,244,193038,6,0,L|388:136,1,110,4|0,3:0|3:0,0:0:0:0:
376,80,193502,1,10,0:3:0:0:
276,128,193811,1,8,0:0:0:0:
172,96,194120,2,0,B|120:76|120:76|64:76,1,110,8|2,0:0|0:3,0:0:0:0:
26,114,194584,2,0,L|26:170,1,55,0|10,3:0|0:3,0:0:0:0:
26,224,194893,1,0,3:0:0:0:
103,301,195203,2,0,L|159:301,1,55,0|10,3:0|0:3,0:0:0:0:
196,262,195512,6,0,P|248:262|304:282,1,110,6|0,3:3|3:0,0:0:0:0:
336,324,195976,1,8,0:0:0:0:
336,324,196130,2,0,L|328:384,2,55,0|8|0,3:0|0:0|3:0,0:0:0:0:
416,248,196749,2,0,L|408:193,1,55,4|0,3:0|0:0,0:0:0:0:
444,152,197059,2,0,L|451:97,1,55,4|0,3:0|0:0,0:0:0:0:
428,48,197368,2,0,P|380:32|320:32,1,110,4|4,3:0|3:0,0:0:0:0:
272,56,197831,1,8,0:0:0:0:
248,108,197986,6,0,L|268:216,1,110,12|2,3:1|3:0,0:0:0:0:
296,324,198605,1,0,3:0:0:0:
192,288,198914,2,0,L|136:296,1,55,2|0,3:0|0:0,0:0:0:0:
84,304,199223,2,0,P|40:268|36:216,1,110,0|2,0:0|3:0,0:0:0:0:
64,172,199687,1,0,0:0:0:0:
36,64,199996,2,0,L|146:64,1,110,2|0,0:3|0:0,0:0:0:0:
201,64,200460,6,0,L|201:8,2,55,4|0|2,3:0|0:0|3:0,0:0:0:0:
239,102,200924,1,0,0:0:0:0:
239,102,201079,2,0,B|239:154|239:154|208:202,1,110,4|2,3:0|3:0,0:0:0:0:
176,248,201543,1,0,0:0:0:0:
148,296,201697,2,0,L|260:296,1,110,4|8,3:0|3:3,0:0:0:0:
344,364,202316,1,4,3:0:0:0:
344,364,202625,1,8,3:0:0:0:
448,324,202935,6,0,P|472:272|464:220,1,110,12|0,3:0|0:0,0:0:0:0:
368,168,203553,2,0,P|334:121|285:102,1,110,2|0,0:3|0:0,0:0:0:0:
184,144,204172,2,0,L|72:128,2,110,12|0|0,0:0|0:0|0:0,0:0:0:0:
276,204,205100,2,0,L|284:260,1,55,4|4,3:0|3:0,0:0:0:0:
248,300,205409,6,0,P|192:276|140:276,1,110,2|2,3:0|3:0,0:0:0:0:
100,312,205873,1,2,3:0:0:0:
12,248,206182,1,2,3:0:0:0:
108,192,206491,2,0,L|89:83,1,110,2|2,3:0|3:0,0:0:0:0:
84,28,206955,2,0,L|140:36,1,55,2|0,3:0|3:0,0:0:0:0:
192,48,207264,1,2,3:0:0:0:
256,140,207574,1,8,0:0:0:0:
348,84,207883,6,0,P|404:92|448:128,1,110,4|0,3:0|3:0,0:0:0:0:
468,176,208347,1,0,3:0:0:0:
428,280,208656,1,0,3:0:0:0:
328,232,208966,2,0,P|272:232|228:268,1,110,4|4,3:0|3:0,0:0:0:0:
188,364,209584,1,8,0:3:0:0:
188,364,209739,2,0,L|80:348,1,110,4|0,3:0|2:0,0:0:0:0:
16,260,210357,6,0,P|8:200|24:152,1,110,4|0,0:1|3:0,0:0:0:0:
120,104,210976,2,0,P|128:164|112:212,1,110,0|2,3:0|3:2,0:0:0:0:
204,272,211594,2,0,L|312:256,1,110,0|0,3:0|3:0,0:0:0:0:
416,296,212213,1,0,3:0:0:0:
449,191,212522,1,0,3:0:0:0:
344,156,212832,6,0,L|232:172,1,110,0|0,3:0|3:0,0:0:0:0:
128,184,213450,1,0,3:0:0:0:
56,100,213760,1,0,3:0:0:0:
136,24,214069,2,0,L|192:32,1,55,4|10,3:2|0:0,0:0:0:0:
232,68,214378,2,0,L|288:60,1,55,4|10,3:2|0:0,0:0:0:0:
340,76,214687,1,4,3:2:0:0:
440,32,214997,2,0,L|452:88,1,55,8|8,3:2|3:2,0:0:0:0:
496,120,215306,6,0,L|484:232,1,110,4|0,3:0|3:0,0:0:0:0:
412,312,215924,1,0,3:0:0:0:
316,256,216234,1,0,3:0:0:0:
256,348,216543,2,0,P|200:348|149:327,2,110,0|0|0,3:0|3:0|3:0,0:0:0:0:
316,256,217471,1,0,3:0:0:0:
228,192,217780,6,0,L|120:212,1,110,0|0,3:0|3:0,0:0:0:0:
48,128,218399,2,0,L|156:108,1,110,0|0,3:0|3:0,0:0:0:0:
252,56,219017,2,0,L|264:112,1,55,4|10,3:0|0:0,0:0:0:0:
304,144,219327,2,0,L|292:200,1,55,4|10,3:0|0:0,0:0:0:0:
316,248,219636,1,4,3:0:0:0:
256,340,219945,5,6,0:0:0:0:
