osu file format v14

[General]
AudioFilename: mp3.mp3
AudioLeadIn: 0
PreviewTime: 188038
Countdown: 0
SampleSet: Soft
StackLeniency: 0.9
Mode: 0
LetterboxInBreaks: 0
WidescreenStoryboard: 1

[Editor]
DistanceSpacing: 1.2
BeatDivisor: 4
GridSize: 4
TimelineZoom: 3

[Metadata]
Title:Super nuko ni naritai
TitleUnicode:すーぱーぬこになりたい
Artist:nayuta & yuikonnu
ArtistUnicode:nayuta&ゆいこんぬ
Creator:Pho
Version:Hard
Source:
Tags:meow まふまふ にゃん mafumafu nya まふてる mafuteru nyaa neko i want to become a super alacat nyan milan- nyan appleeaterx nyan pkk nyan nyan nyan nyan
BeatmapID:1244566
BeatmapSetID:494097

[Difficulty]
HPDrainRate:5.5
CircleSize:4
OverallDifficulty:6
ApproachRate:8.2
SliderMultiplier:1.4
SliderTickRate:1

[Events]
//Background and Video events
0,0,"bg.jpg",0,0
Video,0,"niboshi.avi"
//Break Periods
2,134894,144071
//Storyboard Layer 0 (Background)
//Storyboard Layer 1 (Fail)
//Storyboard Layer 2 (Pass)
//Storyboard Layer 3 (Foreground)
//Storyboard Sound Samples

[TimingPoints]
1285.82544421139,309.278350515464,4,2,1,50,1,0
3450,-100,4,2,1,40,0,0
3760,-111.111111111111,4,2,1,50,0,0
5925,-100,4,2,1,50,0,0
6234,-111.111111111111,4,2,1,50,0,0
8399,-100,4,2,1,50,0,0
8708,-111.111111111111,4,2,1,50,0,0
10873,-100,4,2,1,50,0,0
11105,-100,4,2,1,5,0,0
11182,-111.111111111111,4,2,1,50,0,0
13656,-90.9090909090909,4,2,42,60,0,0
13734,-90.9090909090909,4,2,1,70,0,0
18605,-90.9090909090909,4,2,42,60,0,0
18682,-90.9090909090909,4,2,1,70,0,0
23553,-100,4,2,1,35,0,0
24327,-100,4,2,1,50,0,0
24790,-100,4,2,1,70,0,0
29739,-83.3333333333333,4,2,1,60,0,0
30048,-100,4,2,1,60,0,0
30358,-100,4,2,1,60,0,0
30667,-100,4,2,1,60,0,0
30976,-80,4,2,1,60,0,0
31286,-100,4,2,1,60,0,0
31595,-80,4,2,1,60,0,0
31904,-100,4,2,1,60,0,0
32213,-80,4,2,1,60,0,0
32523,-100,4,2,1,60,0,0
32832,-80,4,2,1,60,0,0
33141,-100,4,2,1,60,0,0
34688,-100,4,2,1,70,0,0
36543,-100,4,2,1,60,0,0
37162,-100,4,2,1,70,0,0
39327,-90.9090909090909,4,2,1,60,0,0
39636,-76.9230769230769,4,2,1,70,0,0
39945,-100,4,2,1,70,0,0
40873,-90.9090909090909,4,2,1,70,0,0
41182,-100,4,2,1,70,0,0
42110,-90.9090909090909,4,2,1,70,0,0
42419,-100,4,2,1,70,0,0
43347,-100,4,2,1,80,0,0
44662,-100,4,2,1,65,0,0
52007,-100,4,2,1,70,0,0
54481,-90.9090909090909,4,2,42,60,0,1
54559,-90.9090909090909,4,2,2,80,0,1
64378,-90.9090909090909,4,2,42,60,0,1
64455,-90.9090909090909,4,2,2,80,0,1
68476,-90.9090909090909,4,2,3,80,0,1
69327,-166.666666666667,4,2,1,60,0,0
69404,-166.666666666667,4,2,1,60,0,0
71801,-133.333333333333,4,2,2,60,0,0
73966,-133.333333333333,4,2,3,60,0,0
74275,-90.9090909090909,4,2,42,50,0,0
74352,-90.9090909090909,4,2,1,70,0,0
84172,-100,4,2,1,50,0,0
84481,-83.3333333333333,4,2,1,60,0,0
84790,-100,4,2,1,50,0,0
85409,-100,4,2,1,70,0,0
90048,-100,4,2,3,70,0,0
90280,-100,4,2,3,70,0,0
90357,-100,4,2,1,70,0,0
90435,-100,4,2,1,60,0,0
91595,-100,4,2,1,55,0,0
92832,-100,4,2,1,50,0,0
93450,-90.9090909090909,4,2,1,65,0,0
93760,-100,4,2,1,60,0,0
95306,-100,4,2,1,70,0,0
97316,-100,4,2,1,60,0,0
97780,-100,4,2,1,70,0,0
103888,-100,4,2,1,70,0,0
103966,-100,4,2,1,80,0,0
105126,-100,4,2,1,10,0,0
105203,-166.666666666667,4,2,1,80,0,0
105280,-166.666666666667,4,2,1,65,0,0
107368,-100,4,2,1,65,0,0
107677,-100,4,2,1,65,0,0
112007,-90.9090909090909,4,2,1,65,0,0
112626,-100,4,2,1,75,0,0
113863,-83.3333333333333,4,2,2,75,0,0
115100,-90.9090909090909,4,2,42,60,0,1
115177,-90.9090909090909,4,2,2,80,0,1
124997,-90.9090909090909,4,2,42,60,0,1
125074,-90.9090909090909,4,2,2,80,0,1
129636,-90.9090909090909,4,2,3,80,0,1
129790,-90.9090909090909,4,2,2,80,0,1
129945,-166.666666666667,4,2,1,60,0,0
130022,-166.666666666667,4,2,1,60,0,0
131955,-166.666666666667,4,2,3,60,0,0
132419,-133.333333333333,4,2,1,60,0,0
134894,-125,4,2,1,50,0,0
144790,-133.333333333333,4,2,1,60,0,0
154687,-111.111111111111,4,2,1,60,0,0
154919,-111.111111111111,4,2,1,10,0,0
154997,-111.111111111111,4,2,1,60,0,0
156814,-111.111111111111,4,2,1,5,0,0
156852,-111.111111111111,4,2,1,60,0,0
157123,-111.111111111111,4,2,1,5,0,0
157162,-111.111111111111,4,2,1,60,0,0
159288,-111.111111111111,4,2,1,5,0,0
159327,-111.111111111111,4,2,1,60,0,0
159597,-111.111111111111,4,2,1,5,0,0
159636,-111.111111111111,4,2,1,60,0,0
161801,-76.9230769230769,4,2,1,40,0,0
161917,-76.9230769230769,4,2,1,10,0,0
161955,-71.4285714285714,4,2,1,45,0,0
162071,-71.4285714285714,4,2,1,10,0,0
162110,-66.6666666666667,4,2,1,50,0,0
162226,-66.6666666666667,4,2,1,10,0,0
162265,-62.5,4,2,1,55,0,0
162381,-62.5,4,2,1,10,0,0
162419,-58.8235294117647,4,2,1,60,0,0
162535,-58.8235294117647,4,2,1,10,0,0
162574,-55.5555555555556,4,2,1,65,0,0
162690,-55.5555555555556,4,2,1,10,0,0
162729,-52.6315789473684,4,2,1,70,0,0
162845,-52.6315789473684,4,2,1,10,0,0
162883,-50,4,2,1,75,0,0
162999,-50,4,2,1,10,0,0
163038,-100,4,2,1,80,0,0
163347,-83.3333333333333,4,2,1,70,0,0
164275,-66.6666666666667,4,2,1,80,0,0
164584,-83.3333333333333,4,2,2,80,0,0
174481,-76.9230769230769,4,2,1,80,0,0
174790,-83.3333333333333,4,2,2,80,0,0
176955,-83.3333333333333,4,2,1,80,0,0
177110,-83.3333333333333,4,2,2,80,0,0
177574,-83.3333333333333,4,2,1,80,0,0
177729,-83.3333333333333,4,2,1,80,0,0
178193,-83.3333333333333,4,2,2,80,0,0
178347,-83.3333333333333,4,2,1,80,0,0
178811,-83.3333333333333,4,2,1,80,0,0
179430,-83.3333333333333,4,2,1,80,0,0
179739,-83.3333333333333,4,2,1,40,0,0
180048,-83.3333333333333,4,2,1,45,0,0
180357,-83.3333333333333,4,2,1,50,0,0
180667,-83.3333333333333,4,2,1,55,0,0
180976,-83.3333333333333,4,2,1,60,0,0
181131,-83.3333333333333,4,2,1,65,0,0
181285,-83.3333333333333,4,2,1,70,0,0
181440,-83.3333333333333,4,2,1,75,0,0
181595,-83.3333333333333,4,2,1,80,0,0
181749,-83.3333333333333,4,2,1,85,0,0
181904,-133.333333333333,4,2,1,90,0,0
182213,-133.333333333333,4,2,1,30,0,0
182368,-133.333333333333,4,2,1,90,0,0
182832,-133.333333333333,4,2,1,30,0,0
183141,-133.333333333333,4,2,1,90,0,0
183450,-133.333333333333,4,2,1,30,0,0
183605,-133.333333333333,4,2,1,90,0,0
187471,-100,4,2,1,40,0,0
188089,-90.9090909090909,4,2,42,60,0,1
188167,-90.9090909090909,4,2,2,80,0,1
197986,-90.9090909090909,4,2,42,60,0,1
198064,-90.9090909090909,4,2,1,80,0,1
202935,-200,4,2,1,50,0,0
204945,-200,4,2,3,50,0,0
205409,-133.333333333333,4,2,2,50,0,0
207265,-133.333333333333,4,2,1,50,0,0
207883,-100,4,2,1,50,0,0
208115,-100,4,2,1,5,0,0
208193,-100,4,2,1,50,0,0
209739,-76.9230769230769,4,2,1,70,0,0
210203,-76.9230769230769,4,2,2,50,0,0
210357,-100,4,2,2,50,0,0
210435,-100,4,2,1,50,0,0
219945,-66.6666666666667,4,1,42,100,0,0

[Colours]
Combo1 : 0,64,128
Combo2 : 240,57,208
Combo3 : 71,181,60
Combo4 : 243,39,90
Combo5 : 48,155,220
Combo6 : 255,159,64
Combo7 : 255,255,66
Combo8 : 81,101,104

[HitObjects]
79,126,1286,6,0,P|124:152|228:134,1,140,2|2,0:1|0:1,0:0:0:0:
254,83,1749,2,0,B|228:147|228:147|252:225,1,140,2|2,0:1|0:1,0:0:0:0:
366,314,2368,2,0,B|392:250|392:250|368:172,1,140,2|2,0:1|0:1,0:0:0:0:
371,182,2987,1,2,0:1:0:0:
328,112,3141,2,0,P|370:98|456:155,1,140,0|0,0:0|0:1,0:0:0:0:
319,316,3760,6,0,L|270:306,3,31.4999990386963,0|0|0|0,3:0|0:0|0:0|0:0,0:0:0:0:
248,289,4069,2,0,L|197:300,3,31.4999990386963,0|0|0|0,3:0|0:0|0:0|0:0,0:0:0:0:
180,321,4378,2,0,L|129:310,3,31.4999990386963,0|0|0|0,3:0|0:0|0:0|0:0,0:0:0:0:
119,272,4688,2,0,L|44:293,1,62.9999980773926,0|0,3:0|0:0,0:0:0:0:
0,196,4997,6,0,P|21:205|43:206,3,31.4999990386963,0|0|0|0,3:0|0:0|0:0|0:0,0:0:0:0:
102,167,5306,2,0,P|114:141|116:116,3,31.4999990386963,0|0|0|0,3:0|0:0|0:0|0:0,0:0:0:0:
100,57,5615,2,0,P|61:77|38:111,1,62.9999980773926,2|2,3:2|0:2,0:0:0:0:
192,126,5925,2,0,B|320:144,1,105,2|0,3:2|0:0,0:0:0:0:
352,94,6234,6,0,L|362:39,3,31.4999990386963,0|0|0|0,3:0|0:0|0:0|0:0,0:0:0:0:
419,21,6543,2,0,L|411:61,3,31.4999990386963,0|0|0|0,3:0|0:0|0:0|0:0,0:0:0:0:
448,119,6853,2,0,L|453:87,3,31.4999990386963,0|0|0|0,3:0|0:0|0:0|0:0,0:0:0:0:
502,30,7162,2,0,L|514:99,1,62.9999980773926,0|0,3:0|0:0,0:0:0:0:
481,257,7471,6,0,L|461:171,1,62.9999980773926,2|2,3:0|3:0,0:0:0:0:
363,165,7780,1,0,0:0:0:0:
394,315,7935,2,0,L|378:236,2,62.9999980773926,0|2|2,0:0|3:0|3:0,0:0:0:0:
294,348,8399,2,0,P|237:343|196:304,1,105,0|0,3:0|0:0,0:0:0:0:
128,263,8708,6,0,P|105:254|84:238,3,31.4999990386963,0|0|0|0,3:0|0:0|0:0|0:0,0:0:0:0:
81,209,9017,2,0,P|100:179|120:166,3,31.4999990386963,0|0|0|0,3:0|0:0|0:0|0:0,0:0:0:0:
128,150,9327,2,0,P|114:114|109:110,3,31.4999990386963,0|0|0|0,3:0|0:0|0:0|0:0,0:0:0:0:
94,83,9636,2,0,P|83:50|103:5,1,62.9999980773926,0|0,3:0|0:0,0:0:0:0:
201,21,9945,38,0,P|227:44|231:51,3,31.4999990386963,0|0|0|0,3:0|0:0|0:0|0:0,0:0:0:0:
285,92,10255,2,0,P|301:89|315:82,3,31.4999990386963,0|0|0|0,3:0|0:0|0:0|0:0,0:0:0:0:
375,30,10564,2,0,P|396:67|389:111,1,62.9999980773926,2|2,3:2|3:2,0:0:0:0:
361,166,10873,2,0,B|397:182|432:172|432:172|392:236,1,140,2|0,3:2|0:0,0:0:0:0:
396,229,11492,5,0,3:0:0:0:
329,264,11646,1,0,3:0:0:0:
266,220,11801,1,0,3:0:0:0:
190,227,11956,1,0,3:0:0:0:
140,169,12110,2,0,P|147:143|148:122,3,31.4999990386963,0|0|0|0,3:0|3:0|3:0|3:0,0:0:0:0:
131,102,12420,1,0,3:0:0:0:
341,32,13038,6,0,L|384:24,2,31.4999990386963,8|8|0,0:0|0:0|3:0,0:0:0:0:
274,95,13347,2,0,P|264:134|283:181,1,62.9999980773926,8|0,0:0|0:0,0:0:0:0:
424,229,13657,6,0,P|375:262|258:237,1,154.000004699707,12|0,0:1|3:0,0:0:0:0:
207,201,14121,1,10,0:0:0:0:
159,278,14275,2,0,L|173:368,2,77.0000023498536,0|10|2,3:0|0:0|3:2,0:0:0:0:
68,295,14739,1,10,0:0:0:0:
34,170,14894,6,0,P|41:126|138:47,1,154.000004699707,0|0,3:0|3:0,0:0:0:0:
273,54,15512,2,0,P|325:50|363:25,2,77.0000023498536,0|10|2,3:0|0:0|3:2,0:0:0:0:
243,141,15976,1,10,0:0:0:0:
354,203,16131,6,0,L|441:198,1,77.0000023498536,0|10,3:0|0:0,0:0:0:0:
496,137,16440,2,0,P|501:86|482:51,1,77.0000023498536,0|10,3:0|0:0,0:0:0:0:
409,43,16749,2,0,L|313:47,1,77.0000023498536,0|8,3:0|0:0,0:0:0:0:
282,116,17059,2,0,P|297:156|297:211,1,77.0000023498536,0|10,3:2|0:0,0:0:0:0:
182,240,17368,38,0,P|164:306|167:340,1,77.0000023498536,4|10,3:0|0:0,0:0:0:0:
353,277,17677,2,0,P|373:331|373:363,1,77.0000023498536,4|10,3:0|0:0,0:0:0:0:
256,380,17987,1,4,3:0:0:0:
120,278,18296,1,0,3:0:0:0:
276,212,18605,6,0,L|399:196,1,115.50000352478,8|10,0:1|0:0,0:0:0:0:
390,197,18914,2,0,P|397:151|381:110,1,77.0000023498536,0|10,3:0|0:0,0:0:0:0:
311,49,19224,1,0,3:0:0:0:
275,41,19378,1,10,0:0:0:0:
239,32,19533,1,2,3:2:0:0:
205,26,19688,1,10,0:0:0:0:
112,79,19842,6,0,P|114:136|157:186,1,115.50000352478,0|10,3:0|0:0,0:0:0:0:
148,180,20151,2,0,P|141:232|118:264,1,77.0000023498536,0|10,3:0|0:0,0:0:0:0:
77,342,20461,1,0,3:0:0:0:
115,337,20615,1,10,0:0:0:0:
153,332,20770,1,2,3:2:0:0:
191,327,20925,1,10,0:0:0:0:
304,359,21079,6,0,P|352:379|424:358,1,115.50000352478,0|10,3:0|0:0,0:0:0:0:
412,366,21389,2,0,L|426:275,1,77.0000023498536,0|10,3:0|0:0,0:0:0:0:
319,258,21698,2,0,L|300:165,1,77.0000023498536,0|10,3:0|0:0,0:0:0:0:
209,129,22007,2,0,L|228:36,1,77.0000023498536,2|10,3:2|0:0,0:0:0:0:
383,24,22316,5,4,3:0:0:0:
459,60,22471,1,10,0:0:0:0:
446,143,22626,1,4,3:0:0:0:
363,158,22780,1,10,0:0:0:0:
321,83,22935,1,2,0:1:0:0:
224,36,23554,6,0,L|189:42,3,35,0|0|0|0,0:0|0:0|0:0|0:0,0:0:0:0:
139,104,23863,2,0,L|104:97,3,35,0|0|0|0,0:0|0:0|0:0|0:0,0:0:0:0:
50,35,24172,1,0,0:0:0:0:
26,144,24327,2,0,L|17:190,2,35,0|0|8,3:0|3:0|0:0,0:0:0:0:
186,216,24791,38,0,P|201:262|165:346,1,140,4|0,3:0|3:0,0:0:0:0:
101,270,25255,1,8,0:0:0:0:
119,187,25409,2,0,B|183:196|183:196|271:171,1,140,0|0,3:3|3:0,0:0:0:0:
320,121,25873,1,8,0:0:0:0:
390,174,26028,5,0,3:0:0:0:
457,124,26182,2,0,L|459:81,2,35,8|8|0,0:0|0:0|3:0,0:0:0:0:
390,174,26492,2,0,B|377:213|377:213|380:256,1,70,8|0,0:0|3:0,0:0:0:0:
239,370,27265,6,0,B|258:322|258:322|238:223,1,140,4|0,3:0|3:0,0:0:0:0:
168,191,27729,1,8,0:0:0:0:
99,239,27883,2,0,P|55:221|50:137,1,140,0|0,3:0|3:0,0:0:0:0:
132,124,28347,1,8,0:0:0:0:
163,46,28502,5,0,3:0:0:0:
79,55,28657,2,0,L|46:38,2,35,8|8|0,0:0|0:0|3:0,0:0:0:0:
163,46,28966,1,8,0:0:0:0:
222,104,29121,2,0,P|215:184|247:251,1,140,0|8,3:0|0:3,0:0:0:0:
445,272,29739,6,0,P|400:286|420:356,1,125.999996154785,4|0,3:0|0:0,0:0:0:0:
453,359,30048,2,0,L|473:279,1,70,8|0,0:0|0:0,0:0:0:0:
346,235,30358,6,0,B|321:194|348:129|348:129|295:155,1,140,0|8,3:0|0:0,0:0:0:0:
198,253,30976,38,0,B|220:292|224:320|193:339|152:344|141:326|124:280,1,175,0|8,3:0|0:0,0:0:0:0:
47,215,31440,1,0,0:0:0:0:
126,108,31595,6,0,B|148:99|148:99|122:83|72:115|93:175|137:186|176:169,1,175,0|8,3:0|0:0,0:0:0:0:
328,86,32213,6,0,P|337:145|287:91,1,175,0|8,3:0|0:0,0:0:0:0:
414,34,32677,1,0,0:0:0:0:
475,134,32832,6,0,B|452:171|452:171|476:213|476:213|455:255|468:279,1,131.25,0|0,3:0|0:0,0:0:0:0:
473,277,33141,2,0,P|428:300|396:301,1,70,8|0,0:0|0:0,0:0:0:0:
283,254,33450,5,0,3:0:0:0:
318,341,33605,1,0,0:0:0:0:
235,330,33760,2,0,L|162:320,1,70,8|0,0:0|3:0,0:0:0:0:
68,305,34069,2,0,P|37:260|47:175,1,140,4|4,3:0|3:0,0:0:0:0:
128,30,34688,6,0,P|156:83|134:142,1,105,6|10,3:2|0:0,0:0:0:0:
134,150,34997,2,0,L|217:145,1,70,0|10,3:0|0:0,0:0:0:0:
287,141,35306,2,0,P|307:195|300:228,1,70,0|10,3:0|0:0,0:0:0:0:
239,248,35615,2,0,P|227:295|235:329,1,70,0|10,3:0|0:0,0:0:0:0:
301,362,35925,37,0,3:0:0:0:
370,314,36079,1,10,0:0:0:0:
434,367,36234,2,0,L|475:303,1,70,0|10,3:0|0:0,0:0:0:0:
464,204,36543,2,0,P|423:187|325:212,1,140,2|2,3:2|0:3,0:0:0:0:
332,206,37162,6,0,B|307:167|307:167|322:84,1,105,4|10,3:0|0:0,0:0:0:0:
328,68,37471,2,0,P|287:84|249:84,1,70,0|10,3:0|0:0,0:0:0:0:
186,21,37780,1,0,3:0:0:0:
117,69,37935,1,10,0:0:0:0:
175,129,38090,2,0,B|190:166|190:166|181:209,1,70,2|10,3:2|0:0,0:0:0:0:
88,285,38399,6,0,P|55:300|5:300,1,70,0|10,3:0|0:0,0:0:0:0:
176,314,38708,2,0,P|155:353|120:371,1,70,2|10,3:2|0:0,0:0:0:0:
244,261,39017,1,0,3:0:0:0:
353,358,39327,1,12,0:3:0:0:
418,240,39636,6,0,P|406:187|432:100,1,136.499993751526,4|2,3:0|0:0,0:0:0:0:
426,108,39945,2,0,P|374:118|338:112,1,70,8|2,0:0|0:0,0:0:0:0:
258,34,40255,2,0,L|356:19,1,70,0|0,3:0|0:0,0:0:0:0:
249,138,40564,1,10,0:0:0:0:
96,32,40873,5,0,3:0:0:0:
96,32,41028,1,0,0:0:0:0:
142,104,41182,2,0,P|146:155|123:194,1,70,10|2,0:0|0:0,0:0:0:0:
26,256,41492,2,0,P|29:213|58:181,1,70,0|0,3:0|0:0,0:0:0:0:
178,274,41801,1,10,0:0:0:0:
63,284,42110,6,0,L|196:272,1,115.50000352478,0|2,3:0|0:0,0:0:0:0:
189,281,42420,2,0,P|232:242|270:238,1,70,8|2,0:0|0:0,0:0:0:0:
340,353,42729,2,0,L|308:263,1,70,0|0,3:0|0:0,0:0:0:0:
419,238,43038,2,0,P|396:223|329:217,1,70,10|0,0:0|0:0,0:0:0:0:
187,121,43347,37,4,3:0:0:0:
281,61,43502,1,0,0:0:0:0:
284,172,43657,1,4,0:0:0:0:
179,127,43811,1,0,0:0:0:0:
177,126,43966,2,0,P|183:171|183:211,1,70,4|0,3:0|0:0,0:0:0:0:
134,323,44275,2,0,P|142:317|210:297,1,70,12|8,0:0|0:0,0:0:0:0:
290,366,44584,6,0,P|362:368|452:350,1,140,4|2,3:0|3:1,0:0:0:0:
469,256,45048,1,2,0:1:0:0:
469,256,45358,1,2,0:1:0:0:
386,237,45512,1,0,3:1:0:0:
342,164,45667,1,2,0:1:0:0:
347,80,45822,2,0,P|369:35|457:72,1,140,0|2,3:0|3:1,0:0:0:0:
415,125,46286,1,0,0:0:0:0:
266,103,46440,6,0,L|181:91,1,70,2|0,3:1|0:0,0:0:0:0:
91,158,46749,2,0,L|6:146,1,70,2|0,3:1|0:0,0:0:0:0:
145,26,47059,6,0,P|165:69|162:176,1,140,0|2,3:0|3:1,0:0:0:0:
128,234,47523,1,2,0:1:0:0:
128,234,47832,1,2,0:1:0:0:
187,293,47987,1,0,3:0:0:0:
271,295,48141,1,2,0:1:0:0:
340,248,48296,6,0,P|306:221|274:213,1,70,0|0,3:0|0:1,0:0:0:0:
345,328,48605,2,0,P|386:344|435:339,1,70,2|2,3:1|0:1,0:0:0:0:
489,297,48914,2,0,P|475:269|469:222,1,70,2|0,3:1|0:0,0:0:0:0:
360,200,49224,2,0,P|381:157|388:120,1,70,2|0,3:1|0:0,0:0:0:0:
272,35,49533,6,0,P|245:68|300:131,1,140,0|2,3:0|3:1,0:0:0:0:
350,65,49997,1,2,0:1:0:0:
350,65,50306,1,2,0:1:0:0:
418,114,50461,1,0,3:0:0:0:
369,182,50615,1,2,0:1:0:0:
432,236,50770,2,0,P|448:312|410:381,1,140,0|2,3:0|3:1,0:0:0:0:
343,324,51234,1,0,0:0:0:0:
234,367,51389,38,0,P|172:378|144:372,1,70,2|2,3:1|0:1,0:0:0:0:
68,301,51698,2,0,P|30:278|13:249,1,70,2|2,3:1|0:1,0:0:0:0:
92,167,52007,6,0,B|128:106|128:106|104:30,1,140,4|0,3:0|0:0,0:0:0:0:
252,125,52626,2,0,B|216:186|216:186|240:262,1,140,4|0,3:0|0:0,0:0:0:0:
314,61,53244,6,0,L|399:48,1,70,12|0,0:0|3:0,0:0:0:0:
498,119,53554,2,0,L|413:132,1,70,12|0,0:3|3:0,0:0:0:0:
341,176,53863,1,12,0:0:0:0:
351,273,54017,1,8,0:0:0:0:
434,323,54172,2,0,L|453:284,3,35,8|8|8|8,0:0|0:0|0:0|0:0,0:0:0:0:
463,263,54481,6,0,P|422:228|398:219,1,77.0000023498536,12|2,0:1|0:3,0:0:0:0:
293,230,54791,2,0,P|252:264|220:272,1,77.0000023498536,0|10,3:0|0:3,0:0:0:0:
121,345,55100,2,0,P|164:358|209:357,1,77.0000023498536,0|10,3:0|0:3,0:0:0:0:
144,252,55409,2,0,L|141:176,1,77.0000023498536,2|10,3:3|0:3,0:0:0:0:
54,116,55718,5,0,3:0:0:0:
127,40,55873,1,10,0:3:0:0:
127,40,55950,1,8,0:0:0:0:
127,40,56028,1,0,3:0:0:0:
211,100,56182,2,0,P|254:111|363:82,2,154.000004699707,10|10|8,0:3|0:3|0:0,0:0:0:0:
106,229,56956,6,0,P|59:244|23:246,1,77.0000023498536,4|10,3:3|0:3,0:0:0:0:
161,167,57265,2,0,P|209:188|252:228,1,77.0000023498536,0|10,3:0|0:3,0:0:0:0:
235,340,57574,1,0,3:0:0:0:
168,266,57729,1,10,0:3:0:0:
247,347,57883,2,0,L|332:336,1,77.0000023498536,2|8,3:3|0:0,0:0:0:0:
481,309,58193,38,0,P|419:294|376:287,1,77.0000023498536,0|10,3:0|0:3,0:0:0:0:
274,225,58502,2,0,P|318:207|377:200,1,77.0000023498536,0|10,3:0|0:3,0:0:0:0:
433,132,58811,2,0,P|430:79|407:30,1,77.0000023498536,0|0,3:0|0:0,0:0:0:0:
393,30,59043,1,10,0:3:0:0:
393,30,59121,2,0,L|332:39,3,38.5000011749268,0|0|10|8,3:0|3:0|0:3|0:0,0:0:0:0:
282,88,59430,6,0,P|237:54|123:78,1,154.000004699707,4|0,3:3|3:0,0:0:0:0:
67,114,59894,2,0,P|101:143|143:151,1,77.0000023498536,10|0,0:3|3:0,0:0:0:0:
215,224,60203,2,0,P|198:269|160:299,1,77.0000023498536,10|2,0:3|3:3,0:0:0:0:
261,135,60512,1,8,0:3:0:0:
335,200,60667,6,0,B|414:214|414:214|507:190,1,154.000004699707,0|0,3:0|3:0,0:0:0:0:
402,99,61131,1,10,0:3:0:0:
299,267,61286,2,0,P|338:289|393:292,1,77.0000023498536,0|10,3:0|0:3,0:0:0:0:
407,295,61517,1,0,0:0:0:0:
407,295,61595,2,0,P|379:339|352:359,1,77.0000023498536,2|10,3:3|0:3,0:0:0:0:
225,360,61904,6,0,L|102:339,1,115.50000352478,6|10,3:3|0:3,0:0:0:0:
75,317,62213,2,0,P|74:278|79:240,1,77.0000023498536,0|10,3:0|0:3,0:0:0:0:
200,179,62523,2,0,P|209:107|199:76,1,77.0000023498536,0|10,3:0|0:3,0:0:0:0:
188,69,62755,1,8,0:0:0:0:
188,69,62832,2,0,L|111:75,1,77.0000023498536,2|10,3:3|0:3,0:0:0:0:
274,17,63141,5,4,3:0:0:0:
356,82,63296,2,0,L|361:143,1,38.5000011749268,8|0,0:0|0:0,0:0:0:0:
375,92,63450,2,0,L|380:153,1,38.5000011749268,4|0,3:0|0:0,0:0:0:0:
391,100,63605,2,0,L|396:161,1,38.5000011749268,8|8,0:0|0:0,0:0:0:0:
409,110,63760,2,0,P|408:209|418:263,1,154.000004699707,4|4,3:0|3:0,0:0:0:0:
503,307,64224,1,12,0:0:0:0:
486,202,64378,6,0,P|425:187|308:188,1,154.000004699707,8|0,3:1|3:0,0:0:0:0:
273,263,64842,1,2,0:3:0:0:
199,193,64997,2,0,P|159:208|116:218,1,77.0000023498536,0|2,3:0|0:3,0:0:0:0:
25,300,65306,2,0,P|71:307|112:319,1,77.0000023498536,0|2,3:0|0:3,0:0:0:0:
228,256,65615,37,0,3:0:0:0:
160,171,65770,2,0,P|148:129|158:20,2,154.000004699707,0|2|2,0:0|0:3|0:3,0:0:0:0:
254,159,66543,1,0,3:0:0:0:
314,238,66698,1,10,0:3:0:0:
435,155,66853,6,0,B|453:94|422:28|422:28|415:75,1,154.000004699707,6|8,3:3|3:0,0:0:0:0:
349,99,67316,1,0,0:0:0:0:
404,231,67471,2,0,B|447:277|520:283|520:283|483:253,1,154.000004699707,6|8,3:0|3:0,0:0:0:0:
501,185,67935,1,10,0:3:0:0:
347,172,68090,2,0,B|285:186|243:246|243:246|287:229,1,154.000004699707,4|8,3:0|0:0,0:0:0:0:
349,279,68554,1,4,0:3:0:0:
176,217,68708,6,0,P|167:258|183:384,1,154.000004699707,4|4,0:0|0:3,0:0:0:0:
52,212,69327,6,0,P|59:153|54:36,1,167.999994873047,4|2,0:3|0:3,0:0:0:0:
460,172,70564,2,0,P|453:231|458:348,1,167.999994873047,4|0,0:0|0:3,0:0:0:0:
368,374,71337,1,2,0:3:0:0:
325,371,71492,1,2,0:3:0:0:
283,365,71646,1,2,0:3:0:0:
235,358,71801,5,2,3:0:0:0:
268,227,72110,1,2,3:0:0:0:
268,227,72265,1,2,0:3:0:0:
124,215,72574,1,2,3:0:0:0:
99,75,72883,6,0,P|142:99|215:102,1,105.000004005432,2|2,3:0|3:0,0:0:0:0:
291,16,73347,2,0,L|220:30,1,52.5000020027161,0|2,3:0|3:0,0:0:0:0:
320,117,73657,2,0,P|347:84|421:51,1,105.000004005432,2|8,3:0|0:3,0:0:0:0:
481,106,74121,1,0,0:0:0:0:
384,176,74275,38,0,P|370:263|408:336,1,154.000004699707,12|0,0:1|3:0,0:0:0:0:
466,242,74739,1,10,0:0:0:0:
292,219,74894,2,0,P|291:260|300:302,1,77.0000023498536,0|10,3:0|0:0,0:0:0:0:
182,342,75203,2,0,P|221:365|275:373,1,77.0000023498536,2|10,3:2|0:0,0:0:0:0:
179,238,75512,6,0,P|128:249|75:346,1,154.000004699707,0|0,3:0|3:0,0:0:0:0:
17,160,76131,2,0,P|56:176|113:179,1,77.0000023498536,0|10,3:0|0:0,0:0:0:0:
217,68,76440,2,0,P|174:90|152:127,1,77.0000023498536,2|10,3:2|0:0,0:0:0:0:
229,186,76749,6,0,L|322:169,2,77.0000023498536,0|8|0,3:0|0:0|3:0,0:0:0:0:
341,84,77213,1,10,0:0:0:0:
426,149,77368,2,0,L|501:135,1,77.0000023498536,0|10,3:0|0:0,0:0:0:0:
391,255,77677,2,0,L|466:241,1,77.0000023498536,0|10,3:0|0:0,0:0:0:0:
349,351,77987,6,0,P|306:335|277:307,1,77.0000023498536,4|8,3:0|0:0,0:0:0:0:
197,247,78296,2,0,P|148:256|115:283,1,77.0000023498536,4|8,3:0|0:0,0:0:0:0:
65,362,78605,1,4,0:0:0:0:
33,148,78914,1,0,3:0:0:0:
198,333,79224,6,0,P|245:318|284:243,1,115.50000352478,4|10,3:0|0:0,0:0:0:0:
281,265,79533,2,0,L|267:173,1,77.0000023498536,0|10,3:0|0:0,0:0:0:0:
168,161,79842,1,0,3:0:0:0:
161,198,79997,1,10,0:0:0:0:
154,236,80151,1,0,3:0:0:0:
147,273,80306,1,10,0:0:0:0:
207,357,80461,6,0,P|252:370|321:327,1,115.50000352478,0|10,3:0|0:0,0:0:0:0:
311,341,80770,2,0,L|396:333,1,77.0000023498536,0|10,3:0|0:0,0:0:0:0:
449,238,81079,1,0,3:0:0:0:
411,229,81234,1,10,0:0:0:0:
372,221,81389,1,8,3:2:0:0:
334,213,81543,1,10,0:0:0:0:
308,110,81698,38,0,P|344:70|423:72,1,115.50000352478,0|10,3:0|0:0,0:0:0:0:
402,63,82007,2,0,L|391:149,1,77.0000023498536,0|10,3:0|0:0,0:0:0:0:
265,190,82316,2,0,P|283:232|311:269,1,77.0000023498536,0|8,3:0|0:0,0:0:0:0:
191,337,82626,2,0,P|233:362|285:368,1,77.0000023498536,0|10,3:0|0:0,0:0:0:0:
371,297,82935,5,4,3:0:0:0:
371,297,83090,1,8,0:0:0:0:
473,328,83244,1,4,3:0:0:0:
473,328,83399,1,8,0:0:0:0:
498,228,83554,1,4,0:0:0:0:
178,63,84172,5,0,0:0:0:0:
254,26,84327,1,0,0:0:0:0:
316,80,84481,2,0,P|318:134|303:183,1,83.9999974365235,2|0,0:3|0:0,0:0:0:0:
168,233,84791,6,0,L|134:228,3,35
232,308,85100,6,0,L|175:324,2,46.6666666666667,0|0|0,0:0|0:0|0:0,0:0:0:0:
350,359,85409,6,0,P|371:313|373:231,1,105,4|8,3:0|0:0,0:0:0:0:
376,259,85718,2,0,P|416:269|454:274,1,70,0|8,3:0|0:0,0:0:0:0:
420,139,86028,1,0,3:0:0:0:
349,183,86182,1,8,0:0:0:0:
282,131,86337,2,0,P|271:82|273:36,1,70,0|8,3:0|0:0,0:0:0:0:
113,18,86646,38,0,P|113:64|101:103,1,70,0|8,3:0|0:0,0:0:0:0:
180,222,86956,2,0,L|183:137,1,70,0|8,3:0|0:0,0:0:0:0:
188,53,87265,1,0,3:0:0:0:
470,106,87883,6,0,P|403:104|358:96,1,105,4|8,0:3|0:0,0:0:0:0:
365,97,88193,2,0,L|379:183,1,70,8|8,3:2|0:0,0:0:0:0:
302,257,88502,1,0,3:0:0:0:
365,310,88657,1,8,0:0:0:0:
296,358,88811,2,0,P|244:363|219:354,1,70,0|8,3:0|0:0,0:0:0:0:
108,292,89121,5,0,3:0:0:0:
181,237,89275,2,0,L|225:214,2,35,8|8|0,0:0|0:0|3:0,0:0:0:0:
110,191,89584,2,0,L|105:107,1,70,8|0,0:0|3:0,0:0:0:0:
105,121,90048,2,0,P|164:125|215:93,1,105,12|0,0:3|0:0,0:0:0:0:
208,88,90358,6,0,P|215:139|275:194,1,105,4|0,3:0|0:0,0:0:0:0:
247,179,90667,2,0,P|289:162|326:164,1,70,8|0,0:0|0:0,0:0:0:0:
487,144,90976,2,0,P|480:195|420:250,1,105,0|0,3:0|0:0,0:0:0:0:
447,235,91286,2,0,P|405:217|368:219,1,70,8|0,0:0|0:0,0:0:0:0:
222,198,91595,6,0,P|229:249|289:304,1,105,0|0,3:0|0:0,0:0:0:0:
261,289,91904,2,0,P|302:271|339:273,1,70,8|0,0:0|0:0,0:0:0:0:
455,252,92213,2,0,P|448:303|388:358,1,105,0|0,3:0|0:0,0:0:0:0:
415,343,92523,2,0,P|373:325|336:327,1,70,8|0,0:0|0:0,0:0:0:0:
232,261,92832,6,0,P|239:312|299:367,1,105,0|0,3:0|0:0,0:0:0:0:
277,356,93141,2,0,P|318:338|355:340,1,70,8|0,0:0|0:0,0:0:0:0:
471,230,93450,2,0,P|423:237|394:256,1,77.0000023498536,0|0,3:0|0:0,0:0:0:0:
251,150,93760,2,0,P|296:153|335:168,1,70,8|0,0:0|0:0,0:0:0:0:
440,86,94069,37,2,3:1:0:0:
377,32,94224,1,0,0:0:0:0:
297,57,94378,2,0,P|255:56|215:45,1,70,2|0,3:1|3:1,0:0:0:0:
153,14,94688,2,0,B|126:60|126:60|146:153,1,140,6|6,3:1|3:1,0:0:0:0:
147,315,95306,6,0,P|168:276|128:223,1,105,4|10,3:0|0:0,0:0:0:0:
139,227,95615,2,0,L|61:239,1,70,0|10,3:0|0:0,0:0:0:0:
178,382,95925,2,0,P|211:357|231:304,1,70,0|10,3:0|0:0,0:0:0:0:
276,261,96234,2,0,P|332:272|365:301,1,70,0|10,3:0|0:0,0:0:0:0:
430,331,96543,6,0,L|462:249,1,70,0|10,3:0|0:0,0:0:0:0:
390,205,96853,2,0,L|363:131,2,70,0|10|0,3:0|0:0|3:0,0:0:0:0:
467,84,97316,6,0,L|485:46,2,35,0|0|0,0:0|0:0|0:0,0:0:0:0:
374,4,97626,2,0,L|355:45,1,35,0|0,0:0|0:0,0:0:0:0:
347,62,97780,6,0,P|289:79|238:66,1,105,4|10,3:0|0:0,0:0:0:0:
246,70,98090,2,0,P|212:113|213:149,1,70,0|10,3:0|0:0,0:0:0:0:
282,170,98399,2,0,P|286:207|258:252,1,70,2|10,3:0|0:0,0:0:0:0:
203,282,98708,2,0,L|105:265,1,70,2|10,0:0|0:0,0:0:0:0:
93,184,99017,6,0,L|76:145,3,35,0|2|10|10,3:0|0:0|0:0|0:0,0:0:0:0:
103,104,99327,2,0,L|120:65,3,35,2|0|10|0,3:2|0:0|0:0|0:0,0:0:0:0:
86,28,99636,1,0,3:0:0:0:
255,73,99945,2,0,L|351:87,1,70,8|0,0:3|0:0,0:0:0:0:
406,31,100255,38,0,P|435:68|439:153,1,105,4|2,3:0|0:0,0:0:0:0:
445,124,100564,2,0,P|415:170|418:204,1,70,8|2,0:0|0:0,0:0:0:0:
462,258,100873,2,0,L|372:270,1,70,0|0,3:0|0:0,0:0:0:0:
215,264,101182,1,10,0:0:0:0:
193,352,101337,1,0,0:0:0:0:
285,376,101492,6,0,P|313:325|294:254,1,105,0|2,3:0|0:0,0:0:0:0:
308,279,101801,2,0,P|289:238|284:204,1,70,8|2,0:0|0:0,0:0:0:0:
200,107,102110,2,0,P|199:156|184:196,1,70,0|2,3:0|0:0,0:0:0:0:
102,295,102420,1,10,0:0:0:0:
32,235,102574,1,2,0:0:0:0:
97,170,102729,6,0,L|190:173,1,70,0|0,3:0|0:0,0:0:0:0:
268,67,103038,2,0,L|175:64,1,70,10|2,0:0|0:0,0:0:0:0:
287,180,103347,2,0,L|380:183,1,70,0|2,3:2|0:0,0:0:0:0:
503,84,103657,2,0,P|460:75|389:84,1,105,10|0,0:0|0:0,0:0:0:0:
394,90,103966,6,0,L|378:16,1,70,4|0,3:0|0:0,0:0:0:0:
249,118,104275,2,0,L|265:192,1,70,12|0,3:2|0:0,0:0:0:0:
379,107,104584,6,0,L|363:33,1,70,12|8,3:2|0:0,0:0:0:0:
234,135,104894,2,0,L|250:209,1,70,4|0,3:0|0:0,0:0:0:0:
340,353,105203,6,0,P|410:374|312:206,1,503.999984619141,4|0,3:0|3:0,0:0:0:0:
404,268,107368,1,0,3:0:0:0:
318,336,107677,38,0,L|239:326,1,70,2|0,3:1|0:0,0:0:0:0:
173,364,107987,2,0,L|94:354,1,70,2|2,3:1|0:1,0:0:0:0:
35,277,108296,1,0,3:0:0:0:
95,219,108450,1,0,0:1:0:0:
163,268,108605,1,2,3:1:0:0:
244,246,108760,1,0,0:0:0:0:
285,171,108914,6,0,P|285:128|264:88,1,70,2|0,3:1|0:0,0:0:0:0:
184,42,109224,2,0,P|173:83|185:124,1,70,2|0,3:1|0:0,0:0:0:0:
285,171,109533,2,0,L|363:158,1,70,2|0,3:1|0:0,0:0:0:0:
400,239,109842,2,0,L|478:226,1,70,2|0,3:1|0:0,0:0:0:0:
501,115,110151,6,0,P|477:78|388:59,1,140,2|2,3:1|3:1,0:0:0:0:
290,92,110615,1,2,0:1:0:0:
290,92,110925,1,0,0:0:0:0:
223,41,111079,1,2,3:1:0:0:
138,40,111234,1,0,0:0:0:0:
70,89,111389,2,0,L|82:244,1,140,0|0,3:0|3:0,0:0:0:0:
141,279,111853,1,2,0:1:0:0:
283,238,112007,6,0,P|292:191|273:147,1,77.0000023498536,0|0,3:0|0:1,0:0:0:0:
209,305,112316,2,0,P|202:348|225:393,1,77.0000023498536,0|2,3:0|0:1,0:0:0:0:
337,374,112626,6,0,P|400:374|482:357,1,140,4|0,3:0|0:0,0:0:0:0:
269,260,113244,2,0,P|206:260|124:243,1,140,4|0,3:0|0:0,0:0:0:0:
117,41,113863,5,4,3:0:0:0:
158,137,114017,1,0,3:0:0:0:
49,124,114172,2,0,P|34:85|35:36,1,83.9999974365235,12|0,3:0|3:0,0:0:0:0:
132,20,114481,2,0,L|220:31,1,83.9999974365235,4|8,3:0|0:0,0:0:0:0:
309,88,114791,2,0,L|300:142,3,41.9999987182618,8|8|8|8,3:2|0:0|0:0|0:0,0:0:0:0:
301,155,115100,38,0,P|346:179|417:170,1,115.50000352478,12|10,3:1|0:3,0:0:0:0:
408,173,115409,2,0,L|402:261,1,77.0000023498536,0|10,3:0|0:3,0:0:0:0:
387,371,115718,1,0,3:0:0:0:
459,313,115873,1,10,0:3:0:0:
332,288,116028,2,0,P|282:292|247:319,1,77.0000023498536,2|8,3:0|0:0,0:0:0:0:
149,378,116337,6,0,P|117:346|105:312,1,77.0000023498536,0|10,3:0|0:3,0:0:0:0:
105,316,116569,1,8,0:0:0:0:
105,316,116646,1,0,3:0:0:0:
162,242,116801,2,0,B|180:185|180:185|136:82,2,154.000004699707,10|10|10,0:3|0:3|0:3,0:0:0:0:
264,101,117574,6,0,B|248:62|248:62|260:9,1,77.0000023498536,4|0,3:0|0:0,0:0:0:0:
342,66,117883,2,0,B|358:105|358:105|346:158,1,77.0000023498536,0|10,3:0|0:3,0:0:0:0:
278,201,118193,2,0,L|190:188,1,77.0000023498536,0|10,3:0|0:3,0:0:0:0:
105,119,118502,2,0,L|193:106,1,77.0000023498536,0|10,3:0|0:3,0:0:0:0:
151,247,118811,1,0,3:0:0:0:
151,247,118966,2,0,P|100:256|25:183,1,154.000004699707,10|10,0:3|0:3,0:0:0:0:
102,117,119430,1,0,3:0:0:0:
35,50,119584,1,10,0:3:0:0:
35,50,119662,1,8,0:0:0:0:
35,50,119739,2,0,L|67:13,3,38.5000011749268,2|8|8|8,3:0|0:0|0:0|0:0,0:0:0:0:
79,5,120048,6,0,B|137:37|137:37|232:22,1,154.000004699707,4|0,3:0|3:0,0:0:0:0:
324,41,120512,2,0,P|345:94|336:135,1,77.0000023498536,10|0,0:3|3:0,0:0:0:0:
469,147,120822,2,0,P|439:178|393:189,1,77.0000023498536,10|2,0:3|3:3,0:0:0:0:
256,139,121131,1,8,0:0:0:0:
190,204,121286,6,0,B|173:243|173:243|198:311|198:311|169:359,1,154.000004699707,0|0,3:0|3:0,0:0:0:0:
97,297,121749,1,10,0:3:0:0:
265,247,121904,2,0,P|325:245|373:282,1,115.50000352478,0|10,3:0|0:3,0:0:0:0:
373,289,122213,2,0,P|415:266|441:231,1,77.0000023498536,2|10,3:3|0:3,0:0:0:0:
403,71,122523,6,0,P|396:120|397:167,1,77.0000023498536,4|0,3:0|0:0,0:0:0:0:
277,16,122832,2,0,P|282:61|280:105,1,77.0000023498536,2|8,3:0|0:0,0:0:0:0:
168,84,123141,2,0,P|155:127|156:189,1,77.0000023498536,0|10,3:0|0:3,0:0:0:0:
47,17,123450,2,0,P|54:65|42:109,1,77.0000023498536,2|8,3:0|0:0,0:0:0:0:
12,238,123760,37,4,3:0:0:0:
99,293,123914,2,0,P|131:295|163:285,1,38.5000011749268,0|0,0:0|0:0,0:0:0:0:
104,317,124069,2,0,P|134:307|161:287,1,38.5000011749268,4|0,3:0|0:0,0:0:0:0:
119,336,124224,2,0,P|144:316|162:288,1,38.5000011749268,0|8,0:0|0:0,0:0:0:0:
136,346,124378,2,0,P|166:315|179:190,1,154.000004699707,4|4,3:0|3:0,0:0:0:0:
286,203,124842,1,8,0:0:0:0:
319,351,124997,6,0,P|295:311|295:261,1,77.0000023498536,12|0,3:1|0:0,0:0:0:0:
361,219,125306,2,0,P|400:233|452:245,1,77.0000023498536,2|0,3:0|0:0,0:0:0:0:
500,122,125615,2,0,P|461:136|409:148,1,77.0000023498536,0|0,3:0|0:0,0:0:0:0:
342,25,125925,2,0,P|381:39|433:51,1,77.0000023498536,2|0,3:0|0:0,0:0:0:0:
271,86,126234,5,0,3:0:0:0:
177,29,126389,2,0,P|95:40|39:111,2,154.000004699707,0|0|0,0:0|0:0|0:0,0:0:0:0:
255,90,127162,1,2,3:0:0:0:
226,209,127316,1,2,0:3:0:0:
118,177,127471,6,0,B|76:159|76:159|120:129|195:141,1,154.000004699707,6|0,3:0|3:0,0:0:0:0:
301,255,127935,1,2,0:3:0:0:
409,223,128090,2,0,B|451:205|451:205|407:175|332:187,1,154.000004699707,6|0,3:0|3:0,0:0:0:0:
219,306,128554,1,2,0:3:0:0:
111,274,128708,2,0,B|69:256|69:256|113:226|188:238,1,154.000004699707,6|8,3:0|3:0,0:0:0:0:
307,341,129172,1,0,3:0:0:0:
415,296,129327,6,0,P|354:247|286:272,1,154.000004699707,4|8,3:0|3:3,0:0:0:0:
182,130,129945,6,0,B|159:67|188:3|188:3|207:46,1,167.999994873047,4|0,3:0|3:0,0:0:0:0:
330,254,131182,2,2,B|353:317|324:381|324:381|305:338,1,167.999994873047,12|2,0:0|0:3,0:0:0:0:
253,286,131956,1,8,0:3:0:0:
215,266,132110,1,4,0:3:0:0:
172,265,132265,1,4,0:3:0:0:
132,288,132420,37,2,3:0:0:0:
96,140,132729,1,2,3:0:0:0:
96,140,132883,1,2,3:0:0:0:
191,348,133193,1,2,3:0:0:0:
321,242,133502,6,0,P|363:232|427:257,1,105,2|2,3:0|3:0,0:0:0:0:
503,338,133966,2,0,P|465:338|433:325,1,52.5000020027161,2|0,0:3|3:0,0:0:0:0:
410,204,134275,2,0,P|408:162|428:77,1,105.000004005432,2|8,3:0|0:3,0:0:0:0:
407,70,144791,70,0,P|415:105|405:178,1,105.000004005432,0|0,3:0|3:0,0:0:0:0:
340,225,145255,1,0,0:0:0:0:
228,179,145409,2,0,L|279:166,1,52.5000020027161,0|0,3:0|0:0,0:0:0:0:
215,259,145718,2,0,L|158:247,1,52.5000020027161,0|0,3:0|0:0,0:0:0:0:
116,174,146028,2,0,L|107:109,1,52.5000020027161,0|0,3:0|0:0,0:0:0:0:
33,176,146337,2,0,L|44:238,1,52.5000020027161,0|0,3:0|0:0,0:0:0:0:
131,158,146646,2,0,L|117:37,2,105.000004005432,2|2|0,3:0|3:0|3:0,0:0:0:0:
171,277,147420,6,0,P|203:291|288:271,1,105.000004005432
223,159,147883,2,0,L|226:217,1,52.5000020027161,0|0,3:0|0:0,0:0:0:0:
304,267,148193,2,0,L|301:209,1,52.5000020027161,0|0,3:0|0:0,0:0:0:0:
363,143,148502,2,0,P|392:157|423:164,1,52.5000020027161,2|2,3:2|0:2,0:0:0:0:
475,62,148811,2,0,P|446:71|423:91,1,52.5000020027161,0|2,3:0|0:2,0:0:0:0:
468,237,149121,2,0,P|485:204|471:123,2,105.000004005432,2|0|0,3:2|3:0|3:0,0:0:0:0:
347,324,149894,102,0,L|280:306,1,52.5000020027161,0|0,0:0|3:0,0:0:0:0:
210,354,150203,1,0,0:0:0:0:
210,354,150358,2,0,L|187:284,1,52.5000020027161,0|0,3:0|0:0,0:0:0:0:
96,303,150667,2,0,L|113:237,1,52.5000020027161,0|0,3:0|0:0,0:0:0:0:
187,202,150976,2,0,L|259:194,1,52.5000020027161,0|0,3:0|0:0,0:0:0:0:
125,137,151286,2,0,L|62:129,1,52.5000020027161,0|0,3:0|0:0,0:0:0:0:
202,219,151595,2,0,L|316:210,2,105.000004005432,2|2|0,3:0|3:0|3:0,0:0:0:0:
227,57,152368,6,0,P|262:68|291:94,1,52.5000020027161,0|0,0:0|3:0,0:0:0:0:
353,146,152677,1,0,0:0:0:0:
353,146,152832,2,0,P|376:115|385:87,1,52.5000020027161,0|0,3:0|0:0,0:0:0:0:
490,93,153141,2,0,P|470:55|448:37,1,52.5000020027161,0|0,3:0|0:0,0:0:0:0:
352,19,153450,2,0,L|286:33,1,52.5000020027161,2|2,3:2|0:0,0:0:0:0:
165,89,153760,2,0,L|231:103,1,52.5000020027161,0|2,3:0|0:0,0:0:0:0:
311,144,154069,2,0,B|327:185|327:185|310:218|310:218|311:257,1,105.000004005432,2|8,3:2|3:2,0:0:0:0:
294,356,154533,101,8,0:0:0:0:
294,356,154610,1,8,0:0:0:0:
294,356,154688,2,0,P|257:339|191:351,1,94.499997116089,0|0,3:0|0:0,0:0:0:0:
204,344,154997,2,0,L|186:275,1,62.9999980773926,8|0,0:0|0:0,0:0:0:0:
98,141,155306,2,0,L|84:251,1,94.499997116089,0|0,3:0|0:0,0:0:0:0:
86,234,155615,2,0,P|124:218|155:218,1,62.9999980773926,8|0,3:2|0:0,0:0:0:0:
270,253,155925,6,0,P|247:222|230:188,1,62.9999980773926,0|0,3:0|0:0,0:0:0:0:
231,71,156234,2,0,P|265:93|278:135,1,62.9999980773926,8|0,3:2|0:0,0:0:0:0:
351,179,156543,2,0,P|382:152|418:67,2,125.999996154785,0|8|0,3:0|3:2|3:0,0:0:0:0:
230,220,157316,101,0,0:0:0:0:
146,158,157471,2,0,L|44:148,1,94.499997116089,8|0,3:2|0:0,0:0:0:0:
51,148,157780,2,0,P|39:110|48:73,1,62.9999980773926,0|0,3:0|0:0,0:0:0:0:
163,30,158090,2,0,P|193:51|258:65,1,94.499997116089,8|0,3:2|0:0,0:0:0:0:
248,65,158399,2,0,P|238:113|256:142,1,62.9999980773926,2|2,3:2|0:2,0:0:0:0:
302,200,158708,1,8,3:2:0:0:
381,106,158863,2,0,P|393:65|386:25,2,62.9999980773926,2|2|0,0:2|3:2|0:0,0:0:0:0:
384,189,159327,2,0,P|435:203|491:191,1,94.499997116089,8|0,0:2|0:0,0:0:0:0:
475,197,159636,6,0,L|470:269,1,62.9999980773926,0|0,3:0|0:0,0:0:0:0:
394,313,159945,2,0,L|317:301,1,62.9999980773926,8|0,3:2|0:0,0:0:0:0:
226,289,160255,1,0,3:0:0:0:
163,352,160409,1,0,0:0:0:0:
86,307,160564,2,0,L|68:233,1,62.9999980773926,8|0,3:2|0:0,0:0:0:0:
156,184,160873,2,0,P|158:138|166:113,1,62.9999980773926,0|0,3:2|0:0,0:0:0:0:
268,142,161182,2,0,P|295:117|326:108,1,62.9999980773926,8|0,3:2|0:0,0:0:0:0:
392,188,161492,2,0,P|425:202|455:238,1,62.9999980773926,0|0,3:2|0:0,0:0:0:0:
256,192,161801,12,0,163347,3:0:0:0:
257,13,163966,102,0,L|263:58,3,41.9999987182618,8|8|0|0,0:0|0:0|3:0|3:0,0:0:0:0:
268,88,164275,2,0,P|218:108|166:99,1,105.000004005432,8|0,0:0|0:0,0:0:0:0:
59,35,164584,22,0,B|42:78|42:78|54:119|54:119|37:170,1,125.999996154785,4|8,0:3|0:0,0:0:0:0:
34,181,164894,2,0,P|67:215|112:222,1,83.9999974365235,0|8,3:0|0:0,0:0:0:0:
43,338,165203,2,0,B|96:316|96:316|179:313,1,125.999996154785,4|8,3:2|0:0,0:0:0:0:
164,313,165512,2,0,P|180:270|207:228,1,83.9999974365235,0|8,3:0|0:0,0:0:0:0:
279,347,165822,6,0,B|307:297|307:297|306:221,1,125.999996154785,0|8,3:0|0:0,0:0:0:0:
306,228,166131,1,0,3:0:0:0:
392,294,166286,2,0,P|434:311|487:309,1,83.9999974365235,8|4,0:0|3:2,0:0:0:0:
500,173,166595,2,0,L|409:204,1,83.9999974365235,8|0,0:3|3:0,0:0:0:0:
273,107,166904,1,8,0:0:0:0:
297,196,167059,6,0,B|346:158|346:158|362:66,1,125.999996154785,4|8,3:0|0:0,0:0:0:0:
356,94,167368,2,0,P|390:71|459:67,1,83.9999974365235,0|8,3:0|0:0,0:0:0:0:
282,19,167677,2,0,P|240:25|199:21,1,83.9999974365235,4|8,3:2|0:0,0:0:0:0:
155,111,167987,2,0,P|113:100|63:100,1,83.9999974365235,0|8,3:0|0:0,0:0:0:0:
230,193,168296,6,0,B|187:225|187:225|110:242,1,125.999996154785,4|8,3:2|0:0,0:0:0:0:
104,244,168605,2,0,P|119:292|107:342,1,83.9999974365235,0|8,3:0|0:0,0:0:0:0:
7,296,168914,1,4,3:2:0:0:
5,180,169069,2,0,L|29:142,2,41.9999987182618,0|8|4,0:0|0:0|3:2,0:0:0:0:
122,249,169378,1,8,0:0:0:0:
195,170,169533,6,0,B|238:157|238:157|316:162,1,83.9999974365235,4|0,3:0|0:0,0:0:0:0:
420,240,169842,2,0,L|387:280,3,41.9999987182618,0|0|8|0,3:0|0:0|0:0|0:0,0:0:0:0:
377,296,170151,2,0,L|352:210,1,83.9999974365235,4|8,3:2|0:0,0:0:0:0:
251,245,170461,1,0,3:0:0:0:
379,135,170615,5,8,0:0:0:0:
277,125,170770,2,0,L|187:117,1,83.9999974365235,0|0,3:0|0:0,0:0:0:0:
89,122,171079,2,0,L|63:88,3,41.9999987182618,0|0|8|0,3:0|0:0|0:0|0:0,0:0:0:0:
49,66,171389,2,0,B|96:50|96:50|126:29,1,83.9999974365235,4|8,3:2|0:0,0:0:0:0:
210,89,171698,1,0,3:0:0:0:
152,185,171853,5,8,0:0:0:0:
257,228,172007,2,0,B|302:239|302:239|331:223|331:223|372:238|397:226,1,125.999996154785,4|8,3:0|0:0,0:0:0:0:
396,228,172316,2,0,P|429:192|430:153,1,83.9999974365235,0|8,3:0|0:0,0:0:0:0:
351,310,172626,2,0,P|414:321|449:306,1,83.9999974365235,4|8,3:2|0:0,0:0:0:0:
266,310,172935,1,0,3:0:0:0:
117,254,173090,6,0,B|105:293|105:293|124:342,1,83.9999974365235,8|4,0:0|3:0,0:0:0:0:
170,192,173399,1,4,0:2:0:0:
170,192,173554,2,0,B|147:146|147:146|143:102,1,83.9999974365235,4|4,3:0|0:2,0:0:0:0:
264,143,173863,2,0,B|272:104|272:104|263:53,1,83.9999974365235,4|12,3:0|0:0,0:0:0:0:
375,199,174172,2,0,B|372:144|372:144|386:101,1,83.9999974365235,12|8,2:2|0:0,0:0:0:0:
389,92,174404,1,8,0:0:0:0:
389,92,174481,6,0,B|442:97|463:140|463:140|446:180|446:180|455:238,1,181.999991668702,4|10,3:1|0:3,0:0:0:0:
465,330,174945,2,0,P|415:325|373:294,1,83.9999974365235,0|2,0:0|3:0,0:0:0:0:
236,262,175255,2,0,P|278:239|325:239,1,83.9999974365235,0|8,0:0|0:0,0:0:0:0:
298,358,175564,6,0,P|203:359|127:340,1,167.999994873047,2|2,0:3|0:3,0:0:0:0:
132,341,176182,1,2,0:3:0:0:
154,252,176337,1,0,3:0:0:0:
58,282,176492,1,2,0:3:0:0:
163,239,176646,2,0,P|173:192|161:152,1,83.9999974365235,10|0,0:3|0:0,0:0:0:0:
51,52,176956,6,0,B|53:97|53:97|71:145,2,83.9999974365235,4|2|10,3:0|0:3|0:3,0:0:0:0:
148,22,177420,1,0,0:3:0:0:
237,108,177574,6,0,B|248:152|248:152|248:204,2,83.9999974365235,6|2|8,3:0|0:3|0:0,0:0:0:0:
330,60,178038,1,2,0:3:0:0:
393,181,178193,6,0,B|374:220|374:220|365:268,2,83.9999974365235,12|8|10,3:0|0:0|3:0,0:0:0:0:
491,139,178657,1,0,3:3:0:0:
358,53,178811,6,0,B|351:102|351:102|318:141,1,83.9999974365235,4|10,3:0|3:0,0:0:0:0:
183,128,179121,2,0,B|161:102|161:102|154:53,1,83.9999974365235,10|2,3:0|0:3,0:0:0:0:
256,34,179430,37,4,3:0:0:0:
256,34,179739,5,0,3:0:0:0:
272,56,179894,1,0,3:0:0:0:
275,80,180048,5,0,3:0:0:0:
247,98,180203,1,0,3:0:0:0:
226,124,180358,1,0,3:0:0:0:
221,157,180512,1,0,3:0:0:0:
270,165,180667,5,0,3:0:0:0:
314,188,180822,1,0,3:2:0:0:
341,230,180976,1,8,3:2:0:0:
350,279,181131,1,8,3:2:0:0:
281,247,181286,5,8,3:2:0:0:
205,246,181440,1,8,0:0:0:0:
141,287,181595,1,8,0:0:0:0:
121,359,181749,1,8,0:0:0:0:
227,348,181904,22,0,L|200:225,1,105.000004005432,4|0,3:0|0:0,0:0:0:0:
82,260,182523,2,0,L|55:137,1,105.000004005432,12|0,0:0|0:0,0:0:0:0:
285,348,183141,6,0,L|312:225,1,105.000004005432,4|0,3:0|0:0,0:0:0:0:
430,260,183760,2,0,L|457:137,1,105.000004005432,12|8,0:0|0:0,0:0:0:0:
170,48,184378,102,0,P|247:97|347:44,2,210.000008010865,0|0|0,3:0|3:0|3:0,0:0:0:0:
84,79,185821,1,0,3:0:0:0:
66,168,186028,1,0,0:0:0:0:
130,232,186234,1,0,3:0:0:0:
382,232,187471,6,0,P|329:228|285:232,1,70,8|8,0:0|0:0,0:0:0:0:
277,250,187703,1,8,0:0:0:0:
277,250,187780,2,0,L|271:305,3,35,8|8|8|8,0:0|0:0|0:0|0:0,0:0:0:0:
272,317,188090,6,0,P|220:313|184:296,1,77.0000023498536,12|0,0:1|0:0,0:0:0:0:
72,326,188399,2,0,P|69:280|82:237,1,77.0000023498536,0|10,3:0|0:3,0:0:0:0:
153,120,188708,2,0,P|181:165|185:222,1,77.0000023498536,0|10,3:0|0:3,0:0:0:0:
48,123,189017,2,0,L|65:41,1,77.0000023498536,2|8,3:3|0:0,0:0:0:0:
215,26,189327,6,0,P|244:65|291:91,1,77.0000023498536,0|10,3:0|0:3,0:0:0:0:
297,96,189559,1,8,0:0:0:0:
297,96,189636,1,0,3:0:0:0:
393,38,189791,2,0,P|447:45|506:126,2,154.000004699707,10|10|10,0:3|0:3|0:3,0:0:0:0:
397,203,190564,6,0,P|408:162|410:111,1,77.0000023498536,4|2,3:0|0:3,0:0:0:0:
287,208,190873,2,0,P|307:262|333:289,1,77.0000023498536,0|8,3:0|0:3,0:0:0:0:
442,295,191182,1,0,3:0:0:0:
391,372,191337,1,10,0:3:0:0:
298,363,191492,2,0,L|209:357,1,77.0000023498536,0|10,3:0|0:3,0:0:0:0:
99,304,191801,6,0,P|141:271|182:266,1,77.0000023498536,0|10,3:0|0:3,0:0:0:0:
184,269,192033,1,8,0:0:0:0:
184,269,192110,1,0,3:0:0:0:
91,195,192265,2,0,P|82:148|81:99,1,77.0000023498536,8|0,0:0|3:0,0:0:0:0:
215,29,192574,2,0,L|223:66,5,38.5000011749268,0|8|0|8|8|8,0:0|0:0|3:0|0:0|0:0|0:0,0:0:0:0:
229,85,193038,6,0,P|283:74|367:98,1,115.50000352478,4|8,3:0|0:0,0:0:0:0:
341,84,193347,2,0,P|312:135|320:188,1,77.0000023498536,0|10,3:0|0:3,0:0:0:0:
377,235,193657,1,0,3:0:0:0:
456,178,193811,2,0,L|507:184,2,38.5000011749268,8|8|0,0:0|0:0|3:0,0:0:0:0:
347,250,194121,6,0,L|256:243,1,77.0000023498536,8|0,0:0|3:0,0:0:0:0:
98,210,194430,1,2,0:3:0:0:
55,273,194584,1,0,3:0:0:0:
83,344,194739,1,10,0:3:0:0:
163,363,194894,2,0,P|187:320|170:231,1,115.50000352478,0|10,3:0|0:3,0:0:0:0:
183,255,195203,2,0,P|234:239|255:211,1,77.0000023498536,0|10,3:0|0:3,0:0:0:0:
131,142,195512,38,0,L|32:133,1,77.0000023498536,6|0,3:3|0:0,0:0:0:0:
174,62,195822,2,0,L|273:53,1,77.0000023498536,0|8,3:0|0:0,0:0:0:0:
115,128,196131,6,0,L|16:119,1,77.0000023498536,0|8,3:0|0:0,0:0:0:0:
187,51,196440,2,0,L|286:42,1,77.0000023498536,0|8,3:0|0:0,0:0:0:0:
421,102,196749,5,4,3:0:0:0:
306,173,196904,2,0,P|308:135|317:116,1,38.5000011749268,0|0,0:0|0:0,0:0:0:0:
322,181,197059,2,0,P|360:183|379:192,1,38.5000011749268,4|0,3:0|0:0,0:0:0:0:
315,197,197213,2,0,P|313:235|304:254,1,38.5000011749268,0|8,0:0|0:0,0:0:0:0:
298,192,197368,2,0,P|246:207|134:184,1,154.000004699707,4|4,3:0|3:0,0:0:0:0:
61,257,197832,1,8,0:0:0:0:
181,364,197987,6,0,L|206:268,1,77.0000023498536,12|0,3:1|0:0,0:0:0:0:
311,289,198296,2,0,L|331:364,1,77.0000023498536,2|0,3:0|0:0,0:0:0:0:
173,273,198605,2,0,P|159:231|169:185,1,77.0000023498536,0|0,3:0|0:0,0:0:0:0:
349,199,198914,2,0,P|352:237|339:273,1,77.0000023498536,2|0,3:0|0:0,0:0:0:0:
254,164,199224,5,0,0:0:0:0:
254,164,199378,2,0,B|223:107|271:67|248:5,2,154.000004699707,0|0|2,0:0|0:0|0:3,0:0:0:0:
339,216,200151,1,2,3:0:0:0:
269,293,200306,1,0,0:0:0:0:
182,232,200461,6,0,B|131:208|131:208|78:238|32:212,1,154.000004699707,4|2,3:0|3:0,0:0:0:0:
78,136,200925,1,0,0:0:0:0:
253,182,201079,2,0,B|256:238|256:238|309:267|310:321,1,154.000004699707,4|2,3:0|3:0,0:0:0:0:
221,320,201543,1,0,0:0:0:0:
181,142,201698,2,0,B|230:112|230:112|226:50|273:22,1,154.000004699707,4|8,3:0|3:3,0:0:0:0:
316,99,202162,1,2,3:0:0:0:
445,248,202316,38,0,P|458:178|391:156,1,154.000004699707,4|8,3:0|3:0,0:0:0:0:
362,236,202780,1,0,3:0:0:0:
291,343,202935,6,0,B|227:367|213:308|152:342,1,140,12|2,3:0|0:3,0:0:0:0:
17,183,204172,2,0,B|81:207|95:148|156:182,1,140,12|0,0:0|0:0,0:0:0:0:
226,222,204945,1,8,3:0:0:0:
268,223,205100,1,4,3:0:0:0:
305,204,205255,1,4,3:0:0:0:
330,170,205409,5,2,3:0:0:0:
269,51,205718,1,2,3:0:0:0:
269,51,205873,1,2,3:0:0:0:
439,46,206182,1,2,3:0:0:0:
243,78,206492,6,0,P|199:89|137:102,1,105.000004005432,2|2,3:0|3:0,0:0:0:0:
11,150,206956,2,0,P|50:164|67:166,1,52.5000020027161,2|0,3:0|3:0,0:0:0:0:
150,198,207265,1,2,3:0:0:0:
82,274,207420,2,0,L|54:279,2,26.2500010013581,8|8|8,0:0|0:0|0:0,0:0:0:0:
146,341,207729,1,8,0:0:0:0:
240,241,207883,6,0,P|289:230|384:261,1,140,4|0,3:0|3:0,0:0:0:0:
373,253,208347,2,0,B|351:194|351:194|379:116,1,140,0|0,3:0|3:0,0:0:0:0:
240,22,208966,6,0,B|262:81|262:81|234:159,1,140,4|4,3:0|3:0,0:0:0:0:
235,153,209584,1,8,0:3:0:0:
268,238,209739,2,0,B|216:232|176:250|176:250|179:200|139:153,1,181.999991668702,4|0,3:0|2:0,0:0:0:0:
36,338,210358,38,0,P|75:369|181:371,1,140,4|0,0:1|3:0,0:0:0:0:
221,317,210822,1,10,0:0:0:0:
293,360,210976,2,0,L|378:346,2,70,0|10|2,3:0|0:0|3:2,0:0:0:0:
325,258,211440,1,10,0:0:0:0:
228,199,211595,6,0,B|136:220|136:220|74:192,1,140,0|0,3:0|3:0,0:0:0:0:
126,19,212213,2,0,P|182:8|215:17,2,70,0|8|0,3:0|0:0|3:0,0:0:0:0:
207,101,212677,1,10,0:0:0:0:
312,68,212832,6,0,P|351:68|404:63,1,70,0|8,3:0|0:0,0:0:0:0:
494,169,213141,2,0,P|451:168|402:174,1,70,0|10,3:0|0:0,0:0:0:0:
457,27,213450,2,0,P|455:71|462:119,1,70,0|10,3:0|0:0,0:0:0:0:
345,216,213760,2,0,P|346:177|340:124,1,70,0|10,3:0|0:0,0:0:0:0:
207,113,214069,6,0,P|180:146|170:181,1,70,4|10,3:2|0:0,0:0:0:0:
187,296,214378,2,0,P|217:275|234:234,1,70,4|10,3:2|0:0,0:0:0:0:
93,188,214688,1,4,3:2:0:0:
181,306,214997,2,0,L|233:323,3,35,8|8|8|8,3:2|3:2|3:2|3:2,0:0:0:0:
242,320,215306,6,0,P|241:247|256:202,1,105,4|10,3:0|0:0,0:0:0:0:
249,216,215615,2,0,P|297:232|333:232,1,70,0|10,3:0|0:0,0:0:0:0:
404,160,215925,1,0,3:0:0:0:
374,129,216079,1,10,0:0:0:0:
334,114,216234,1,0,3:0:0:0:
292,114,216389,1,10,0:0:0:0:
185,167,216543,6,0,B|157:131|157:131|164:50,1,105,0|10,3:0|0:0,0:0:0:0:
162,71,216853,2,0,P|117:64|83:79,1,70,0|8,3:0|0:0,0:0:0:0:
39,167,217162,1,0,3:0:0:0:
69,196,217316,1,10,0:0:0:0:
78,236,217471,1,0,3:0:0:0:
72,277,217626,1,10,0:0:0:0:
142,346,217780,38,0,P|183:333|215:337,1,70,0|8,3:0|0:0,0:0:0:0:
349,287,218090,2,0,P|308:274|276:278,1,70,0|10,3:0|0:0,0:0:0:0:
197,221,218399,2,0,P|176:183|177:138,1,70,0|10,3:0|0:0,0:0:0:0:
312,182,218708,2,0,P|328:144|328:102,1,70,0|10,3:0|0:0,0:0:0:0:
256,15,219017,5,4,3:0:0:0:
184,60,219172,1,10,0:0:0:0:
207,140,219327,1,4,3:0:0:0:
290,147,219481,1,10,0:0:0:0:
327,71,219636,1,4,3:0:0:0:
234,254,219945,5,6,0:0:0:0:
