osu file format v14

[General]
AudioFilename: mp3.mp3
AudioLeadIn: 0
PreviewTime: 188038
Countdown: 0
SampleSet: Soft
StackLeniency: 0.4
Mode: 0
LetterboxInBreaks: 0
WidescreenStoryboard: 1

[Editor]
Bookmarks: 18089,74275,84172,134894,144790,154687,164584,174481,197986,210357,219945,8144790
DistanceSpacing: 1.1
BeatDivisor: 4
GridSize: 32
TimelineZoom: 3.1

[Metadata]
Title:Super nuko ni naritai
TitleUnicode:すーぱーぬこになりたい
Artist:nayuta & yuikonnu
ArtistUnicode:nayuta&ゆいこんぬ
Creator:Pho
Version:Collab Insane
Source:
Tags:meow まふまふ にゃん mafumafu nya まふてる mafuteru nyaa neko i want to become a super alacat nyan milan- nyan appleeaterx nyan pkk nyan nyan nyan nyan
BeatmapID:1169597
BeatmapSetID:494097

[Difficulty]
HPDrainRate:6
CircleSize:4
OverallDifficulty:7
ApproachRate:9
SliderMultiplier:1.6
SliderTickRate:1

[Events]
//Background and Video events
0,0,"bg.jpg",0,0
Video,0,"niboshi.avi"
//Break Periods
2,74475,83122
//Storyboard Layer 0 (Background)
//Storyboard Layer 1 (Fail)
//Storyboard Layer 2 (Pass)
//Storyboard Layer 3 (Foreground)
//Storyboard Sound Samples

[TimingPoints]
1285.82544421139,309.278350515464,4,2,1,60,1,0
3760,-117.647058823529,4,2,1,50,0,0
13656,-100,4,2,1,60,0,0
23553,-100,4,2,1,35,0,0
24481,-100,4,2,1,50,0,0
24790,-117.647058823529,4,2,1,70,0,0
44584,-133.333333333333,4,2,1,60,0,0
54481,-100,4,2,1,80,0,1
69327,-100,4,2,1,70,0,0
84172,-100,4,2,1,60,0,0
84481,-200,4,2,1,60,0,0
84790,-100,4,2,1,60,0,0
85409,-117.647058823529,4,2,1,70,0,0
99945,-153.846153846153,4,2,1,70,0,0
100254,-117.647058823529,4,2,1,70,0,0
103966,-105.263157894737,4,2,1,70,0,0
105203,-133.333333333333,4,2,1,60,0,0
115100,-100,4,2,1,80,0,1
129945,-100,4,2,1,70,0,0
134894,-100,4,2,1,50,0,0
154687,-100,4,2,1,60,0,0
162110,-100,4,2,1,70,0,0
163347,-133.333333333333,4,2,1,50,0,0
163811,-100,4,2,1,70,0,0
164584,-100,4,2,1,80,0,0
179430,-133.333333333333,4,2,1,70,0,0
180667,-100,4,2,1,60,0,0
181904,-100,4,2,1,70,0,0
187471,-100,4,2,1,50,0,0
188089,-86.9565217391304,4,2,1,80,0,1
202935,-100,4,2,1,70,0,0
219636,-133.333333333333,4,2,1,70,0,0
219945,-133.333333333333,4,2,42,70,0,0

[Colours]
Combo1 : 81,101,104
Combo2 : 243,95,218
Combo3 : 119,207,109
Combo4 : 255,255,128
Combo5 : 122,191,233
Combo6 : 255,164,72

[HitObjects]
60,124,1285,6,0,P|73:174|92:287,1,160,2|2,0:1|0:1,0:0:0:0:
173,368,1749,2,0,P|185:288|204:211,1,160,2|2,0:1|0:1,0:0:0:0:
272,46,2213,1,0,0:0:0:0:
313,131,2368,6,0,P|237:138|182:63,2,160,2|2|2,0:1|0:1|0:1,0:0:0:0:
372,54,3141,2,0,P|415:67|475:90,1,80,0|0,0:0|0:0,0:0:0:0:
474,190,3450,2,0,P|431:177|371:154,1,80,0|0,0:1|0:0,0:0:0:0:
361,268,3760,6,0,L|369:321,3,34.0000006484985,0|0|0|0,3:0|0:0|0:0|0:0,0:0:0:0:
292,358,4069,2,0,L|284:305,3,34.0000006484985,0|0|0|0,3:0|0:0|0:0|0:0,0:0:0:0:
191,276,4378,2,0,L|199:329,3,34.0000006484985,0|0|0|0,3:0|0:0|0:0|0:0,0:0:0:0:
122,366,4687,2,0,L|114:313,3,34.0000006484985,0|0|0|0,3:0|0:0|0:0|0:0,0:0:0:0:
96,252,4997,6,0,P|49:264|16:276,1,68.0000012969971,0|0,3:0|0:0,0:0:0:0:
165,186,5306,1,0,3:0:0:0:
165,186,5383,1,0,0:0:0:0:
165,186,5461,1,0,0:0:0:0:
79,139,5615,2,0,P|70:98|65:67,1,68.0000012969971,2|2,3:2|0:2,0:0:0:0:
159,7,5925,2,0,P|168:48|173:79,1,68.0000012969971,2|0,3:2|0:0,0:0:0:0:
167,186,6234,6,0,P|226:167|319:146,1,136.000002593994,0|0,3:0|3:0,0:0:0:0:
265,65,6698,1,0,0:0:0:0:
459,101,6852,6,0,L|506:93,3,34.0000006484985,0|0|0|0,3:0|0:0|0:0|0:0,0:0:0:0:
409,175,7162,2,0,L|362:167,3,34.0000006484985,0|0|0|0,3:0|0:0|0:0|0:0,0:0:0:0:
476,243,7471,2,0,L|523:251,3,34.0000006484985,2|0|2|0,3:0|0:0|3:0|0:0,0:0:0:0:
432,310,7780,2,0,L|385:318,3,34.0000006484985,0|0|0|0,0:0|0:0|0:0|0:0,0:0:0:0:
309,344,8089,6,0,P|311:297|316:259,1,68.0000012969971,2|2,3:0|3:0,0:0:0:0:
376,151,8399,1,0,3:0:0:0:
375,134,8477,1,0,0:0:0:0:
373,117,8554,1,0,0:0:0:0:
370,100,8631,1,0,0:0:0:0:
366,84,8708,6,0,L|375:35,3,34.0000006484985,0|0|0|0,3:0|0:0|0:0|0:0,0:0:0:0:
272,111,9017,2,0,L|281:62,3,34.0000006484985,0|0|0|0,3:0|0:0|0:0|0:0,0:0:0:0:
173,88,9327,2,0,L|182:39,3,34.0000006484985,0|0|0|0,3:0|0:0|0:0|0:0,0:0:0:0:
84,131,9636,2,0,L|93:82,3,34.0000006484985,0|0|0|0,3:0|0:0|0:0|0:0,0:0:0:0:
1,160,9945,6,0,L|17:311,1,136.000002593994,0|0,3:0|3:0,0:0:0:0:
210,233,10409,1,0,0:0:0:0:
210,233,10486,1,0,0:0:0:0:
210,233,10564,1,2,3:2:0:0:
114,262,10718,1,2,3:2:0:0:
207,333,10873,2,0,L|279:310,1,68.0000012969971,2|0,3:2|0:0,0:0:0:0:
447,248,11182,5,0,0:0:0:0:
479,333,11337,2,0,P|418:334|360:269,1,136.000002593994,0|0,0:0|3:0,0:0:0:0:
447,248,11801,1,0,3:0:0:0:
447,248,11878,1,0,0:0:0:0:
447,248,11955,1,0,3:0:0:0:
367,137,12110,1,0,3:0:0:0:
333,132,12187,1,0,3:0:0:0:
300,140,12264,1,0,3:0:0:0:
273,161,12341,1,0,3:0:0:0:
256,190,12419,5,0,3:0:0:0:
256,192,12497,12,8,13347,0:0:0:0:
243,343,13502,6,0,L|251:395,1,34.0000006484985,0|0,0:0|0:0,0:0:0:0:
223,323,13656,6,0,L|127:307,1,80,12|0,0:1|0:0,0:0:0:0:
120,287,13888,1,10,0:0:0:0:
120,287,13966,1,0,3:0:0:0:
255,195,14120,2,0,L|307:187,2,40,10|0|0,0:0|0:0|3:0,0:0:0:0:
52,126,14430,2,0,L|0:118,2,40,10|8|2,0:0|0:0|3:2,0:0:0:0:
151,187,14739,1,10,0:0:0:0:
151,187,14816,1,0,0:0:0:0:
151,187,14894,6,0,L|167:91,1,80,0|8,3:0|0:0,0:0:0:0:
119,47,15126,2,0,L|127:3,1,40,10|0,0:0|3:0,0:0:0:0:
295,83,15357,2,0,L|287:127,1,40,10|0,0:0|0:0,0:0:0:0:
327,187,15512,2,0,P|375:195|411:163,1,80,0|10,3:0|0:0,0:0:0:0:
423,151,15744,1,8,0:0:0:0:
423,151,15821,1,2,3:2:0:0:
471,331,15976,2,0,L|479:375,1,40,10|0,0:0|0:0,0:0:0:0:
451,303,16131,6,0,L|371:295,1,80,0|10,3:0|0:0,0:0:0:0:
345,325,16363,1,10,0:0:0:0:
345,325,16440,2,0,L|265:317,1,80,0|10,3:0|0:0,0:0:0:0:
187,331,16672,2,0,L|179:375,1,40,0|0,0:0|3:0,0:0:0:0:
279,203,16904,2,0,L|271:163,2,40,8|10|0,0:0|0:0|3:2,0:0:0:0:
123,155,17213,1,10,0:0:0:0:
123,155,17290,1,2,0:0:0:0:
123,155,17368,5,4,3:0:0:0:
156,314,17522,1,10,0:0:0:0:
279,203,17677,1,4,3:0:0:0:
123,155,17832,1,10,0:0:0:0:
187,227,17986,5,4,3:0:0:0:
472,172,18296,6,0,L|520:184,3,40,0|0|0|0,3:0|3:0|3:0|3:0,0:0:0:0:
444,156,18605,6,0,L|428:252,1,80,8|0,0:1|0:0,0:0:0:0:
450,265,18837,1,10,0:0:0:0:
450,265,18914,1,0,3:0:0:0:
353,184,19069,1,10,0:0:0:0:
353,184,19146,1,0,0:0:0:0:
353,184,19223,2,0,P|313:184|273:208,1,80,0|10,3:0|0:0,0:0:0:0:
232,264,19455,2,0,L|172:248,1,40,8|2,0:0|3:2,0:0:0:0:
52,112,19687,1,10,0:0:0:0:
52,112,19765,1,0,0:0:0:0:
52,112,19842,6,0,L|144:96,1,80,0|8,3:0|0:0,0:0:0:0:
171,78,20074,1,10,0:0:0:0:
171,78,20151,2,0,P|187:130|183:162,1,80,0|10,3:0|0:0,0:0:0:0:
174,187,20383,1,2,0:0:0:0:
174,187,20461,1,0,3:0:0:0:
306,109,20615,2,0,L|362:117,2,40,10|8|2,0:0|0:0|3:2,0:0:0:0:
79,232,20925,1,10,0:0:0:0:
79,232,21002,1,0,0:0:0:0:
79,232,21079,6,0,L|91:320,1,80,0|10,3:0|0:0,0:0:0:0:
171,329,21311,2,0,L|176:371,1,40,10|0,0:0|3:0,0:0:0:0:
296,216,21543,2,0,L|300:255,1,40,10|2,0:0|0:0,0:0:0:0:
381,269,21698,2,0,L|393:357,1,80,0|10,3:0|0:0,0:0:0:0:
414,378,21930,1,8,0:0:0:0:
414,378,22007,1,2,3:2:0:0:
296,216,22162,1,10,0:0:0:0:
296,216,22239,1,0,0:0:0:0:
296,216,22316,5,4,3:0:0:0:
459,171,22471,1,10,0:0:0:0:
381,269,22626,1,4,3:0:0:0:
334,123,22780,1,10,0:0:0:0:
459,171,22935,5,2,0:1:0:0:
237,96,23553,6,0,L|244:52,3,40,0|0|0|0,0:0|0:0|0:0|0:0,0:0:0:0:
161,47,23863,2,0,L|154:91,3,40,0|0|0|0,0:0|0:0|0:0|0:0,0:0:0:0:
186,172,24172,6,0,L|140:166,1,40,0|0,0:0|0:0,0:0:0:0:
163,258,24327,2,0,L|117:252,1,40,0|0,3:0|3:0,0:0:0:0:
134,349,24481,1,8,0:0:0:0:
134,349,24790,6,0,P|182:360|231:323,1,102.000001945496,4|8,3:0|0:0,0:0:0:0:
232,324,25100,1,0,3:0:0:0:
400,303,25254,1,8,0:0:0:0:
326,384,25409,2,0,L|308:242,1,136.000002593994,0|0,3:3|3:0,0:0:0:0:
292,115,25873,1,8,0:0:0:0:
292,115,25950,1,0,0:0:0:0:
292,115,26028,5,0,3:0:0:0:
244,192,26182,2,0,L|211:182,2,34.0000006484985,8|8|0,0:0|0:0|3:0,0:0:0:0:
362,176,26492,2,0,L|392:162,2,34.0000006484985,8|0|0,0:0|0:0|3:0,0:0:0:0:
79,56,27265,6,0,L|194:40,1,102.000001945496,4|8,3:0|0:0,0:0:0:0:
188,52,27574,2,0,L|263:42,1,68.0000012969971,0|8,3:0|0:0,0:0:0:0:
396,172,27883,2,0,L|281:156,1,102.000001945496,0|8,3:0|0:0,0:0:0:0:
287,168,28192,2,0,L|211:158,1,68.0000012969971,0|8,3:0|0:0,0:0:0:0:
52,202,28502,5,0,3:0:0:0:
145,214,28656,1,8,0:0:0:0:
145,214,28734,1,8,0:0:0:0:
145,214,28811,2,0,P|135:169|126:129,1,68.0000012969971,0|8,3:0|0:0,0:0:0:0:
116,104,29043,1,0,0:0:0:0:
116,104,29120,5,0,3:0:0:0:
287,168,29430,1,8,0:3:0:0:
82,292,29739,6,0,P|124:318|187:303,1,102.000001945496,4|0,3:0|0:0,0:0:0:0:
187,301,30048,2,0,L|200:374,1,68.0000012969971,8|0,0:0|0:0,0:0:0:0:
365,257,30357,1,0,3:0:0:0:
284,312,30512,1,0,0:0:0:0:
284,312,30589,1,0,0:0:0:0:
284,312,30667,2,0,L|271:239,1,68.0000012969971,8|0,0:0|0:0,0:0:0:0:
206,103,30976,6,0,L|311:119,1,102.000001945496,0|0,3:0|0:0,0:0:0:0:
323,123,31285,1,8,0:0:0:0:
446,55,31440,1,0,0:0:0:0:
346,32,31595,1,0,3:0:0:0:
416,153,31749,2,0,L|405:207,2,34.0000006484985,0|0|8,0:0|0:0|0:0,0:0:0:0:
465,260,32059,1,0,0:0:0:0:
465,260,32136,1,0,0:0:0:0:
465,260,32213,6,0,L|450:364,1,102.000001945496,0|0,3:0|0:0,0:0:0:0:
449,375,32522,1,8,0:0:0:0:
357,286,32677,1,0,0:0:0:0:
425,71,32832,6,0,L|410:175,1,102.000001945496,0|0,3:0|0:0,0:0:0:0:
409,186,33141,1,8,0:0:0:0:
317,97,33296,1,0,0:0:0:0:
218,211,33450,6,0,L|292:200,1,68.0000012969971,0|0,3:0|0:0,0:0:0:0:
195,107,33760,2,0,L|121:118,1,68.0000012969971,8|0,0:0|3:0,0:0:0:0:
61,85,33992,1,8,0:0:0:0:
61,85,34069,2,0,L|71:35,2,34.0000006484985,4|8|0,3:0|0:0|3:0,0:0:0:0:
36,239,34378,2,0,L|26:189,3,34.0000006484985,4|0|8|8,3:0|0:0|0:0|0:0,0:0:0:0:
37,283,34687,6,0,P|87:240|157:254,1,136.000002593994,6|0,3:2|3:0,0:0:0:0:
242,224,35151,1,10,0:0:0:0:
242,224,35229,1,0,0:0:0:0:
242,224,35306,2,0,L|233:308,1,68.0000012969971,0|10,3:0|0:0,0:0:0:0:
223,310,35538,2,0,L|217:350,1,34.0000006484985,10|0,0:0|3:0,0:0:0:0:
322,278,35770,6,0,L|328:238,2,34.0000006484985,10|0|0,0:0|0:0|3:0,0:0:0:0:
275,110,36079,2,0,L|269:150,2,34.0000006484985,10|0|0,0:0|0:0|3:0,0:0:0:0:
366,163,36388,1,10,0:0:0:0:
366,163,36466,1,0,0:0:0:0:
366,163,36543,2,0,L|444:154,1,68.0000012969971,2|2,3:2|0:3,0:0:0:0:
472,123,36775,1,2,0:3:0:0:
472,123,36852,1,2,0:3:0:0:
381,61,37007,1,2,0:3:0:0:
469,236,37162,6,0,L|456:323,1,68.0000012969971,4|0,3:0|0:0,0:0:0:0:
436,325,37394,2,0,L|432:360,1,34.0000006484985,10|0,0:0|3:0,0:0:0:0:
248,233,37626,1,10,0:0:0:0:
240,331,37780,2,0,P|292:329|310:311,1,68.0000012969971,0|10,3:0|0:0,0:0:0:0:
327,284,38012,1,8,0:0:0:0:
327,284,38089,1,2,3:2:0:0:
160,211,38244,6,0,L|120:220,2,34.0000006484985,10|0|0,0:0|0:0|3:0,0:0:0:0:
311,104,38553,1,10,0:0:0:0:
311,104,38631,1,10,0:0:0:0:
311,104,38708,2,0,L|318:177,1,68.0000012969971,2|10,3:2|0:0,0:0:0:0:
248,233,39017,5,0,3:0:0:0:
204,20,39327,5,12,0:3:0:0:
298,1,39481,1,0,0:0:0:0:
217,116,39636,6,0,P|157:95|77:85,1,136.000002593994,4|8,3:0|0:0,0:0:0:0:
101,260,40100,1,2,0:0:0:0:
4,204,40254,2,0,P|40:183|76:177,1,68.0000012969971,0|0,3:0|0:0,0:0:0:0:
97,353,40564,2,0,P|64:344|35:326,1,68.0000012969971,10|0,0:0|0:0,0:0:0:0:
233,231,40873,5,0,3:0:0:0:
155,180,41028,1,0,0:0:0:0:
180,306,41182,2,0,L|189:382,1,68.0000012969971,10|2,0:0|0:0,0:0:0:0:
233,231,41492,2,0,P|293:225|345:273,1,136.000002593994,0|10,3:0|0:0,0:0:0:0:
155,180,41955,1,8,0:0:0:0:
203,106,42110,6,0,L|216:30,1,68.0000012969971,0|0,3:0|0:0,0:0:0:0:
291,94,42419,1,8,0:0:0:0:
126,56,42574,1,2,0:0:0:0:
291,94,42729,2,0,P|358:102|405:48,1,136.000002593994,0|10,3:0|0:0,0:0:0:0:
455,329,43347,6,0,L|378:314,1,68.0000012969971,4|0,3:0|0:0,0:0:0:0:
355,227,43579,1,0,0:0:0:0:
355,227,43656,2,0,L|432:242,1,68.0000012969971,4|0,0:0|0:0,0:0:0:0:
481,186,43888,1,8,0:0:0:0:
481,186,43966,6,0,L|496:132,3,34.0000006484985,4|8|0|0,3:0|0:0|0:0|0:0,0:0:0:0:
402,106,44275,2,0,L|387:160,3,34.0000006484985,12|0|8|8,0:0|0:0|0:0|0:0,0:0:0:0:
305,55,44584,6,0,P|260:67|173:87,1,120.000004577637,4|2,3:0|3:1,0:0:0:0:
139,153,45048,2,0,P|80:139|22:124,1,120.000004577637,2|2,0:1|0:1,0:0:0:0:
11,216,45512,2,0,P|21:259|25:288,1,60.0000022888184,0|2,3:1|0:1,0:0:0:0:
29,365,45744,1,0,0:0:0:0:
29,365,45821,6,0,P|71:338|148:350,1,120.000004577637,0|2,3:0|3:1,0:0:0:0:
174,203,46285,1,0,0:0:0:0:
174,203,46363,1,0,0:0:0:0:
174,203,46440,2,0,L|163:270,1,60.0000022888184,2|0,3:1|0:0,0:0:0:0:
229,384,46749,2,0,L|240:317,1,60.0000022888184,2|0,3:1|0:0,0:0:0:0:
288,119,47059,6,0,P|274:175|258:250,1,120.000004577637,0|2,3:0|3:1,0:0:0:0:
335,300,47522,2,0,P|349:244|365:169,1,120.000004577637,2|2,0:1|0:1,0:0:0:0:
288,119,47986,2,0,P|244:129|223:133,1,60.0000022888184,0|2,3:0|0:1,0:0:0:0:
161,93,48218,1,0,0:0:0:0:
161,93,48296,6,0,L|175:42,3,30.0000011444092,0|0|0|0,3:0|0:0|0:1|0:0,0:0:0:0:
74,56,48605,2,0,L|88:5,3,30.0000011444092,2|0|2|0,3:1|0:0|0:1|0:0,0:0:0:0:
110,162,48914,6,0,L|124:213,3,30.0000011444092,2|0|0|0,3:1|0:0|0:0|0:0,0:0:0:0:
28,199,49223,2,0,L|42:250,3,30.0000011444092,2|0|0|0,3:1|0:0|0:0|0:0,0:0:0:0:
13,176,49533,6,0,P|12:251|9:315,1,120.000004577637,0|2,3:0|3:1,0:0:0:0:
58,362,49997,1,2,0:1:0:0:
123,309,50151,2,0,P|164:300|198:293,1,60.0000022888184,0|2,0:0|0:1,0:0:0:0:
288,229,50461,2,0,P|247:220|213:213,1,60.0000022888184,0|2,3:0|0:1,0:0:0:0:
153,222,50693,1,0,0:0:0:0:
153,222,50770,6,0,P|135:178|162:102,1,120.000004577637,0|2,3:0|3:1,0:0:0:0:
257,24,51234,1,0,0:0:0:0:
257,24,51311,1,0,0:0:0:0:
257,24,51388,2,0,L|186:37,1,60.0000022888184,2|2,3:1|0:1,0:0:0:0:
276,125,51698,2,0,L|347:112,1,60.0000022888184,2|2,3:1|0:1,0:0:0:0:
438,55,52007,5,4,3:0:0:0:
419,145,52471,5,0,3:0:0:0:
419,145,52549,1,0,3:0:0:0:
419,145,52626,1,4,3:0:0:0:
396,238,53089,5,0,3:0:0:0:
396,238,53167,1,0,3:0:0:0:
396,238,53244,2,0,L|401:292,3,30.0000011444092,12|8|0|0,0:0|0:0|3:0|3:0,0:0:0:0:
325,348,53553,2,0,L|320:294,3,30.0000011444092,12|8|0|0,0:3|0:3|3:0|3:0,0:0:0:0:
292,231,53863,6,0,P|232:249|219:253,1,60.0000022888184,12|8,0:0|0:0,0:0:0:0:
167,349,54172,1,8,0:0:0:0:
152,344,54249,1,8,0:0:0:0:
138,340,54326,1,8,0:0:0:0:
123,336,54403,1,8,0:0:0:0:
108,330,54481,6,0,L|97:182,1,120,12|8,0:1|0:0,0:0:0:0:
82,202,54790,2,0,L|77:113,1,80,0|10,3:0|0:3,0:0:0:0:
274,108,55100,2,0,P|233:109|196:86,1,80,0|10,3:0|0:3,0:0:0:0:
170,60,55332,1,8,0:0:0:0:
170,60,55409,1,2,3:3:0:0:
262,0,55564,1,10,0:3:0:0:
209,189,55718,5,0,3:0:0:0:
292,247,55873,1,10,0:3:0:0:
292,247,55950,1,8,0:0:0:0:
292,247,56028,2,0,L|390:234,1,80,0|10,3:0|0:3,0:0:0:0:
480,129,56337,1,0,3:0:0:0:
402,71,56492,1,10,0:3:0:0:
402,71,56569,1,8,0:0:0:0:
402,71,56646,2,0,P|385:124|386:177,1,80,2|8,3:3|0:0,0:0:0:0:
502,350,56955,6,0,P|461:308|389:323,1,120,4|8,3:3|0:0,0:0:0:0:
388,327,57265,1,0,3:0:0:0:
464,206,57419,1,10,0:3:0:0:
313,379,57574,2,0,L|218:358,1,80,0|10,3:0|0:3,0:0:0:0:
65,313,57883,2,0,L|160:292,1,80,2|8,3:3|0:0,0:0:0:0:
349,233,58193,5,0,3:0:0:0:
257,177,58347,2,0,L|235:281,1,80,10|0,0:3|3:0,0:0:0:0:
155,182,58656,1,10,0:3:0:0:
155,182,58734,1,8,0:0:0:0:
155,182,58811,1,0,3:0:0:0:
343,93,58966,1,0,0:0:0:0:
343,93,59043,1,10,0:3:0:0:
343,93,59120,2,0,L|330:160,3,40,0|0|10|8,3:0|3:0|0:3|0:0,0:0:0:0:
372,55,59430,6,0,P|315:59|264:15,1,120,4|8,3:3|0:0,0:0:0:0:
257,11,59739,1,0,3:0:0:0:
154,158,59894,2,0,L|70:139,1,80,10|0,0:3|3:0,0:0:0:0:
144,55,60203,1,10,0:3:0:0:
144,55,60280,1,8,0:0:0:0:
144,55,60357,1,2,3:3:0:0:
239,107,60512,6,0,P|250:150|254:189,1,80,8|0,0:3|3:0,0:0:0:0:
168,333,60821,1,10,0:3:0:0:
168,333,60899,1,8,0:0:0:0:
168,333,60976,2,0,P|172:293|182:249,1,80,0|10,3:0|0:3,0:0:0:0:
339,126,61285,2,0,P|393:121|454:175,1,120,0|0,3:0|0:0,0:0:0:0:
465,136,61595,2,0,P|452:185|447:227,1,80,2|10,3:3|0:3,0:0:0:0:
292,379,61904,6,0,B|307:321|307:321|288:289|288:289|304:220,1,160,6|0,3:3|3:0,0:0:0:0:
384,264,62368,1,10,0:3:0:0:
212,340,62522,1,0,3:0:0:0:
158,259,62677,1,10,0:3:0:0:
158,259,62754,1,8,0:0:0:0:
158,259,62832,2,0,L|45:245,1,80,2|10,3:3|0:3,0:0:0:0:
29,55,63141,5,4,3:0:0:0:
8,173,63296,1,8,0:0:0:0:
102,144,63450,1,4,3:0:0:0:
198,122,63605,1,8,0:0:0:0:
198,122,63682,1,8,0:0:0:0:
198,122,63760,2,0,L|210:198,3,40,4|8|8|8,3:0|0:0|0:0|0:0,0:0:0:0:
304,221,64069,2,0,L|310:181,3,40,4|0|12|8,3:0|0:0|0:0|0:0,0:0:0:0:
318,143,64378,6,0,P|368:155|444:167,1,120,8|0,3:1|0:0,0:0:0:0:
460,149,64687,1,0,3:0:0:0:
394,57,64842,1,2,0:3:0:0:
472,240,64997,2,0,P|462:296|457:329,1,80,0|2,3:0|0:3,0:0:0:0:
296,384,65306,2,0,P|289:344|282:305,1,80,0|2,3:0|0:3,0:0:0:0:
144,162,65615,5,0,3:0:0:0:
124,262,65770,2,0,L|220:244,2,80,0|0|2,0:0|3:0|0:3,0:0:0:0:
50,114,66234,1,0,3:0:0:0:
154,82,66388,2,0,P|146:142|143:170,1,80,2|0,0:3|3:0,0:0:0:0:
282,305,66698,1,10,0:3:0:0:
282,305,66775,1,8,0:0:0:0:
282,305,66852,6,0,P|290:245|293:217,1,80,6|0,3:3|0:0,0:0:0:0:
256,54,67162,2,0,P|248:114|245:142,1,80,8|0,3:0|0:0,0:0:0:0:
467,185,67471,2,0,P|407:168|331:144,1,120,6|0,3:0|0:0,0:0:0:0:
337,135,67780,1,8,3:0:0:0:
432,68,67935,1,10,0:3:0:0:
432,68,68012,1,8,0:0:0:0:
432,68,68089,5,4,3:0:0:0:
377,246,68244,2,0,L|364:290,2,40,10|8|8,0:3|0:0|0:0,0:0:0:0:
337,135,68553,1,4,0:3:0:0:
337,135,68631,1,4,0:3:0:0:
337,135,68708,2,0,P|276:142|201:160,1,120,4|0,0:0|0:0,0:0:0:0:
208,171,69017,2,0,P|151:158|108:153,1,80,4|4,0:3|0:3,0:0:0:0:
42,323,69327,5,4,0:3:0:0:
21,231,70409,5,0,3:0:0:0:
21,231,70486,1,0,3:0:0:0:
21,231,70564,1,4,0:0:0:0:
5,141,71337,5,2,0:3:0:0:
100,174,71492,1,2,0:3:0:0:
21,231,71646,1,2,0:3:0:0:
84,86,71801,6,0,P|148:81|246:62,1,160,2|2,3:0|3:0,0:0:0:0:
339,41,72265,2,0,P|318:121|306:199,1,160,2|2,0:3|3:0,0:0:0:0:
360,372,72729,1,0,0:0:0:0:
274,332,72883,6,0,P|307:288|417:301,1,160,2|2,3:0|3:0,0:0:0:0:
489,236,73347,2,0,P|502:291|501:331,1,80,0|2,3:0|3:0,0:0:0:0:
364,203,73656,2,0,P|366:163|377:124,1,80,2|0,3:0|0:0,0:0:0:0:
493,71,73966,1,8,0:3:0:0:
401,33,74120,1,0,0:0:0:0:
401,33,74198,1,0,0:0:0:0:
401,33,74275,5,12,0:1:0:0:
293,146,84172,5,0,0:0:0:0:
396,118,84327,1,0,0:0:0:0:
299,138,84481,2,0,L|309:74,1,60,2|0,0:3|0:0,0:0:0:0:
312,64,84790,6,0,P|288:71|256:73,1,40,0|0,0:0|0:0,0:0:0:0:
202,127,84945,2,0,P|180:116|156:93,1,40,0|0,0:0|0:0,0:0:0:0:
82,22,85100,2,0,P|94:50|88:93,2,53.3333333333333,0|0|0,0:0|0:0|0:0,0:0:0:0:
1,96,85409,6,0,P|51:87|93:113,1,102.000001945496,4|8,3:0|0:0,0:0:0:0:
122,191,85718,2,0,L|32:178,1,68.0000012969971,0|8,3:0|0:0,0:0:0:0:
0,293,86028,2,0,L|90:280,1,68.0000012969971,0|8,3:0|0:0,0:0:0:0:
97,296,86260,1,8,0:0:0:0:
97,296,86337,1,0,3:0:0:0:
197,254,86492,1,8,0:0:0:0:
229,357,86646,5,0,3:0:0:0:
215,238,86801,2,0,L|268:219,1,34.0000006484985,8|8,0:0|0:0,0:0:0:0:
321,186,86955,1,0,3:0:0:0:
340,306,87110,2,0,L|320:264,1,34.0000006484985,8|0,0:0|0:0,0:0:0:0:
321,186,87264,1,0,3:0:0:0:
299,103,87883,6,0,P|349:103|390:132,1,102.000001945496,4|8,0:3|0:0,0:0:0:0:
395,146,88193,2,0,L|400:70,1,68.0000012969971,8|8,3:2|0:0,0:0:0:0:
245,176,88502,2,0,P|194:175|153:146,1,102.000001945496,0|8,3:0|0:0,0:0:0:0:
149,133,88812,2,0,L|144:209,1,68.0000012969971,0|8,3:0|0:0,0:0:0:0:
85,54,89121,5,0,3:0:0:0:
44,159,89275,1,8,0:0:0:0:
44,159,89352,1,8,0:0:0:0:
44,159,89430,1,0,3:0:0:0:
149,133,89584,1,8,0:0:0:0:
0,254,89739,5,0,3:0:0:0:
185,41,90049,5,12,0:3:0:0:
305,262,90357,6,0,B|354:239|354:239|410:244,1,102.000001945496,4|0,3:0|0:0,0:0:0:0:
415,254,90667,2,0,P|451:266|509:247,1,68.0000012969971,8|0,0:0|0:0,0:0:0:0:
231,320,90976,2,0,B|208:271|208:271|213:215,1,102.000001945496,0|0,3:0|0:0,0:0:0:0:
223,210,91286,2,0,P|235:174|216:116,1,68.0000012969971,8|0,0:0|0:0,0:0:0:0:
394,59,91595,6,0,B|345:81|345:81|289:77,1,102.000001945496,0|0,3:0|0:0,0:0:0:0:
284,67,91905,2,0,P|248:55|190:74,1,68.0000012969971,8|0,0:0|0:0,0:0:0:0:
49,206,92213,2,0,P|93:183|143:190,1,102.000001945496,0|0,3:0|0:0,0:0:0:0:
157,201,92523,2,0,P|193:213|251:194,1,68.0000012969971,8|0,0:0|0:0,0:0:0:0:
416,332,92832,2,0,P|371:309|321:315,1,102.000001945496,0|0,3:0|0:0,0:0:0:0:
308,326,93142,2,0,P|272:338|214:319,1,68.0000012969971,8|0,0:0|0:0,0:0:0:0:
324,147,93450,6,0,L|333:214,1,68.0000012969971,0|0,3:0|0:0,0:0:0:0:
246,177,93682,1,0,0:0:0:0:
238,163,93760,2,0,L|247:96,1,68.0000012969971,8|0,0:0|0:0,0:0:0:0:
384,11,94069,6,0,P|351:11|319:22,1,68.0000012969971,2|0,3:1|0:0,0:0:0:0:
155,125,94379,2,0,P|123:124|85:110,1,68.0000012969971,2|0,3:1|3:1,0:0:0:0:
42,43,94611,1,8,0:0:0:0:
42,43,94688,2,0,L|52:-7,2,34.0000006484985,6|8|8,3:1|0:0|0:0,0:0:0:0:
15,187,94997,1,6,3:1:0:0:
151,215,95151,1,8,0:0:0:0:
151,215,95229,1,8,0:0:0:0:
151,215,95306,6,0,P|111:243|106:331,1,136.000002593994,4|0,3:0|3:0,0:0:0:0:
207,369,95770,1,10,0:0:0:0:
207,369,95848,1,0,0:0:0:0:
207,369,95925,2,0,L|291:360,1,68.0000012969971,0|10,3:0|0:0,0:0:0:0:
376,353,96234,1,0,3:0:0:0:
316,270,96388,1,10,0:0:0:0:
392,201,96543,5,0,3:0:0:0:
321,97,96698,2,0,L|316:131,2,34.0000006484985,10|10|0,0:0|0:0|3:0,0:0:0:0:
240,199,97007,1,10,0:0:0:0:
152,64,97162,2,0,P|159:98|150:153,1,68.0000012969971,0|0,3:0|0:0,0:0:0:0:
136,155,97394,2,0,L|88:160,1,34.0000006484985,0|0,0:0|0:0,0:0:0:0:
286,13,97626,2,0,L|238:8,1,34.0000006484985,0|0,0:0|0:0,0:0:0:0:
235,4,97780,6,0,L|394:3,1,136.000002593994,4|0,3:0|3:0,0:0:0:0:
465,130,98245,1,10,0:0:0:0:
376,96,98399,2,0,P|370:145|386:182,1,68.0000012969971,2|10,3:0|0:0,0:0:0:0:
403,187,98631,1,10,0:0:0:0:
403,187,98708,1,2,0:0:0:0:
331,249,98863,1,10,0:0:0:0:
242,214,99017,5,0,3:0:0:0:
180,352,99172,1,10,0:0:0:0:
180,352,99250,1,10,0:0:0:0:
180,352,99327,2,0,L|173:279,1,68.0000012969971,2|10,3:2|0:0,0:0:0:0:
195,125,99636,5,0,3:0:0:0:
195,125,99945,6,0,L|186:215,1,77.9999964294435,8|0,0:3|0:0,0:0:0:0:
163,119,100254,6,0,L|182:275,1,136.000002593994,4|8,3:0|0:0,0:0:0:0:
288,155,100719,1,2,0:0:0:0:
289,249,100873,2,0,P|346:230|369:209,1,68.0000012969971,0|0,3:0|0:0,0:0:0:0:
355,86,101182,2,0,P|326:68|293:59,1,68.0000012969971,10|0,0:0|0:0,0:0:0:0:
118,55,101492,5,0,3:0:0:0:
198,106,101647,1,0,0:0:0:0:
118,157,101801,2,0,L|127:233,1,68.0000012969971,8|2,0:0|0:0,0:0:0:0:
88,327,102110,2,0,P|119:282|198:272,1,136.000002593994,0|10,3:0|0:0,0:0:0:0:
369,340,102574,1,2,0:0:0:0:
281,376,102729,6,0,P|276:329|293:281,1,68.0000012969971,0|0,3:0|0:0,0:0:0:0:
369,340,103038,1,10,0:0:0:0:
195,271,103193,1,2,0:0:0:0:
393,209,103347,2,0,L|273:199,1,102.000001945496,0|0,3:2|0:0,0:0:0:0:
211,168,103656,2,0,L|331:158,1,102.000001945496,10|0,0:0|0:0,0:0:0:0:
202,111,103966,6,0,P|176:160|197:226,1,113.999996955872,4|8,3:0|0:0,0:0:0:0:
238,379,104275,2,0,P|264:330|243:264,1,113.999996955872,12|8,3:2|0:0,0:0:0:0:
125,307,104584,2,0,L|174:316,1,37.9999989852906,12|8,3:2|0:0,0:0:0:0:
354,350,104739,1,8,0:0:0:0:
393,259,104894,1,4,3:0:0:0:
435,170,105048,1,0,0:0:0:0:
435,170,105203,6,0,P|374:175|302:162,2,120.000004577637,4|0|0,3:0|0:0|0:0,0:0:0:0:
249,58,106131,2,0,P|182:64|143:84,1,90.0000034332277,0|0,0:0|0:0,0:0:0:0:
140,61,106440,6,0,P|141:109|149:203,1,120.000004577637,0|0,0:0|0:0,0:0:0:0:
172,334,106904,1,0,0:0:0:0:
172,334,106981,1,0,0:0:0:0:
172,334,107059,2,0,P|181:298|179:263,1,60.0000022888184,0|0,3:0|0:0,0:0:0:0:
322,257,107368,2,0,P|302:225|276:201,1,60.0000022888184,0|0,3:0|0:0,0:0:0:0:
378,88,107677,6,0,P|319:78|261:93,2,120.000004577637,2|2|0,3:1|3:1|3:0,0:0:0:0:
467,320,108605,2,0,P|471:285|468:241,1,60.0000022888184,2|0,3:1|0:0,0:0:0:0:
412,200,108837,1,0,0:0:0:0:
412,200,108915,6,0,L|426:149,3,30.0000011444092,2|0|0|0,3:1|0:0|0:0|0:0,0:0:0:0:
315,224,109224,2,0,L|323:196,3,30.0000011444092,2|0|0|0,3:1|0:0|0:0|0:0,0:0:0:0:
244,128,109533,6,0,L|236:156,3,30.0000011444092,2|0|0|0,3:1|0:0|0:0|0:0,0:0:0:0:
147,152,109842,2,0,L|139:180,3,30.0000011444092,2|0|0|0,3:1|0:0|0:0|0:0,0:0:0:0:
113,62,110151,6,0,P|60:34|0:33,2,120.000004577637,2|2|0,3:1|3:1|3:0,0:0:0:0:
325,256,111079,2,0,P|276:269|233:259,1,90.0000034332277,2|0,3:1|0:0,0:0:0:0:
223,246,111388,6,0,P|283:257|356:224,1,120.000004577637,0|0,3:0|3:0,0:0:0:0:
392,158,111852,1,2,0:1:0:0:
462,223,112007,2,0,P|461:246|458:286,1,60.0000022888184,0|0,3:0|0:1,0:0:0:0:
386,144,112316,2,0,P|383:114|382:84,1,60.0000022888184,0|2,3:0|0:1,0:0:0:0:
337,238,112626,5,4,3:0:0:0:
233,195,113090,5,0,3:0:0:0:
233,195,113168,1,0,3:0:0:0:
233,195,113245,1,4,3:0:0:0:
136,154,113708,5,0,3:0:0:0:
90,241,113863,1,4,3:0:0:0:
90,241,113940,1,0,0:0:0:0:
90,241,114017,1,0,3:0:0:0:
46,332,114172,1,12,3:0:0:0:
46,332,114249,1,0,0:0:0:0:
46,332,114326,1,0,3:0:0:0:
200,229,114481,6,0,P|229:230|259:236,1,60.0000022888184,4|8,3:0|0:0,0:0:0:0:
425,344,114791,1,8,3:2:0:0:
410,339,114868,1,8,0:0:0:0:
396,335,114945,1,8,0:0:0:0:
381,331,115022,1,8,0:0:0:0:
366,325,115100,6,0,P|359:283|355:177,1,120,12|10,3:1|0:3,0:0:0:0:
366,190,115409,2,0,P|366:150|361:101,1,80,0|10,3:0|0:3,0:0:0:0:
189,109,115719,2,0,P|241:110|267:87,1,80,0|10,3:0|0:3,0:0:0:0:
293,61,115951,1,8,0:0:0:0:
293,61,116028,1,2,3:0:0:0:
201,2,116183,1,8,0:0:0:0:
152,202,116337,5,0,3:0:0:0:
91,125,116492,1,10,0:3:0:0:
91,125,116569,1,8,0:0:0:0:
91,125,116647,2,0,P|54:115|-10:114,1,80,0|10,3:0|0:3,0:0:0:0:
71,277,116956,1,0,3:0:0:0:
163,213,117111,1,10,0:3:0:0:
163,213,117188,1,8,0:0:0:0:
163,213,117265,2,0,P|179:281|179:319,1,80,0|10,3:0|0:3,0:0:0:0:
366,374,117574,6,0,P|331:331|257:349,1,120,4|10,3:0|0:3,0:0:0:0:
259,351,117884,1,0,3:0:0:0:
383,253,118038,1,10,0:3:0:0:
258,219,118193,2,0,L|249:131,1,80,0|10,3:0|0:3,0:0:0:0:
378,65,118502,2,0,L|369:144,1,80,0|10,3:0|0:3,0:0:0:0:
233,33,118812,5,0,3:0:0:0:
144,100,118966,1,10,0:3:0:0:
144,100,119043,1,8,0:0:0:0:
144,100,119120,2,0,P|106:101|54:79,1,80,0|10,3:0|0:3,0:0:0:0:
0,235,119430,2,0,P|51:206|110:213,1,120,0|8,3:0|0:0,0:0:0:0:
177,271,119739,2,0,L|190:338,3,40,2|8|8|8,3:0|0:0|0:0|0:0,0:0:0:0:
206,242,120048,6,0,L|200:375,1,120,4|10,3:0|0:3,0:0:0:0:
213,378,120358,1,0,3:0:0:0:
317,243,120512,2,0,L|320:322,1,80,10|0,0:3|3:0,0:0:0:0:
421,373,120822,1,10,0:3:0:0:
421,373,120899,1,8,0:0:0:0:
421,373,120976,1,2,3:3:0:0:
497,269,121131,6,0,P|459:256|419:251,1,80,8|0,0:0|3:0,0:0:0:0:
255,163,121440,1,0,0:0:0:0:
255,163,121517,1,10,0:3:0:0:
255,163,121595,2,0,P|292:150|332:145,1,80,0|10,3:0|0:3,0:0:0:0:
512,66,121904,6,0,P|463:44|367:37,1,120,0|10,3:0|0:3,0:0:0:0:
378,44,122213,2,0,P|325:49|298:46,1,80,2|10,3:3|0:3,0:0:0:0:
107,171,122522,6,0,B|140:179|163:192|163:192|203:166|203:166|224:174|272:157,1,160,4|2,3:0|3:0,0:0:0:0:
159,89,122986,1,8,0:0:0:0:
228,254,123140,1,0,3:0:0:0:
275,156,123295,1,10,0:3:0:0:
180,345,123450,2,0,L|67:331,1,80,2|8,3:0|0:0,0:0:0:0:
37,285,123682,1,0,0:0:0:0:
37,285,123760,5,4,3:0:0:0:
120,154,123914,2,0,L|124:198,1,40,0|0,0:0|0:0,0:0:0:0:
213,192,124069,2,0,L|206:257,1,40,4|0,3:0|0:0,0:0:0:0:
287,138,124223,2,0,L|284:98,1,40,0|8,0:0|0:0,0:0:0:0:
370,98,124378,2,0,L|376:58,3,40,4|0|8|8,3:0|0:0|0:0|0:0,0:0:0:0:
395,224,124687,2,0,P|405:206|413:188,1,40,4|0,3:0|0:0,0:0:0:0:
295,241,124842,1,8,0:0:0:0:
295,241,124919,1,8,0:0:0:0:
295,241,124997,6,0,P|375:250|415:316,1,160,12|2,3:1|3:0,0:0:0:0:
319,340,125461,1,0,0:0:0:0:
202,206,125615,2,0,P|193:244|206:287,1,80,0|0,3:0|0:0,0:0:0:0:
302,141,125925,2,0,L|294:49,1,80,2|0,3:0|0:0,0:0:0:0:
399,190,126233,5,0,3:0:0:0:
443,103,126388,2,0,P|474:127|495:163,1,80,0|2,0:0|3:0,0:0:0:0:
358,282,126698,2,0,P|326:257|306:223,1,80,0|0,0:0|3:0,0:0:0:0:
289,41,127007,2,0,L|282:120,2,80,0|2|2,0:0|3:0|0:3,0:0:0:0:
214,182,127471,5,6,3:0:0:0:
142,118,127626,1,0,0:0:0:0:
112,208,127780,2,0,P|160:209|199:198,1,80,0|2,3:0|0:3,0:0:0:0:
309,325,128089,2,0,P|249:298|157:299,1,160,6|0,3:0|3:0,0:0:0:0:
277,197,128553,1,2,0:3:0:0:
277,197,128630,1,8,0:0:0:0:
277,197,128707,5,6,3:0:0:0:
159,154,128862,2,0,L|168:192,2,40,8|8|8,0:0|0:0|3:0,0:0:0:0:
317,105,129171,1,0,3:0:0:0:
317,105,129249,1,0,3:0:0:0:
317,105,129327,2,0,P|326:67|325:22,1,80,4|8,3:0|0:3,0:0:0:0:
145,145,129636,2,0,P|134:106|136:66,1,80,8|0,3:3|3:0,0:0:0:0:
257,221,129945,5,4,3:0:0:0:
104,263,131027,5,0,3:0:0:0:
104,263,131104,1,0,3:0:0:0:
104,263,131182,1,12,0:0:0:0:
350,295,131955,5,8,0:3:0:0:
306,204,132110,1,4,0:3:0:0:
403,220,132264,1,4,0:3:0:0:
255,278,132419,6,0,P|257:216|231:116,1,160,2|2,3:0|3:0,0:0:0:0:
424,63,132883,2,0,P|403:140|402:219,1,160,2|2,3:0|3:0,0:0:0:0:
403,220,133502,5,2,3:0:0:0:
403,220,133811,2,0,P|376:213|312:206,1,80,2|2,3:0|0:3,0:0:0:0:
189,72,134120,1,0,3:0:0:0:
147,176,134275,2,0,P|230:161|300:122,1,160,2|8,3:0|0:3,0:0:0:0:
493,270,134894,6,0,L|482:327,3,40,0|0|0|0,3:0|0:0|0:0|0:0,0:0:0:0:
409,344,135203,2,0,L|401:304,3,40,0|0|0|0,3:0|0:0|0:0|0:0,0:0:0:0:
323,257,135512,2,0,L|312:314,3,40,0|0|0|0,3:0|0:0|0:0|0:0,0:0:0:0:
239,331,135821,2,0,L|231:291,3,40,0|0|0|0,3:0|0:0|0:0|0:0,0:0:0:0:
153,251,136131,6,0,L|133:343,1,80,0|0,3:0|0:0,0:0:0:0:
206,171,136440,2,0,P|158:156|116:161,1,80,0|0,3:0|0:0,0:0:0:0:
66,53,136749,2,0,P|114:68|156:63,1,80,2|0,3:0|0:0,0:0:0:0:
235,27,137059,1,2,3:0:0:0:
235,27,137136,1,0,0:0:0:0:
235,27,137213,1,0,0:0:0:0:
235,27,137290,1,0,0:0:0:0:
235,27,137368,6,0,L|294:20,3,40,0|0|0|0,3:0|0:0|0:0|0:0,0:0:0:0:
275,106,137677,2,0,L|334:99,3,40,0|0|0|0,3:0|0:0|0:0|0:0,0:0:0:0:
241,197,137986,2,0,L|300:190,3,40,0|0|0|0,3:0|0:0|0:0|0:0,0:0:0:0:
281,276,138296,2,0,L|340:269,3,40,0|0|0|0,3:0|0:0|0:0|0:0,0:0:0:0:
254,309,138605,5,2,3:2:0:0:
161,259,138760,2,0,P|120:240|75:231,1,80,2|0,0:2|3:0,0:0:0:0:
33,159,139069,1,2,0:2:0:0:
33,159,139146,1,0,0:0:0:0:
33,159,139223,2,0,P|23:110|24:78,1,80,2|2,3:2|0:2,0:0:0:0:
159,31,139533,2,0,L|145:83,1,40,0|0,3:0|0:0,0:0:0:0:
235,51,139687,2,0,L|221:103,1,40,0|0,0:0|0:0,0:0:0:0:
313,69,139842,5,0,3:0:0:0:
365,154,139997,1,0,0:0:0:0:
365,154,140074,1,0,0:0:0:0:
365,154,140151,2,0,P|413:151|450:128,1,80,0|0,3:0|0:0,0:0:0:0:
465,112,140383,1,0,0:0:0:0:
465,112,140461,2,0,L|444:208,1,80,0|0,3:0|0:0,0:0:0:0:
330,307,140770,2,0,L|312:228,1,80,0|0,3:0|0:0,0:0:0:0:
287,224,141002,1,0,0:0:0:0:
287,224,141079,6,0,L|275:173,3,40,0|0|0|0,3:0|0:0|0:0|0:0,0:0:0:0:
184,166,141388,2,0,L|193:127,3,40,0|0|0|0,3:0|0:0|0:0|0:0,0:0:0:0:
84,131,141698,2,0,L|93:169,3,40,2|0|0|0,3:0|0:0|0:0|0:0,0:0:0:0:
16,221,142007,2,0,L|6:259,3,40,2|0|0|0,3:0|0:0|0:0|0:0,0:0:0:0:
28,288,142316,6,0,P|71:308|117:302,1,80,0|0,3:0|0:0,0:0:0:0:
170,237,142626,2,0,L|254:227,1,80,0|0,3:0|0:0,0:0:0:0:
278,252,142857,1,0,0:0:0:0:
278,252,142935,2,0,P|293:192|290:162,1,80,0|0,3:0|0:0,0:0:0:0:
270,47,143244,1,0,3:0:0:0:
291,80,143321,1,0,0:0:0:0:
325,101,143398,1,0,0:0:0:0:
364,105,143475,1,0,0:0:0:0:
402,93,143553,6,0,L|444:80,3,40,2|0|2|0,3:2|0:0|0:2|0:0,0:0:0:0:
400,181,143863,2,0,L|489:155,1,80,0|2,3:0|0:2,0:0:0:0:
354,274,144172,2,0,L|265:248,1,80,2|2,3:2|0:2,0:0:0:0:
189,313,144481,2,0,L|177:357,1,40,0|0,3:0|0:0,0:0:0:0:
115,292,144636,2,0,L|103:336,1,40,0|0,0:0|0:0,0:0:0:0:
39,271,144790,5,0,3:0:0:0:
105,201,144945,1,0,0:0:0:0:
105,201,145022,1,0,0:0:0:0:
105,201,145100,2,0,P|111:153|101:120,1,80,0|0,3:0|0:0,0:0:0:0:
152,40,145409,2,0,L|239:47,1,80,0|0,3:0|0:0,0:0:0:0:
367,117,145718,2,0,L|288:124,1,80,0|0,3:0|0:0,0:0:0:0:
221,194,146028,6,0,P|209:217|206:241,2,40,0|0|0,3:0|0:0|0:0,0:0:0:0:
297,252,146337,2,0,P|304:276|319:295,2,40,0|0|0,3:0|0:0|0:0,0:0:0:0:
211,356,146646,2,0,P|223:333|226:309,2,40,2|0|0,3:0|0:0|0:0,0:0:0:0:
135,298,146955,1,2,3:0:0:0:
54,350,147110,1,0,0:0:0:0:
54,350,147187,1,0,0:0:0:0:
54,350,147265,6,0,P|-8:338|-28:321,1,80,0|0,3:0|0:0,0:0:0:0:
49,206,147574,2,0,L|5:216,3,40,0|0|0|0,3:0|0:0|0:0|0:0,0:0:0:0:
71,116,147883,2,0,L|27:126,3,40,0|0|0|0,3:0|0:0|0:0|0:0,0:0:0:0:
92,27,148193,2,0,L|48:37,3,40,0|0|0|0,3:0|0:0|0:0|0:0,0:0:0:0:
172,73,148502,6,0,L|211:64,3,40,2|0|2|0,3:2|0:0|0:2|0:0,0:0:0:0:
298,114,148811,2,0,L|337:105,3,40,0|0|2|0,3:0|0:0|0:2|0:0,0:0:0:0:
423,145,149120,2,0,L|462:136,3,40,2|0|0|0,3:2|0:0|0:0|0:0,0:0:0:0:
367,216,149430,1,0,3:0:0:0:
355,242,149507,1,0,0:0:0:0:
357,265,149584,1,0,0:0:0:0:
368,280,149662,1,0,0:0:0:0:
381,285,149739,6,0,P|427:253|504:259,1,120,0|0,3:0|0:0,0:0:0:0:
478,269,150048,2,0,P|478:311|499:346,1,80,0|0,3:0|0:0,0:0:0:0:
466,140,150357,2,0,P|466:98|487:62,1,80,0|0,3:0|0:0,0:0:0:0:
367,216,150667,2,0,P|316:222|271:203,1,80,0|0,3:0|0:0,0:0:0:0:
233,135,150976,5,0,3:0:0:0:
198,228,151131,1,0,0:0:0:0:
198,228,151208,1,0,0:0:0:0:
198,228,151285,2,0,L|207:309,1,80,0|0,3:0|0:0,0:0:0:0:
113,283,151595,1,2,3:0:0:0:
113,283,151672,1,0,0:0:0:0:
113,283,151749,1,0,0:0:0:0:
109,186,151904,2,0,L|117:106,1,80,2|0,3:0|0:0,0:0:0:0:
288,38,152213,6,0,P|246:47|181:15,1,80,0|0,3:0|0:0,0:0:0:0:
118,11,152522,2,0,P|96:12|69:21,2,40,0|0|0,3:0|0:0|0:0,0:0:0:0:
238,139,152832,1,0,3:0:0:0:
238,139,152909,1,0,0:0:0:0:
238,139,152986,2,0,P|213:137|191:128,1,40,0|0,0:0|0:0,0:0:0:0:
103,152,153141,2,0,P|83:151|63:146,3,40,0|0|0|0,3:0|0:0|0:0|0:0,0:0:0:0:
167,219,153450,6,0,P|183:243|183:268,3,40,2|0|2|0,3:2|0:0|0:0|0:0,0:0:0:0:
262,296,153760,2,0,P|246:320|246:345,3,40,0|0|2|0,3:0|0:0|0:0|0:0,0:0:0:0:
329,236,154069,6,0,P|323:216|311:201,2,40,2|0|2,3:2|0:0|0:0,0:0:0:0:
348,123,154301,1,0,0:0:0:0:
348,123,154378,2,0,P|360:85|368:69,1,40,8|0,3:2|0:0,0:0:0:0:
248,125,154533,1,8,0:0:0:0:
221,118,154610,1,8,0:0:0:0:
194,111,154687,5,0,3:0:0:0:
109,159,154842,2,0,P|98:107|107:64,1,80,0|8,0:0|0:0,0:0:0:0:
68,270,155151,1,0,0:0:0:0:
68,270,155229,1,0,0:0:0:0:
68,270,155306,2,0,P|79:322|70:365,1,80,0|0,3:0|0:0,0:0:0:0:
153,238,155615,2,0,L|249:256,1,80,8|0,3:2|0:0,0:0:0:0:
388,288,155925,5,0,3:0:0:0:
318,218,156079,1,0,0:0:0:0:
429,94,156234,1,8,3:2:0:0:
413,197,156388,1,0,0:0:0:0:
413,197,156466,1,0,0:0:0:0:
413,197,156543,2,0,L|495:181,1,80,0|0,3:0|0:0,0:0:0:0:
346,45,156852,2,0,L|264:61,1,80,8|0,3:2|0:0,0:0:0:0:
165,160,157162,5,0,3:0:0:0:
94,97,157316,2,0,P|109:48|134:21,1,80,0|8,0:0|3:2,0:0:0:0:
173,167,157626,1,0,0:0:0:0:
173,167,157703,1,0,0:0:0:0:
173,167,157780,2,0,L|151:249,1,80,0|0,3:0|0:0,0:0:0:0:
230,318,158089,2,0,L|252:236,1,80,8|0,3:2|0:0,0:0:0:0:
265,202,158321,1,0,0:0:0:0:
265,202,158399,6,0,P|304:178|358:182,1,80,2|2,3:2|0:2,0:0:0:0:
412,270,158708,2,0,P|373:294|319:290,1,80,8|2,3:2|0:2,0:0:0:0:
425,181,159017,2,0,L|444:98,1,80,2|0,3:2|0:0,0:0:0:0:
320,13,159327,2,0,L|308:62,3,40,8|0|0|0,0:2|0:0|0:0|0:0,0:0:0:0:
302,82,159636,6,0,P|252:106|222:105,1,80,0|0,3:0|0:0,0:0:0:0:
100,45,159945,1,8,3:2:0:0:
192,17,160100,1,0,0:0:0:0:
100,45,160254,2,0,L|73:126,1,80,0|0,3:0|0:0,0:0:0:0:
9,229,160564,1,8,3:2:0:0:
73,291,160718,1,0,0:0:0:0:
73,291,160796,1,0,0:0:0:0:
73,291,160873,6,0,P|121:284|152:260,1,80,0|0,3:2|0:0,0:0:0:0:
193,147,161182,1,8,3:2:0:0:
268,215,161337,1,0,0:0:0:0:
268,215,161414,1,0,0:0:0:0:
268,215,161492,2,0,L|352:197,1,80,0|0,3:2|0:0,0:0:0:0:
408,79,161801,1,8,0:0:0:0:
475,146,161955,6,0,L|454:231,1,80,0|0,0:0|3:0,0:0:0:0:
382,282,162265,1,0,0:0:0:0:
268,215,162419,2,0,L|360:197,1,80,8|0,0:0|3:0,0:0:0:0:
214,132,162729,1,0,3:0:0:0:
185,267,162883,1,0,3:0:0:0:
93,200,163038,2,0,L|145:184,1,40,0|0,3:0|3:0,0:0:0:0:
57,111,163193,2,0,L|109:95,1,40,8|8,0:0|0:0,0:0:0:0:
248,29,163347,6,0,B|209:63|215:134|215:134|208:93|171:78,1,180.000006866455,0|0,3:0|0:0,0:0:0:0:
316,115,163966,1,8,0:0:0:0:
316,115,164043,1,8,0:0:0:0:
316,115,164120,1,0,3:0:0:0:
316,115,164198,1,0,3:0:0:0:
316,115,164275,2,0,L|402:96,1,80,8|0,0:0|0:0,0:0:0:0:
509,220,164584,6,0,P|457:191|397:193,1,120,4|8,0:3|0:0,0:0:0:0:
384,210,164894,2,0,L|397:303,1,80,0|8,3:0|0:0,0:0:0:0:
287,349,165203,2,0,L|298:269,1,80,4|8,3:2|0:0,0:0:0:0:
252,211,165435,1,8,0:0:0:0:
251,211,165512,2,0,P|211:215|172:205,1,80,0|8,3:0|0:0,0:0:0:0:
0,309,165821,6,0,P|47:274|106:275,1,120,0|8,3:0|0:0,0:0:0:0:
86,261,166131,2,0,P|77:214|86:172,1,80,0|8,3:0|0:0,0:0:0:0:
172,35,166440,2,0,P|141:60|120:94,1,80,4|8,3:2|0:3,0:0:0:0:
24,106,166749,1,0,3:0:0:0:
222,130,166904,1,8,0:0:0:0:
222,130,166981,1,0,0:0:0:0:
222,130,167059,6,0,L|312:120,1,80,4|0,3:0|0:0,0:0:0:0:
374,77,167290,1,8,0:0:0:0:
374,77,167368,2,0,L|453:85,1,80,0|8,3:0|0:0,0:0:0:0:
512,201,167677,2,0,L|422:211,1,80,4|8,3:2|0:0,0:0:0:0:
360,254,167908,1,8,0:0:0:0:
360,254,167986,2,0,L|280:245,1,80,0|8,3:0|0:0,0:0:0:0:
126,194,168296,5,4,3:2:0:0:
195,278,168450,1,8,0:0:0:0:
195,278,168528,1,8,0:0:0:0:
195,278,168605,1,0,3:0:0:0:
94,290,168760,1,8,0:0:0:0:
228,176,168914,2,0,P|221:105|205:83,1,80,4|0,3:2|0:0,0:0:0:0:
154,52,169146,1,8,0:0:0:0:
154,52,169223,2,0,L|95:69,3,40,4|8|8|8,3:2|0:0|0:0|0:0,0:0:0:0:
94,57,169533,6,0,P|31:84|2:157,1,120,4|8,3:0|0:0,0:0:0:0:
1,145,169842,2,0,L|11:233,1,80,0|8,3:0|0:0,0:0:0:0:
51,360,170151,1,4,3:2:0:0:
90,272,170306,2,0,L|129:266,2,40,8|8|0,0:0|0:0|3:0,0:0:0:0:
147,177,170615,1,8,0:0:0:0:
202,342,170770,6,0,P|231:290|225:232,1,120,0|8,3:0|0:0,0:0:0:0:
241,244,171079,2,0,P|291:247|344:227,1,80,0|8,3:0|0:0,0:0:0:0:
466,197,171388,1,4,3:2:0:0:
410,275,171543,2,0,L|431:319,2,40,8|8|0,0:0|0:0|3:0,0:0:0:0:
399,94,171852,1,8,0:0:0:0:
399,94,171929,1,0,0:0:0:0:
399,94,172007,6,0,L|377:175,1,80,4|0,3:0|0:0,0:0:0:0:
308,113,172239,1,8,0:0:0:0:
308,113,172316,2,0,L|286:32,1,80,0|8,3:0|0:0,0:0:0:0:
96,58,172626,2,0,L|118:139,1,80,4|8,3:2|0:0,0:0:0:0:
187,77,172857,1,8,0:0:0:0:
187,77,172935,2,0,L|209:-4,1,80,0|8,3:0|0:0,0:0:0:0:
165,216,173244,5,4,3:0:0:0:
257,190,173399,2,0,L|311:189,2,40,4|0|4,0:2|0:0|3:0,0:0:0:0:
77,255,173708,2,0,L|23:254,2,40,4|8|4,0:2|0:0|3:0,0:0:0:0:
235,285,174017,2,0,L|286:300,2,40,12|8|12,0:0|0:0|2:2,0:0:0:0:
116,135,174327,1,8,0:0:0:0:
116,135,174404,1,8,0:0:0:0:
116,135,174481,6,0,P|88:83|122:-6,1,160,4|10,3:1|0:3,0:0:0:0:
266,86,174945,2,0,L|181:64,1,80,0|2,0:0|3:0,0:0:0:0:
319,170,175254,1,0,0:0:0:0:
407,25,175409,1,8,0:0:0:0:
319,170,175564,6,0,P|359:195|398:198,1,80,2|0,0:3|3:0,0:0:0:0:
457,114,175873,1,2,0:3:0:0:
319,170,176028,2,0,L|297:255,1,80,8|2,0:0|0:3,0:0:0:0:
134,304,176337,1,0,3:0:0:0:
195,224,176492,1,2,0:3:0:0:
316,346,176646,1,10,0:3:0:0:
298,247,176801,1,0,0:0:0:0:
215,372,176955,6,0,P|164:338|61:339,1,160,4|10,3:0|0:3,0:0:0:0:
19,190,177419,1,0,0:3:0:0:
19,190,177497,1,0,0:0:0:0:
19,190,177574,2,0,P|9:159|10:110,1,80,6|2,3:0|0:3,0:0:0:0:
99,245,177883,1,8,0:0:0:0:
239,182,178038,1,2,0:3:0:0:
239,182,178115,1,8,0:0:0:0:
239,182,178193,6,0,L|153:167,1,80,12|8,3:0|0:0,0:0:0:0:
123,97,178425,1,8,0:0:0:0:
123,97,178502,2,0,L|143:49,2,40,10|0|0,3:0|0:3|3:3,0:0:0:0:
306,3,178811,2,0,L|325:121,1,120,4|0,3:0|0:0,0:0:0:0:
347,159,179120,2,0,L|368:76,1,80,10|2,3:0|0:3,0:0:0:0:
381,282,179430,6,0,L|347:294,7,30.0000011444092,4|0|0|0|0|0|0|0,3:0|0:0|0:0|0:0|3:0|0:0|3:0|0:0,0:0:0:0:
289,232,180048,2,0,L|255:244,7,30.0000011444092,0|0|0|0|0|0|0|0,3:0|0:0|3:0|0:0|3:0|0:0|3:0|0:0,0:0:0:0:
196,309,180667,6,0,L|148:323,1,40,0|0,3:0|0:0,0:0:0:0:
97,247,180821,2,0,L|49:261,1,40,0|0,3:2|0:0,0:0:0:0:
189,159,180976,2,0,L|171:226,1,40,8|0,3:2|0:0,0:0:0:0:
88,107,181131,2,0,L|106:40,1,40,8|0,3:2|0:0,0:0:0:0:
211,25,181285,6,0,P|255:53|300:47,1,80,8|8,3:2|0:0,0:0:0:0:
359,84,181517,1,0,0:0:0:0:
359,84,181595,2,0,L|368:40,1,40,8|0,0:0|0:0,0:0:0:0:
451,148,181749,2,0,L|460:104,1,40,8|0,0:0|0:0,0:0:0:0:
471,246,181904,6,0,B|405:259|368:200|368:200|346:219|346:255,1,160,4|0,3:0|0:0,0:0:0:0:
325,316,182368,1,0,3:0:0:0:
325,316,182445,1,0,3:0:0:0:
325,316,182522,1,12,0:0:0:0:
43,98,183141,6,0,B|109:85|146:144|146:144|168:125|165:111,1,160,4|0,3:0|0:0,0:0:0:0:
189,28,183605,1,0,3:0:0:0:
189,28,183682,1,0,3:0:0:0:
189,28,183760,2,0,L|290:13,1,80,12|0,0:0|0:0,0:0:0:0:
415,36,184069,1,8,0:0:0:0:
449,56,184146,1,8,0:0:0:0:
468,90,184223,1,8,0:0:0:0:
467,130,184300,1,8,0:0:0:0:
446,163,184378,6,0,P|429:208|426:239,1,53.3333333333333,0|0,3:0|0:0,0:0:0:0:
314,367,184584,2,0,P|297:322|294:291,1,53.3333333333333,0|0,3:0|0:0,0:0:0:0:
349,179,184790,6,0,P|332:224|329:255,1,53.3333333333333,0|0,3:0|0:0,0:0:0:0:
408,350,184996,2,0,P|391:305|388:274,1,53.3333333333333,0|0,3:0|0:0,0:0:0:0:
276,112,185203,6,0,P|223:129|211:133,1,53.3333333333333,0|0,3:0|0:0,0:0:0:0:
206,226,185409,2,0,P|153:243|141:247,1,53.3333333333333,0|0,3:0|0:0,0:0:0:0:
127,339,185615,2,0,P|74:356|62:360,2,53.3333333333333,0|0|0,3:0|0:0|3:0,0:0:0:0:
22,156,185925,6,0,L|14:122,1,26.6666666666667,0|0,0:0|0:0,0:0:0:0:
28,178,186028,2,0,L|151:145,1,106.666666666667,0|0,3:0|3:0,0:0:0:0:
203,99,187471,5,8,0:0:0:0:
229,111,187548,1,0,0:0:0:0:
259,112,187625,1,8,0:0:0:0:
285,99,187702,1,8,0:0:0:0:
304,76,187780,1,8,0:0:0:0:
322,53,187857,1,8,0:0:0:0:
349,40,187934,1,8,0:0:0:0:
379,40,188011,1,8,0:0:0:0:
396,55,188089,6,0,L|367:198,1,138.000002632141,12|10,0:1|0:3,0:0:0:0:
384,214,188399,2,0,P|431:181|479:181,1,92.0000017547608,0|10,3:0|0:3,0:0:0:0:
361,327,188708,1,0,3:0:0:0:
275,268,188863,1,10,0:3:0:0:
275,268,188940,1,8,0:0:0:0:
275,268,189017,2,0,L|256:170,1,92.0000017547608,2|8,3:3|0:0,0:0:0:0:
139,51,189327,5,0,3:0:0:0:
67,132,189481,2,0,P|108:160|169:152,1,92.0000017547608,10|0,0:3|3:0,0:0:0:0:
329,94,189790,2,0,P|288:66|227:74,1,92.0000017547608,10|0,0:3|3:0,0:0:0:0:
157,167,190100,1,10,0:3:0:0:
157,167,190177,1,8,0:0:0:0:
157,167,190254,2,0,L|134:264,1,92.0000017547608,0|10,3:0|0:3,0:0:0:0:
292,353,190564,6,0,P|346:370|411:308,1,138.000002632141,4|10,3:0|0:3,0:0:0:0:
434,294,190873,2,0,L|412:384,1,92.0000017547608,0|8,3:0|0:3,0:0:0:0:
280,243,191182,1,0,3:0:0:0:
360,170,191337,1,10,0:3:0:0:
360,170,191414,1,8,0:0:0:0:
360,170,191492,2,0,P|403:142|450:146,1,92.0000017547608,0|10,3:0|0:3,0:0:0:0:
280,243,191801,5,0,3:0:0:0:
194,113,191955,2,0,L|241:95,1,46.0000008773804,10|8,0:3|0:0,0:0:0:0:
265,76,192110,2,0,L|151:60,1,92.0000017547608,0|8,3:0|0:0,0:0:0:0:
61,34,192419,1,0,3:0:0:0:
35,181,192574,1,0,0:0:0:0:
35,181,192651,1,8,0:0:0:0:
35,181,192729,2,0,L|23:111,3,46.0000008773804,0|8|8|8,3:0|0:0|0:0|0:0,0:0:0:0:
61,214,193038,6,0,P|126:215|180:148,1,138.000002632141,4|8,3:0|0:0,0:0:0:0:
186,130,193347,1,0,3:0:0:0:
275,214,193502,2,0,P|265:272|265:317,1,92.0000017547608,10|0,0:3|3:0,0:0:0:0:
300,91,193811,2,0,P|310:33|310:-12,1,92.0000017547608,8|0,0:0|3:0,0:0:0:0:
376,169,194120,1,8,0:0:0:0:
376,169,194198,1,0,0:0:0:0:
376,169,194275,6,0,P|427:156|477:151,1,92.0000017547608,0|2,3:0|0:3,0:0:0:0:
433,258,194584,1,0,3:0:0:0:
396,59,194739,1,10,0:3:0:0:
433,258,194894,2,0,P|370:265|281:280,1,138.000002632141,0|10,3:0|0:3,0:0:0:0:
266,281,195203,2,0,P|257:227|264:183,1,92.0000017547608,0|10,3:0|0:3,0:0:0:0:
204,28,195512,6,0,B|144:44|144:44|113:84|113:84|35:101,1,184.000003509522,6|0,3:3|3:0,0:0:0:0:
56,2,195976,1,8,0:0:0:0:
195,122,196131,2,0,L|172:216,1,92.0000017547608,0|8,3:0|0:0,0:0:0:0:
147,245,196363,1,0,0:0:0:0:
147,245,196440,2,0,P|102:269|52:264,1,92.0000017547608,0|8,3:0|0:0,0:0:0:0:
276,172,196749,5,4,3:0:0:0:
296,276,196904,2,0,L|306:332,1,46.0000008773804,0|0,0:0|0:0,0:0:0:0:
385,378,197059,2,0,L|393:332,1,46.0000008773804,4|0,3:0|0:0,0:0:0:0:
383,239,197213,1,0,0:0:0:0:
211,359,197368,2,0,P|161:345|131:343,3,46.0000008773804,4|0|8|8,3:0|0:0|0:0|0:0,0:0:0:0:
136,367,197677,1,4,3:0:0:0:
100,338,197754,1,0,0:0:0:0:
83,296,197831,1,8,0:0:0:0:
91,251,197908,1,8,0:0:0:0:
120,216,197986,6,0,P|138:144|59:52,1,184.000003509522,12|2,3:1|3:0,0:0:0:0:
28,157,198450,1,0,0:0:0:0:
213,271,198605,2,0,L|302:251,1,92.0000017547608,0|0,3:0|0:0,0:0:0:0:
209,75,198914,2,0,P|222:118|219:164,1,92.0000017547608,2|0,3:0|0:0,0:0:0:0:
435,123,199222,5,0,0:0:0:0:
328,154,199378,2,0,P|325:108|338:64,1,92.0000017547608,0|2,0:0|3:0,0:0:0:0:
497,249,199687,2,0,L|408:230,1,92.0000017547608,0|0,0:0|3:0,0:0:0:0:
220,324,199997,1,2,0:3:0:0:
302,251,200151,2,0,P|325:290|328:335,1,92.0000017547608,2|0,3:0|0:0,0:0:0:0:
100,215,200461,5,4,3:0:0:0:
220,324,200615,1,0,0:0:0:0:
186,133,200770,2,0,P|190:172|194:243,1,92.0000017547608,2|0,3:0|0:0,0:0:0:0:
64,368,201079,2,0,P|131:309|219:323,1,184.000003509522,4|2,3:0|3:0,0:0:0:0:
296,140,201542,1,0,0:0:0:0:
296,140,201619,1,8,0:0:0:0:
296,140,201698,5,4,3:0:0:0:
302,251,201852,2,0,L|320:303,2,46.0000008773804,10|8|8,0:3|0:0|3:3,0:0:0:0:
410,97,202162,1,2,3:0:0:0:
410,97,202238,1,0,3:0:0:0:
410,97,202316,2,0,B|457:103|457:103|515:84,1,92.0000017547608,4|8,3:0|3:0,0:0:0:0:
316,25,202626,2,0,B|269:31|269:31|211:12,1,92.0000017547608,8|0,3:0|3:0,0:0:0:0:
402,216,202934,5,12,3:0:0:0:
104,263,204017,5,0,3:0:0:0:
104,263,204094,1,0,3:0:0:0:
104,263,204172,1,12,0:0:0:0:
349,291,204945,5,8,3:0:0:0:
305,200,205100,1,4,3:0:0:0:
402,216,205254,1,4,3:0:0:0:
254,274,205409,6,0,P|256:212|230:112,1,160,2|2,3:0|3:0,0:0:0:0:
423,59,205873,2,0,P|402:136|401:215,1,160,2|2,3:0|3:0,0:0:0:0:
401,215,206492,5,2,3:0:0:0:
401,215,206801,2,0,P|374:208|310:201,1,80,2|2,3:0|3:0,0:0:0:0:
183,52,207110,1,0,3:0:0:0:
141,156,207265,2,0,P|224:141|294:102,1,160,2|8,3:0|0:0,0:0:0:0:
86,72,207729,1,8,0:0:0:0:
51,187,207883,6,0,P|134:202|204:241,1,160,4|0,3:0|3:0,0:0:0:0:
344,302,208347,2,0,P|261:317|191:356,1,160,0|0,3:0|3:0,0:0:0:0:
195,352,208966,2,0,P|235:353|285:365,1,80,4|0,3:0|0:0,0:0:0:0:
382,207,209275,2,0,P|342:208|292:220,1,80,4|0,3:0|0:0,0:0:0:0:
112,292,209584,1,8,0:3:0:0:
219,111,209739,1,4,3:0:0:0:
0,238,210203,6,0,L|54:226,1,40,0|0,0:0|0:0,0:0:0:0:
8,222,210357,2,0,L|111:200,1,80,4|0,0:1|0:0,0:0:0:0:
126,138,210589,1,10,0:0:0:0:
126,138,210667,1,0,3:0:0:0:
263,212,210821,2,0,L|314:217,2,40,10|8|0,0:0|0:0|3:0,0:0:0:0:
158,53,211131,2,0,L|106:45,2,40,10|10|2,0:0|0:0|3:2,0:0:0:0:
298,124,211440,1,10,0:0:0:0:
298,124,211517,1,0,0:0:0:0:
298,124,211595,6,0,P|292:83|282:28,1,80,0|8,3:0|0:0,0:0:0:0:
360,39,211827,2,0,L|368:-5,1,40,10|0,0:0|3:0,0:0:0:0:
277,232,212059,2,0,L|284:271,1,40,10|0,0:0|0:0,0:0:0:0:
304,242,212214,2,0,P|297:281|291:320,1,80,0|8,3:0|0:0,0:0:0:0:
225,369,212445,1,10,0:0:0:0:
225,369,212522,1,0,3:0:0:0:
397,256,212677,2,0,L|452:258,1,40,10|0,0:0|0:0,0:0:0:0:
408,242,212831,6,0,L|513:247,1,80,0|8,3:0|0:0,0:0:0:0:
475,163,213064,1,10,0:0:0:0:
475,163,213141,2,0,L|395:158,1,80,0|10,3:0|0:0,0:0:0:0:
381,78,213373,2,0,L|325:90,1,40,0|0,0:0|3:0,0:0:0:0:
304,288,213605,2,0,L|260:298,2,40,10|10|0,0:0|0:0|3:0,0:0:0:0:
176,122,213914,1,10,0:0:0:0:
176,122,213991,1,0,0:0:0:0:
176,122,214069,5,4,3:2:0:0:
316,201,214223,1,10,0:0:0:0:
119,43,214378,1,4,3:2:0:0:
271,117,214533,1,10,0:0:0:0:
113,226,214687,5,4,3:2:0:0:
399,357,214997,6,0,L|437:347,3,40,8|8|8|8,3:2|3:2|3:2|3:2,0:0:0:0:
381,350,215306,6,0,L|365:254,1,80,4|0,3:0|0:0,0:0:0:0:
428,224,215538,1,10,0:0:0:0:
428,224,215615,1,0,3:0:0:0:
298,368,215770,1,10,0:0:0:0:
298,368,215847,1,0,0:0:0:0:
298,368,215924,2,0,P|258:368|218:344,1,80,0|10,3:0|0:0,0:0:0:0:
144,342,216156,2,0,L|159:402,1,40,10|0,0:0|3:0,0:0:0:0:
306,206,216388,1,10,0:0:0:0:
306,206,216466,1,0,0:0:0:0:
306,206,216543,6,0,L|214:190,1,80,0|8,3:0|0:0,0:0:0:0:
161,242,216775,1,10,0:0:0:0:
161,242,216852,2,0,P|145:190|149:158,1,80,0|8,3:0|0:0,0:0:0:0:
206,115,217084,1,0,0:0:0:0:
206,115,217162,1,0,3:0:0:0:
66,209,217316,2,0,L|10:217,2,40,10|10|0,0:0|0:0|3:0,0:0:0:0:
107,4,217626,1,10,0:0:0:0:
107,4,217703,1,0,0:0:0:0:
107,4,217780,6,0,L|119:92,1,80,0|8,3:0|0:0,0:0:0:0:
48,129,218012,2,0,L|2:119,1,40,10|0,0:0|3:0,0:0:0:0:
209,0,218244,2,0,L|213:39,1,40,10|0,0:0|0:0,0:0:0:0:
229,25,218399,2,0,L|241:113,1,80,0|10,3:0|0:0,0:0:0:0:
262,134,218631,1,10,0:0:0:0:
262,134,218708,1,0,3:0:0:0:
444,61,218863,1,10,0:0:0:0:
444,61,218940,1,0,0:0:0:0:
444,61,219017,5,4,3:0:0:0:
333,195,219172,1,10,0:0:0:0:
357,22,219327,1,4,3:0:0:0:
427,201,219481,1,10,0:0:0:0:
235,221,219636,2,0,P|191:217|233:206,1,120.000004577637,4|6,3:0|0:1,0:0:0:0:
