osu file format v14

[General]
AudioFilename: audio.mp3
AudioLeadIn: 0
PreviewTime: 24061
Countdown: 0
SampleSet: None
StackLeniency: 0.7
Mode: 3
LetterboxInBreaks: 0
SpecialStyle: 1
WidescreenStoryboard: 1

[Editor]
DistanceSpacing: 1.2
BeatDivisor: 4
GridSize: 4
TimelineZoom: 2.4

[Metadata]
Title:Super Nuko ni Naritai
TitleUnicode:すーぱーぬこになりたい
Artist:nayuta & yuikonnu
ArtistUnicode:nayuta&ゆいこんぬ
Creator:ExNeko
Version:hyper
Source:
Tags:meow まふまふ にゃん mafumafu nya まふてる mafuteru nyaa neko i want to become a super
BeatmapID:1852582
BeatmapSetID:886199

[Difficulty]
HPDrainRate:7.5
CircleSize:8
OverallDifficulty:8
ApproachRate:5
SliderMultiplier:1.4
SliderTickRate:1

[Events]
//Background and Video events
0,0,"266304.jpg",0,0
//Break Periods
//Storyboard Layer 0 (Background)
//Storyboard Layer 1 (Fail)
//Storyboard Layer 2 (Pass)
//Storyboard Layer 3 (Foreground)
//Storyboard Sound Samples

[TimingPoints]
556,309.278350515464,4,1,1,35,1,0
53751,-100,4,1,1,35,0,1
63648,-100,4,1,1,35,0,0

[HitObjects]
352,192,556,1,2,1:0:0:0:
480,192,556,1,0,0:0:0:0:
352,192,865,1,2,1:0:0:0:
480,192,865,1,0,0:0:0:0:
160,192,1019,1,2,1:0:0:0:
288,192,1019,1,0,0:0:0:0:
224,192,1329,1,2,1:0:0:0:
352,192,1329,1,0,0:0:0:0:
288,192,1638,1,2,1:0:0:0:
416,192,1638,1,0,0:0:0:0:
96,192,1947,1,2,1:0:0:0:
224,192,1947,1,0,0:0:0:0:
96,192,2257,1,2,1:0:0:0:
224,192,2257,1,0,0:0:0:0:
352,192,2411,128,2,2720:1:0:0:0:
480,192,2411,1,0,0:0:0:0:
96,192,3030,1,2,1:0:0:0:
224,192,3030,1,0,0:0:0:0:
416,192,3184,1,0,0:0:0:0:
96,192,3339,1,2,1:0:0:0:
288,192,3339,1,0,0:0:0:0:
480,192,3494,1,0,0:0:0:0:
96,192,3648,1,2,1:0:0:0:
352,192,3648,1,0,0:0:0:0:
224,192,3803,1,0,0:0:0:0:
96,192,3958,1,2,1:0:0:0:
416,192,3958,1,0,0:0:0:0:
288,192,4112,1,0,0:0:0:0:
96,192,4267,1,2,1:0:0:0:
480,192,4267,1,0,0:0:0:0:
352,192,4421,1,0,0:0:0:0:
96,192,4576,1,2,1:0:0:0:
224,192,4576,1,0,0:0:0:0:
416,192,4731,1,0,0:0:0:0:
96,192,4885,1,2,1:0:0:0:
288,192,4885,1,0,0:0:0:0:
480,192,5040,1,0,0:0:0:0:
96,192,5195,1,2,1:0:0:0:
352,192,5195,1,0,0:0:0:0:
224,192,5349,1,0,0:0:0:0:
96,192,5504,1,2,1:0:0:0:
416,192,5504,1,0,0:0:0:0:
288,192,5659,1,0,0:0:0:0:
96,192,5813,1,2,1:0:0:0:
480,192,5813,1,0,0:0:0:0:
352,192,5968,1,0,0:0:0:0:
96,192,6123,1,2,1:0:0:0:
224,192,6123,1,0,0:0:0:0:
416,192,6277,1,0,0:0:0:0:
96,192,6432,1,2,1:0:0:0:
288,192,6432,1,0,0:0:0:0:
480,192,6586,1,0,0:0:0:0:
96,192,6741,1,2,1:0:0:0:
224,192,6741,1,0,0:0:0:0:
352,192,6896,1,0,0:0:0:0:
96,192,7050,1,2,1:0:0:0:
480,192,7050,1,0,0:0:0:0:
288,192,7205,1,0,0:0:0:0:
96,192,7360,1,2,1:0:0:0:
416,192,7360,1,0,0:0:0:0:
224,192,7514,1,0,0:0:0:0:
96,192,7669,1,2,1:0:0:0:
352,192,7669,1,0,0:0:0:0:
224,192,7824,1,0,0:0:0:0:
352,192,7978,1,2,1:0:0:0:
480,192,7978,1,0,0:0:0:0:
160,192,8133,1,0,0:0:0:0:
288,192,8287,1,2,1:0:0:0:
480,192,8287,1,0,0:0:0:0:
96,192,8442,1,0,0:0:0:0:
224,192,8597,1,2,1:0:0:0:
480,192,8597,1,0,0:0:0:0:
352,192,8751,1,0,0:0:0:0:
160,192,8906,1,2,1:0:0:0:
480,192,8906,1,0,0:0:0:0:
288,192,9061,1,0,0:0:0:0:
96,192,9215,1,2,1:0:0:0:
480,192,9215,1,0,0:0:0:0:
224,192,9370,1,0,0:0:0:0:
352,192,9525,1,2,1:0:0:0:
480,192,9525,1,0,0:0:0:0:
160,192,9679,1,0,0:0:0:0:
288,192,9834,1,2,1:0:0:0:
480,192,9834,1,0,0:0:0:0:
96,192,9988,1,0,0:0:0:0:
352,192,10143,1,2,1:0:0:0:
480,192,10143,1,0,0:0:0:0:
224,192,10298,1,0,0:0:0:0:
96,192,10452,1,2,1:0:0:0:
480,192,10452,1,0,0:0:0:0:
224,192,10607,1,0,0:0:0:0:
352,192,10762,1,2,1:0:0:0:
480,192,10762,1,0,0:0:0:0:
96,192,10916,1,2,1:0:0:0:
224,192,10916,1,0,0:0:0:0:
352,192,11071,1,2,1:0:0:0:
480,192,11071,1,0,0:0:0:0:
96,192,11226,1,2,1:0:0:0:
224,192,11226,1,0,0:0:0:0:
352,192,11380,1,2,1:0:0:0:
480,192,11380,1,0,0:0:0:0:
160,192,11458,1,2,1:0:0:0:
288,192,11535,1,2,1:0:0:0:
416,192,11612,1,2,1:0:0:0:
96,192,11690,1,2,1:0:0:0:
224,192,11690,1,0,0:0:0:0:
352,192,11844,1,0,0:0:0:0:
224,192,11999,1,0,0:0:0:0:
352,192,12153,1,0,0:0:0:0:
224,192,12308,1,8,1:0:0:0:
96,192,12385,1,8,1:0:0:0:
288,192,12463,1,2,1:0:0:0:
160,192,12540,1,2,1:0:0:0:
352,192,12617,1,8,1:0:0:0:
480,192,12617,1,0,0:0:0:0:
160,192,12772,1,0,0:0:0:0:
288,192,12849,1,0,0:0:0:0:
32,192,12927,1,2,1:0:0:0:
96,192,12927,1,4,1:0:0:0:
416,192,12927,1,0,0:0:0:0:
352,192,13081,1,0,0:0:0:0:
224,192,13159,1,8,1:0:0:0:
96,192,13236,1,2,1:0:0:0:
416,192,13236,1,0,0:0:0:0:
288,192,13391,1,8,1:0:0:0:
160,192,13468,1,0,0:0:0:0:
352,192,13545,1,2,1:0:0:0:
480,192,13545,1,0,0:0:0:0:
224,192,13700,1,8,1:0:0:0:
352,192,13777,1,8,1:0:0:0:
96,192,13854,1,2,1:0:0:0:
480,192,13854,1,0,0:0:0:0:
224,192,14009,1,8,1:0:0:0:
352,192,14086,1,0,0:0:0:0:
160,192,14164,1,2,1:0:0:0:
480,192,14164,1,0,0:0:0:0:
288,192,14318,1,8,1:0:0:0:
160,192,14396,1,8,1:0:0:0:
352,192,14473,1,2,1:0:0:0:
480,192,14473,1,0,0:0:0:0:
224,192,14628,1,8,1:0:0:0:
96,192,14705,1,0,0:0:0:0:
288,192,14782,1,2,1:0:0:0:
416,192,14782,1,0,0:0:0:0:
160,192,14937,1,8,1:0:0:0:
288,192,15014,1,8,1:0:0:0:
96,192,15092,1,2,1:0:0:0:
416,192,15092,1,0,0:0:0:0:
224,192,15246,1,8,1:0:0:0:
352,192,15324,1,0,0:0:0:0:
96,192,15401,1,2,1:0:0:0:
480,192,15401,1,0,0:0:0:0:
288,192,15556,1,8,1:0:0:0:
416,192,15633,1,8,1:0:0:0:
96,192,15710,1,2,1:0:0:0:
224,192,15710,1,0,0:0:0:0:
352,192,15865,1,8,1:0:0:0:
480,192,15942,1,0,0:0:0:0:
160,192,16019,1,2,1:0:0:0:
288,192,16019,1,0,0:0:0:0:
416,192,16174,1,8,1:0:0:0:
288,192,16251,1,8,1:0:0:0:
160,192,16329,1,2,1:0:0:0:
480,192,16329,1,0,0:0:0:0:
352,192,16483,1,8,1:0:0:0:
224,192,16561,1,0,0:0:0:0:
32,192,16638,1,2,1:0:0:0:
96,192,16638,1,4,1:0:0:0:
480,192,16638,1,0,0:0:0:0:
160,192,16793,1,8,1:0:0:0:
32,192,16947,1,2,1:0:0:0:
224,192,16947,1,4,1:0:0:0:
416,192,16947,1,0,0:0:0:0:
352,192,17102,1,8,1:0:0:0:
32,192,17257,1,2,1:0:0:0:
288,192,17257,1,4,1:0:0:0:
480,192,17257,1,0,0:0:0:0:
352,192,17566,1,8,1:0:0:0:
224,192,17643,1,8,1:0:0:0:
352,192,17720,1,8,1:0:0:0:
224,192,17798,1,8,1:0:0:0:
32,192,17875,1,2,1:0:0:0:
96,192,17875,1,4,1:0:0:0:
416,192,17875,1,0,0:0:0:0:
160,192,18030,1,0,0:0:0:0:
288,192,18107,1,8,1:0:0:0:
96,192,18184,1,2,1:0:0:0:
416,192,18184,1,0,0:0:0:0:
352,192,18339,1,8,1:0:0:0:
224,192,18416,1,0,0:0:0:0:
96,192,18494,1,2,1:0:0:0:
480,192,18494,1,0,0:0:0:0:
160,192,18648,1,8,1:0:0:0:
288,192,18726,1,8,1:0:0:0:
96,192,18803,1,2,1:0:0:0:
416,192,18803,1,0,0:0:0:0:
352,192,18958,1,8,1:0:0:0:
480,192,19035,1,0,0:0:0:0:
96,192,19112,1,2,1:0:0:0:
224,192,19112,1,0,0:0:0:0:
288,192,19267,1,8,1:0:0:0:
416,192,19344,1,8,1:0:0:0:
96,192,19421,1,2,1:0:0:0:
224,192,19421,1,0,0:0:0:0:
352,192,19576,1,8,1:0:0:0:
224,192,19653,1,0,0:0:0:0:
96,192,19731,1,2,1:0:0:0:
416,192,19731,1,0,0:0:0:0:
288,192,19885,1,8,1:0:0:0:
160,192,19963,1,8,1:0:0:0:
352,192,20040,1,2,1:0:0:0:
480,192,20040,1,0,0:0:0:0:
96,192,20195,1,8,1:0:0:0:
224,192,20272,1,0,0:0:0:0:
352,192,20349,1,2,1:0:0:0:
480,192,20349,1,0,0:0:0:0:
160,192,20504,1,8,1:0:0:0:
288,192,20581,1,8,1:0:0:0:
96,192,20659,1,2,1:0:0:0:
416,192,20659,1,0,0:0:0:0:
224,192,20813,1,8,1:0:0:0:
352,192,20891,1,0,0:0:0:0:
96,192,20968,1,2,1:0:0:0:
480,192,20968,1,0,0:0:0:0:
288,192,21123,1,8,1:0:0:0:
416,192,21200,1,8,1:0:0:0:
96,192,21277,1,2,1:0:0:0:
224,192,21277,1,0,0:0:0:0:
416,192,21432,1,8,1:0:0:0:
288,192,21509,1,0,0:0:0:0:
32,192,21586,1,2,1:0:0:0:
160,192,21586,1,4,1:0:0:0:
480,192,21586,1,0,0:0:0:0:
224,192,21741,1,8,1:0:0:0:
32,192,21896,1,2,1:0:0:0:
288,192,21896,1,4,1:0:0:0:
416,192,21896,1,0,0:0:0:0:
224,192,22050,1,8,1:0:0:0:
32,192,22205,1,2,1:0:0:0:
160,192,22205,1,4,1:0:0:0:
352,192,22205,1,0,0:0:0:0:
416,192,22824,1,8,1:0:0:0:
224,192,22901,1,2,1:0:0:0:
352,192,22978,1,8,1:0:0:0:
160,192,23056,1,2,1:0:0:0:
416,192,23133,1,8,1:0:0:0:
224,192,23210,1,2,1:0:0:0:
352,192,23287,1,8,1:0:0:0:
160,192,23365,1,2,1:0:0:0:
416,192,23442,1,8,1:0:0:0:
224,192,23519,1,0,0:0:0:0:
352,192,23597,1,2,1:0:0:0:
480,192,23597,1,0,0:0:0:0:
96,192,23674,1,2,1:0:0:0:
160,192,23674,1,0,0:0:0:0:
288,192,23751,1,8,1:0:0:0:
416,192,23751,1,0,0:0:0:0:
32,192,24061,1,4,1:0:0:0:
160,192,24061,1,2,1:0:0:0:
352,192,24061,1,0,0:0:0:0:
352,192,24293,1,8,1:0:0:0:
160,192,24370,1,2,1:0:0:0:
288,192,24370,1,0,0:0:0:0:
352,192,24525,1,8,1:0:0:0:
480,192,24525,1,0,0:0:0:0:
96,192,24679,1,2,1:0:0:0:
224,192,24679,1,0,0:0:0:0:
352,192,24834,1,8,1:0:0:0:
224,192,24911,1,8,1:0:0:0:
96,192,24988,1,2,1:0:0:0:
416,192,24988,1,0,0:0:0:0:
160,192,25143,1,8,1:0:0:0:
480,192,25143,1,0,0:0:0:0:
224,192,25298,1,2,1:0:0:0:
352,192,25298,1,0,0:0:0:0:
416,192,25452,1,8,1:0:0:0:
288,192,25530,1,8,1:0:0:0:
96,192,25607,1,2,1:0:0:0:
160,192,25607,1,0,0:0:0:0:
352,192,25762,1,8,1:0:0:0:
480,192,25762,1,0,0:0:0:0:
160,192,25916,1,2,1:0:0:0:
288,192,25916,1,0,0:0:0:0:
32,192,26535,1,2,1:0:0:0:
96,192,26535,1,4,1:0:0:0:
224,192,26535,1,0,0:0:0:0:
224,192,26767,1,8,1:0:0:0:
352,192,26844,1,2,1:0:0:0:
480,192,26844,1,0,0:0:0:0:
160,192,26999,1,8,1:0:0:0:
288,192,26999,1,0,0:0:0:0:
224,192,27153,1,2,1:0:0:0:
416,192,27153,1,0,0:0:0:0:
96,192,27308,1,8,1:0:0:0:
224,192,27385,1,8,1:0:0:0:
352,192,27463,1,2,1:0:0:0:
480,192,27463,1,0,0:0:0:0:
160,192,27617,1,8,1:0:0:0:
288,192,27617,1,0,0:0:0:0:
96,192,27772,1,2,1:0:0:0:
416,192,27772,1,0,0:0:0:0:
288,192,27927,1,8,1:0:0:0:
160,192,28004,1,8,1:0:0:0:
352,192,28081,1,2,1:0:0:0:
480,192,28081,1,0,0:0:0:0:
96,192,28236,1,8,1:0:0:0:
224,192,28236,1,0,0:0:0:0:
288,192,28391,1,2,1:0:0:0:
416,192,28391,1,0,0:0:0:0:
160,192,28700,1,2,1:0:0:0:
352,192,28700,1,0,0:0:0:0:
32,192,29009,1,2,1:0:0:0:
288,192,29009,1,4,1:0:0:0:
480,192,29009,128,0,29164:0:0:0:0:
480,192,29241,1,0,0:0:0:0:
96,192,29318,1,8,1:0:0:0:
288,192,29318,1,0,0:0:0:0:
160,192,29473,1,0,0:0:0:0:
224,192,29628,1,2,1:0:0:0:
352,192,29628,128,0,29782:0:0:0:0:
352,192,29860,1,0,0:0:0:0:
96,192,29937,1,8,1:0:0:0:
224,192,29937,1,0,0:0:0:0:
352,192,30092,1,0,0:0:0:0:
224,192,30246,128,2,30401:1:0:0:0:
480,192,30246,1,0,0:0:0:0:
224,192,30478,1,0,0:0:0:0:
352,192,30556,1,8,1:0:0:0:
480,192,30556,1,0,0:0:0:0:
288,192,30710,1,0,0:0:0:0:
224,192,30865,1,2,1:0:0:0:
416,192,30865,128,0,31019:0:0:0:0:
416,192,31097,1,0,0:0:0:0:
96,192,31174,1,8,1:0:0:0:
288,192,31174,1,0,0:0:0:0:
352,192,31329,1,0,0:0:0:0:
160,192,31483,1,2,1:0:0:0:
288,192,31483,128,0,31638:0:0:0:0:
288,192,31715,1,0,0:0:0:0:
96,192,31793,1,8,1:0:0:0:
416,192,31793,1,0,0:0:0:0:
352,192,31947,1,0,0:0:0:0:
160,192,32102,128,2,32257:1:0:0:0:
288,192,32102,1,0,0:0:0:0:
160,192,32334,1,0,0:0:0:0:
288,192,32411,1,8,1:0:0:0:
416,192,32411,1,0,0:0:0:0:
224,192,32566,1,0,0:0:0:0:
160,192,32720,1,2,1:0:0:0:
352,192,32720,1,0,0:0:0:0:
288,192,32875,1,0,0:0:0:0:
96,192,33030,1,8,1:0:0:0:
224,192,33030,1,0,0:0:0:0:
352,192,33184,1,0,0:0:0:0:
224,192,33262,1,8,1:0:0:0:
96,192,33339,1,2,1:0:0:0:
416,192,33339,1,4,1:0:0:0:
288,192,33416,1,8,1:0:0:0:
160,192,33494,1,8,1:0:0:0:
224,192,33648,1,2,1:0:0:0:
416,192,33648,1,4,1:0:0:0:
288,192,33803,1,8,1:0:0:0:
224,192,33880,1,8,1:0:0:0:
32,192,33958,1,4,1:0:0:0:
160,192,33958,1,2,1:0:0:0:
352,192,33958,1,0,0:0:0:0:
160,192,34112,1,0,0:0:0:0:
288,192,34190,1,8,1:0:0:0:
96,192,34267,1,2,1:0:0:0:
416,192,34267,1,0,0:0:0:0:
160,192,34421,1,8,1:0:0:0:
352,192,34421,1,0,0:0:0:0:
288,192,34576,1,2,1:0:0:0:
480,192,34576,1,0,0:0:0:0:
96,192,34731,1,8,1:0:0:0:
224,192,34808,1,8,1:0:0:0:
352,192,34885,1,2,1:0:0:0:
480,192,34885,1,0,0:0:0:0:
160,192,35040,1,8,1:0:0:0:
288,192,35040,1,0,0:0:0:0:
224,192,35195,1,2,1:0:0:0:
416,192,35195,1,0,0:0:0:0:
352,192,35349,1,8,1:0:0:0:
224,192,35427,1,8,1:0:0:0:
96,192,35504,1,2,1:0:0:0:
416,192,35504,1,0,0:0:0:0:
160,192,35659,1,8,1:0:0:0:
288,192,35659,1,0,0:0:0:0:
352,192,35813,1,2,1:0:0:0:
480,192,35813,1,0,0:0:0:0:
352,192,35968,1,8,2:0:0:0:
224,192,36045,1,8,2:0:0:0:
96,192,36123,1,8,2:0:0:0:
352,192,36277,1,8,2:0:0:0:
32,192,36432,1,2,1:0:0:0:
224,192,36432,1,4,1:0:0:0:
416,192,36432,1,0,0:0:0:0:
224,192,36586,1,0,0:0:0:0:
352,192,36664,1,8,1:0:0:0:
96,192,36741,1,2,1:0:0:0:
480,192,36741,1,0,0:0:0:0:
160,192,36896,1,8,1:0:0:0:
416,192,36896,1,0,0:0:0:0:
224,192,37050,1,2,1:0:0:0:
352,192,37050,1,0,0:0:0:0:
288,192,37205,1,8,1:0:0:0:
160,192,37282,1,8,1:0:0:0:
352,192,37360,1,2,1:0:0:0:
480,192,37360,1,0,0:0:0:0:
96,192,37514,1,8,1:0:0:0:
224,192,37514,1,0,0:0:0:0:
160,192,37669,1,2,1:0:0:0:
288,192,37669,1,0,0:0:0:0:
416,192,37824,1,8,1:0:0:0:
288,192,37901,1,8,1:0:0:0:
160,192,37978,1,2,1:0:0:0:
480,192,37978,1,0,0:0:0:0:
224,192,38133,1,8,1:0:0:0:
352,192,38133,1,0,0:0:0:0:
96,192,38287,1,2,1:0:0:0:
288,192,38287,1,0,0:0:0:0:
224,192,38597,1,2,1:0:0:0:
416,192,38597,1,0,0:0:0:0:
352,192,38751,1,0,0:0:0:0:
32,192,38906,1,2,1:0:0:0:
160,192,38906,1,4,1:0:0:0:
480,192,38906,1,0,0:0:0:0:
416,192,39061,1,0,0:0:0:0:
224,192,39215,1,8,1:0:0:0:
352,192,39215,1,0,0:0:0:0:
160,192,39370,1,0,0:0:0:0:
96,192,39525,1,2,1:0:0:0:
288,192,39525,1,0,0:0:0:0:
416,192,39679,1,0,0:0:0:0:
96,192,39834,1,8,1:0:0:0:
352,192,39834,1,0,0:0:0:0:
288,192,39988,1,0,0:0:0:0:
224,192,40143,1,2,1:0:0:0:
416,192,40143,1,0,0:0:0:0:
352,192,40298,1,0,0:0:0:0:
96,192,40452,1,8,1:0:0:0:
288,192,40452,1,0,0:0:0:0:
160,192,40607,1,0,0:0:0:0:
224,192,40762,1,2,1:0:0:0:
480,192,40762,1,0,0:0:0:0:
160,192,40916,1,0,0:0:0:0:
96,192,41071,1,8,1:0:0:0:
352,192,41071,1,0,0:0:0:0:
288,192,41226,1,0,0:0:0:0:
224,192,41380,1,2,1:0:0:0:
416,192,41380,1,0,0:0:0:0:
352,192,41535,1,0,0:0:0:0:
96,192,41690,1,8,1:0:0:0:
288,192,41690,1,0,0:0:0:0:
160,192,41844,1,0,0:0:0:0:
224,192,41999,1,2,1:0:0:0:
352,192,41999,1,0,0:0:0:0:
416,192,42153,1,0,0:0:0:0:
160,192,42308,1,8,1:0:0:0:
480,192,42308,1,0,0:0:0:0:
288,192,42463,1,0,0:0:0:0:
32,192,42617,1,2,1:0:0:0:
224,192,42617,1,4,1:0:0:0:
416,192,42617,1,0,0:0:0:0:
160,192,42772,1,0,0:0:0:0:
288,192,42927,1,2,1:0:0:0:
480,192,42927,1,4,1:0:0:0:
352,192,43081,1,0,0:0:0:0:
224,192,43159,1,8,1:0:0:0:
96,192,43236,1,4,1:0:0:0:
416,192,43236,1,2,1:0:0:0:
160,192,43391,1,0,0:0:0:0:
288,192,43468,1,0,0:0:0:0:
96,192,43545,1,2,1:0:0:0:
416,192,43545,1,4,1:0:0:0:
224,192,43700,1,8,1:0:0:0:
352,192,43777,1,8,1:0:0:0:
96,192,43854,1,2,1:0:0:0:
480,192,43854,1,4,1:0:0:0:
224,192,44164,1,2,1:0:0:0:
352,192,44164,1,0,0:0:0:0:
480,192,44318,1,0,0:0:0:0:
96,192,44473,1,2,1:0:0:0:
352,192,44628,1,0,0:0:0:0:
224,192,44782,1,2,1:0:0:0:
416,192,44782,1,0,0:0:0:0:
480,192,44937,1,0,0:0:0:0:
96,192,45092,1,2,1:0:0:0:
352,192,45092,1,0,0:0:0:0:
224,192,45401,1,2,1:0:0:0:
352,192,45401,1,0,0:0:0:0:
480,192,45556,1,0,0:0:0:0:
96,192,45710,1,2,1:0:0:0:
352,192,45710,1,0,0:0:0:0:
224,192,46019,1,2,1:0:0:0:
352,192,46019,1,0,0:0:0:0:
96,192,46329,1,2,1:0:0:0:
480,192,46329,1,0,0:0:0:0:
224,192,46638,1,2,1:0:0:0:
352,192,46638,1,0,0:0:0:0:
480,192,46793,1,0,0:0:0:0:
96,192,46947,1,2,1:0:0:0:
352,192,47102,1,0,0:0:0:0:
224,192,47257,1,2,1:0:0:0:
416,192,47257,1,0,0:0:0:0:
480,192,47411,1,0,0:0:0:0:
96,192,47566,1,2,1:0:0:0:
352,192,47566,1,0,0:0:0:0:
160,192,47720,1,0,0:0:0:0:
224,192,47875,1,2,1:0:0:0:
416,192,47875,1,0,0:0:0:0:
96,192,48184,1,2,1:0:0:0:
352,192,48184,1,0,0:0:0:0:
160,192,48339,1,0,0:0:0:0:
224,192,48494,1,2,1:0:0:0:
416,192,48494,1,0,0:0:0:0:
96,192,48803,1,2,1:0:0:0:
480,192,48803,1,0,0:0:0:0:
224,192,49112,1,2,1:0:0:0:
352,192,49112,1,0,0:0:0:0:
480,192,49267,1,0,0:0:0:0:
96,192,49421,1,2,1:0:0:0:
352,192,49576,1,0,0:0:0:0:
224,192,49731,1,2,1:0:0:0:
416,192,49731,1,0,0:0:0:0:
480,192,49885,1,0,0:0:0:0:
96,192,50040,1,2,1:0:0:0:
352,192,50040,1,0,0:0:0:0:
224,192,50349,1,2,1:0:0:0:
352,192,50349,1,0,0:0:0:0:
480,192,50504,1,0,0:0:0:0:
96,192,50659,1,2,1:0:0:0:
352,192,50659,1,0,0:0:0:0:
224,192,50968,1,2,1:0:0:0:
352,192,50968,1,0,0:0:0:0:
32,192,51277,1,4,1:0:0:0:
352,192,51277,128,8,52514:1:0:0:0:
480,192,51277,1,0,0:0:0:0:
160,192,51586,1,0,0:0:0:0:
32,192,51896,1,4,1:0:0:0:
96,192,51896,1,8,1:0:0:0:
224,192,51896,128,0,52514:0:0:0:0:
160,192,52205,1,0,0:0:0:0:
32,192,52514,1,4,1:0:0:0:
160,192,52514,1,8,1:0:0:0:
480,192,52514,1,0,0:0:0:0:
288,192,52592,1,0,0:0:0:0:
416,192,52669,1,2,1:0:0:0:
224,192,52746,1,2,1:0:0:0:
96,192,52824,1,8,1:0:0:0:
352,192,52824,1,0,0:0:0:0:
480,192,52901,1,2,1:0:0:0:
288,192,52978,1,0,0:0:0:0:
416,192,53056,1,0,0:0:0:0:
96,192,53133,1,2,1:0:0:0:
224,192,53133,1,0,0:0:0:0:
352,192,53287,1,8,2:0:0:0:
480,192,53442,1,8,2:0:0:0:
352,192,53597,1,8,2:0:0:0:
32,192,53751,1,2,1:0:0:0:
224,192,53751,1,4,1:0:0:0:
416,192,53751,1,0,0:0:0:0:
224,192,53906,1,0,0:0:0:0:
288,192,53983,1,8,1:0:0:0:
352,192,54061,1,2,1:0:0:0:
480,192,54061,1,0,0:0:0:0:
96,192,54215,1,8,1:0:0:0:
288,192,54215,1,0,0:0:0:0:
224,192,54370,1,2,1:0:0:0:
416,192,54370,1,0,0:0:0:0:
416,192,54525,1,8,1:0:0:0:
352,192,54602,1,8,1:0:0:0:
96,192,54679,1,2,1:0:0:0:
288,192,54679,1,0,0:0:0:0:
160,192,54834,1,8,1:0:0:0:
352,192,54834,1,0,0:0:0:0:
224,192,54988,1,2,1:0:0:0:
416,192,54988,1,0,0:0:0:0:
352,192,55143,1,0,0:0:0:0:
224,192,55220,1,8,1:0:0:0:
96,192,55298,1,2,1:0:0:0:
416,192,55298,1,0,0:0:0:0:
160,192,55452,1,8,1:0:0:0:
288,192,55452,1,0,0:0:0:0:
224,192,55607,1,2,1:0:0:0:
352,192,55607,1,0,0:0:0:0:
224,192,55762,1,8,1:0:0:0:
160,192,55839,1,8,1:0:0:0:
96,192,55916,1,2,1:0:0:0:
288,192,55916,1,0,0:0:0:0:
160,192,56071,1,8,1:0:0:0:
352,192,56071,1,0,0:0:0:0:
224,192,56226,1,2,1:0:0:0:
416,192,56226,1,4,1:0:0:0:
416,192,56380,1,0,0:0:0:0:
288,192,56458,1,8,1:0:0:0:
160,192,56535,1,2,1:0:0:0:
480,192,56535,1,0,0:0:0:0:
288,192,56690,1,8,1:0:0:0:
416,192,56690,1,0,0:0:0:0:
96,192,56844,1,2,1:0:0:0:
224,192,56844,1,0,0:0:0:0:
96,192,56999,1,8,1:0:0:0:
224,192,57076,1,8,1:0:0:0:
352,192,57153,1,2,1:0:0:0:
480,192,57153,1,0,0:0:0:0:
160,192,57308,1,8,1:0:0:0:
288,192,57308,1,0,0:0:0:0:
96,192,57463,1,2,1:0:0:0:
224,192,57463,1,0,0:0:0:0:
352,192,57617,1,8,1:0:0:0:
224,192,57695,1,8,1:0:0:0:
96,192,57772,1,2,1:0:0:0:
416,192,57772,1,0,0:0:0:0:
160,192,57927,1,8,1:0:0:0:
352,192,57927,1,0,0:0:0:0:
224,192,58081,1,2,1:0:0:0:
352,192,58081,1,0,0:0:0:0:
352,192,58236,1,0,0:0:0:0:
96,192,58313,1,8,1:0:0:0:
224,192,58391,1,2,1:0:0:0:
416,192,58391,1,0,0:0:0:0:
96,192,58468,1,8,1:0:0:0:
224,192,58545,1,8,1:0:0:0:
352,192,58623,1,8,1:0:0:0:
32,192,58700,1,2,1:0:0:0:
160,192,58700,1,4,1:0:0:0:
480,192,58700,1,0,0:0:0:0:
480,192,58854,1,0,0:0:0:0:
352,192,58932,1,8,1:0:0:0:
96,192,59009,1,2,1:0:0:0:
224,192,59009,1,0,0:0:0:0:
160,192,59164,1,8,1:0:0:0:
288,192,59164,1,0,0:0:0:0:
352,192,59318,1,2,1:0:0:0:
480,192,59318,1,0,0:0:0:0:
224,192,59473,1,8,1:0:0:0:
352,192,59550,1,8,1:0:0:0:
96,192,59628,1,2,1:0:0:0:
480,192,59628,1,0,0:0:0:0:
160,192,59782,1,8,1:0:0:0:
416,192,59782,1,0,0:0:0:0:
224,192,59937,1,2,1:0:0:0:
352,192,59937,1,0,0:0:0:0:
224,192,60092,1,0,0:0:0:0:
160,192,60169,1,8,1:0:0:0:
96,192,60246,1,2,1:0:0:0:
288,192,60246,1,0,0:0:0:0:
224,192,60401,1,8,1:0:0:0:
352,192,60401,1,0,0:0:0:0:
160,192,60556,1,2,1:0:0:0:
416,192,60556,1,0,0:0:0:0:
416,192,60710,1,8,1:0:0:0:
352,192,60787,1,8,1:0:0:0:
160,192,60865,1,2,1:0:0:0:
288,192,60865,1,0,0:0:0:0:
96,192,61019,1,8,1:0:0:0:
480,192,61019,1,0,0:0:0:0:
288,192,61174,1,2,1:0:0:0:
416,192,61174,1,4,1:0:0:0:
288,192,61329,1,0,0:0:0:0:
160,192,61406,1,8,1:0:0:0:
352,192,61483,1,2,1:0:0:0:
480,192,61483,1,0,0:0:0:0:
96,192,61638,1,8,1:0:0:0:
224,192,61638,1,0,0:0:0:0:
160,192,61793,1,2,1:0:0:0:
288,192,61793,1,0,0:0:0:0:
160,192,61947,1,8,1:0:0:0:
288,192,62025,1,8,1:0:0:0:
96,192,62102,1,2,1:0:0:0:
416,192,62102,1,0,0:0:0:0:
160,192,62257,1,8,1:0:0:0:
352,192,62257,1,0,0:0:0:0:
288,192,62411,1,2,1:0:0:0:
416,192,62411,1,0,0:0:0:0:
96,192,62566,1,0,0:0:0:0:
224,192,62566,1,0,0:0:0:0:
160,192,62720,1,8,1:0:0:0:
352,192,62720,1,0,0:0:0:0:
288,192,62875,1,0,0:0:0:0:
416,192,62875,1,0,0:0:0:0:
96,192,63030,1,2,1:0:0:0:
480,192,63030,128,0,63648:0:0:0:0:
224,192,63107,1,8,1:0:0:0:
352,192,63184,1,8,1:0:0:0:
160,192,63262,1,0,0:0:0:0:
288,192,63339,1,2,1:0:0:0:
416,192,63339,1,0,0:0:0:0:
96,192,63416,1,0,0:0:0:0:
224,192,63494,1,8,1:0:0:0:
352,192,63571,1,8,1:0:0:0:
32,192,63648,1,2,1:0:0:0:
96,192,63648,1,4,1:0:0:0:
224,192,63648,1,0,0:0:0:0:
288,192,63803,1,0,0:0:0:0:
160,192,63958,1,2,1:0:0:0:
352,192,63958,1,8,1:0:0:0:
224,192,64112,1,0,0:0:0:0:
288,192,64267,1,2,1:0:0:0:
480,192,64267,1,0,0:0:0:0:
416,192,64421,1,0,0:0:0:0:
224,192,64576,1,2,1:0:0:0:
352,192,64576,1,8,1:0:0:0:
160,192,64731,1,0,0:0:0:0:
96,192,64885,1,2,1:0:0:0:
288,192,64885,1,0,0:0:0:0:
352,192,65040,1,0,0:0:0:0:
224,192,65195,1,2,1:0:0:0:
416,192,65195,1,8,1:0:0:0:
160,192,65349,1,0,0:0:0:0:
96,192,65504,1,2,1:0:0:0:
288,192,65504,1,0,0:0:0:0:
224,192,65659,1,0,0:0:0:0:
160,192,65813,1,2,1:0:0:0:
352,192,65813,1,8,1:0:0:0:
288,192,65968,1,0,0:0:0:0:
32,192,66123,1,2,1:0:0:0:
96,192,66123,1,4,1:0:0:0:
224,192,66123,1,0,0:0:0:0:
352,192,66277,1,0,0:0:0:0:
96,192,66432,1,2,1:0:0:0:
224,192,66432,1,8,1:0:0:0:
352,192,66586,1,0,0:0:0:0:
32,192,66741,1,2,1:0:0:0:
160,192,66741,1,4,1:0:0:0:
480,192,66741,1,0,0:0:0:0:
288,192,66896,1,0,0:0:0:0:
160,192,67050,1,2,1:0:0:0:
480,192,67050,1,8,1:0:0:0:
288,192,67205,1,8,1:0:0:0:
32,192,67360,1,2,1:0:0:0:
160,192,67360,1,4,1:0:0:0:
416,192,67360,1,0,0:0:0:0:
352,192,67514,1,8,1:0:0:0:
416,192,67669,1,8,1:0:0:0:
352,192,67824,1,2,1:0:0:0:
32,192,67978,1,8,1:0:0:0:
96,192,67978,1,4,1:0:0:0:
288,192,67978,1,0,0:0:0:0:
416,192,68056,1,0,0:0:0:0:
224,192,68133,1,0,0:0:0:0:
352,192,68210,1,0,0:0:0:0:
160,192,68287,1,0,0:0:0:0:
480,192,68287,1,0,0:0:0:0:
288,192,68365,1,0,0:0:0:0:
416,192,68442,1,0,0:0:0:0:
224,192,68519,1,0,0:0:0:0:
32,192,68597,1,2,1:0:0:0:
352,192,68597,1,4,1:0:0:0:
480,192,68597,1,0,0:0:0:0:
160,192,68906,1,0,0:0:0:0:
288,192,69215,1,0,0:0:0:0:
416,192,69525,1,0,0:0:0:0:
32,192,69834,1,4,1:0:0:0:
160,192,69834,1,8,1:0:0:0:
288,192,69834,1,0,0:0:0:0:
352,192,70143,1,0,0:0:0:0:
224,192,70452,1,0,0:0:0:0:
352,192,70762,1,8,2:0:0:0:
224,192,70916,1,8,2:0:0:0:
96,192,71071,1,2,1:0:0:0:
352,192,71071,1,0,0:0:0:0:
160,192,71380,1,2,1:0:0:0:
288,192,71380,1,0,0:0:0:0:
96,192,71535,1,2,1:0:0:0:
352,192,71535,1,0,0:0:0:0:
224,192,71844,1,2,1:0:0:0:
480,192,71844,1,0,0:0:0:0:
224,192,72153,1,2,1:0:0:0:
480,192,72153,1,0,0:0:0:0:
288,192,72463,1,2,1:0:0:0:
416,192,72463,1,0,0:0:0:0:
96,192,72617,1,0,0:0:0:0:
288,192,72772,1,2,1:0:0:0:
416,192,72772,1,0,0:0:0:0:
224,192,72927,1,2,1:0:0:0:
480,192,72927,1,0,0:0:0:0:
352,192,73081,128,8,73391:2:0:0:0:
32,192,73545,1,2,1:0:0:0:
352,192,73545,1,4,1:0:0:0:
480,192,73545,1,0,0:0:0:0:
352,192,73854,1,2,1:0:0:0:
480,192,73854,1,0,0:0:0:0:
160,192,74009,1,2,1:0:0:0:
288,192,74009,1,0,0:0:0:0:
224,192,74318,1,2,1:0:0:0:
352,192,74318,1,0,0:0:0:0:
32,192,74628,1,2,1:0:0:0:
96,192,74628,1,4,1:0:0:0:
224,192,74628,1,0,0:0:0:0:
32,192,74937,1,4,1:0:0:0:
288,192,74937,1,2,1:0:0:0:
416,192,74937,1,0,0:0:0:0:
160,192,75246,1,2,1:0:0:0:
288,192,75246,1,0,0:0:0:0:
352,192,75401,1,2,1:0:0:0:
480,192,75401,128,0,75710:0:0:0:0:
416,192,75865,1,0,0:0:0:0:
288,192,75942,1,0,0:0:0:0:
32,192,76019,1,2,1:0:0:0:
160,192,76019,1,4,1:0:0:0:
480,192,76019,1,0,0:0:0:0:
224,192,76174,1,0,0:0:0:0:
352,192,76251,1,8,1:0:0:0:
160,192,76329,1,2,1:0:0:0:
480,192,76329,1,0,0:0:0:0:
288,192,76483,1,8,1:0:0:0:
416,192,76561,1,0,0:0:0:0:
96,192,76638,1,2,1:0:0:0:
224,192,76638,1,0,0:0:0:0:
352,192,76793,1,8,1:0:0:0:
224,192,76870,1,8,1:0:0:0:
96,192,76947,1,2,1:0:0:0:
480,192,76947,1,0,0:0:0:0:
352,192,77102,1,8,1:0:0:0:
224,192,77179,1,0,0:0:0:0:
96,192,77257,1,2,1:0:0:0:
416,192,77257,1,0,0:0:0:0:
288,192,77411,1,8,1:0:0:0:
416,192,77488,1,8,1:0:0:0:
96,192,77566,1,2,1:0:0:0:
224,192,77566,1,0,0:0:0:0:
352,192,77720,1,8,1:0:0:0:
480,192,77798,1,0,0:0:0:0:
160,192,77875,1,2,1:0:0:0:
288,192,77875,1,0,0:0:0:0:
416,192,78030,1,8,1:0:0:0:
288,192,78107,1,8,1:0:0:0:
160,192,78184,1,2,1:0:0:0:
480,192,78184,1,0,0:0:0:0:
352,192,78339,1,8,1:0:0:0:
224,192,78416,1,0,0:0:0:0:
96,192,78494,1,2,1:0:0:0:
480,192,78494,1,0,0:0:0:0:
288,192,78648,1,8,1:0:0:0:
160,192,78726,1,8,1:0:0:0:
352,192,78803,1,2,1:0:0:0:
480,192,78803,1,0,0:0:0:0:
224,192,78958,1,8,1:0:0:0:
96,192,79035,1,0,0:0:0:0:
288,192,79112,1,2,1:0:0:0:
416,192,79112,1,0,0:0:0:0:
160,192,79267,1,8,1:0:0:0:
288,192,79344,1,8,1:0:0:0:
96,192,79421,1,2,1:0:0:0:
416,192,79421,1,0,0:0:0:0:
224,192,79576,1,8,1:0:0:0:
352,192,79653,1,0,0:0:0:0:
32,192,79731,1,2,1:0:0:0:
96,192,79731,1,4,1:0:0:0:
480,192,79731,1,0,0:0:0:0:
416,192,79885,1,8,1:0:0:0:
32,192,80040,1,2,1:0:0:0:
160,192,80040,1,4,1:0:0:0:
352,192,80040,1,0,0:0:0:0:
224,192,80195,1,8,1:0:0:0:
32,192,80349,1,2,1:0:0:0:
96,192,80349,1,4,1:0:0:0:
288,192,80349,1,0,0:0:0:0:
224,192,80659,1,8,1:0:0:0:
352,192,80736,1,8,1:0:0:0:
224,192,80813,1,8,1:0:0:0:
352,192,80891,1,8,1:0:0:0:
32,192,80968,1,2,1:0:0:0:
160,192,80968,1,4,1:0:0:0:
480,192,80968,1,0,0:0:0:0:
416,192,81123,1,0,0:0:0:0:
288,192,81200,1,8,1:0:0:0:
160,192,81277,1,2,1:0:0:0:
480,192,81277,1,0,0:0:0:0:
224,192,81432,1,8,1:0:0:0:
352,192,81509,1,0,0:0:0:0:
96,192,81586,1,2,1:0:0:0:
480,192,81586,1,0,0:0:0:0:
416,192,81741,1,8,1:0:0:0:
288,192,81818,1,8,1:0:0:0:
160,192,81896,1,2,1:0:0:0:
480,192,81896,1,0,0:0:0:0:
224,192,82050,1,8,1:0:0:0:
96,192,82128,1,0,0:0:0:0:
352,192,82205,1,2,1:0:0:0:
480,192,82205,1,0,0:0:0:0:
288,192,82360,1,8,1:0:0:0:
160,192,82437,1,8,1:0:0:0:
352,192,82514,1,2,1:0:0:0:
480,192,82514,1,0,0:0:0:0:
224,192,82669,1,8,1:0:0:0:
352,192,82746,1,0,0:0:0:0:
160,192,82824,1,2,1:0:0:0:
480,192,82824,1,0,0:0:0:0:
288,192,82978,1,8,1:0:0:0:
416,192,83056,1,8,1:0:0:0:
96,192,83133,1,2,1:0:0:0:
224,192,83133,1,0,0:0:0:0:
480,192,83287,1,8,1:0:0:0:
352,192,83365,1,0,0:0:0:0:
96,192,83442,1,2,1:0:0:0:
224,192,83442,1,0,0:0:0:0:
416,192,83597,1,8,1:0:0:0:
288,192,83674,1,8,1:0:0:0:
160,192,83751,1,2,1:0:0:0:
480,192,83751,1,0,0:0:0:0:
352,192,83906,1,8,1:0:0:0:
224,192,83983,1,0,0:0:0:0:
96,192,84061,1,2,1:0:0:0:
480,192,84061,1,0,0:0:0:0:
288,192,84215,1,8,1:0:0:0:
160,192,84293,1,8,1:0:0:0:
352,192,84370,1,2,1:0:0:0:
480,192,84370,1,0,0:0:0:0:
160,192,84525,1,8,1:0:0:0:
288,192,84602,1,0,0:0:0:0:
32,192,84679,1,2,1:0:0:0:
96,192,84679,1,4,1:0:0:0:
416,192,84679,1,0,0:0:0:0:
352,192,84834,1,8,1:0:0:0:
32,192,84988,1,2,1:0:0:0:
160,192,84988,1,4,1:0:0:0:
288,192,84988,1,0,0:0:0:0:
352,192,85143,1,8,1:0:0:0:
32,192,85298,1,2,1:0:0:0:
224,192,85298,1,4,1:0:0:0:
416,192,85298,1,0,0:0:0:0:
224,192,85607,1,0,0:0:0:0:
352,192,85684,1,0,0:0:0:0:
