osu file format v14

[General]
AudioFilename: audio.mp3
AudioLeadIn: 0
PreviewTime: 52655
Countdown: 0
SampleSet: Drum
StackLeniency: 0.7
Mode: 3
LetterboxInBreaks: 0
SpecialStyle: 0
WidescreenStoryboard: 1

[Editor]
DistanceSpacing: 1
BeatDivisor: 2
GridSize: 4
TimelineZoom: 2.799999

[Metadata]
Title:Nyarlathotep
TitleUnicode:Nyarlathotep
Artist:nato
ArtistUnicode:nato
Creator:Arzenvald
Version:NOVICE Lv.10
Source:Pump It Up XX
Tags:펌프 잇 업 나토 니알라토텝 PIU 2019 20th anniversary edition original dance arcade double X twenty ANDAMIRO DoNotMess MEGAtive ExUsagi
BeatmapID:1947318
BeatmapSetID:923367

[Difficulty]
HPDrainRate:8
CircleSize:4
OverallDifficulty:8
ApproachRate:5
SliderMultiplier:1.4
SliderTickRate:1

[Events]
//Background and Video events
0,0,"BG.png",0,0
//Break Periods
//Storyboard Layer 0 (Background)
//Storyboard Layer 1 (Fail)
//Storyboard Layer 2 (Pass)
//Storyboard Layer 3 (Foreground)
//Storyboard Layer 4 (Overlay)
//Storyboard Sound Samples

[TimingPoints]
4840,300,4,3,1,70,1,0
14440,-100,4,2,1,70,0,0
33640,-100,4,1,1,70,0,0
40840,-100,4,2,1,70,0,0
43240,-100,4,1,1,70,0,0
50440,-100,4,2,1,70,0,0
52840,-100,4,3,1,70,0,0
61540,-100,4,2,1,70,0,0
62440,-100,4,3,1,70,0,0
84640,-100,4,2,1,70,0,0
85240,-100,4,2,0,70,0,0
85540,-100,4,2,1,70,0,0
86140,-100,4,1,1,70,0,0
87940,-100,4,1,1,70,0,0
95440,-100,4,3,1,70,0,0
96040,-100,4,1,1,70,0,0

[HitObjects]
192,192,6040,128,0,7240:0:0:0:0:
320,192,6040,1,0,0:0:0:0:
192,192,8440,128,0,9640:0:0:0:0:
320,192,8440,1,0,0:0:0:0:
192,192,10840,128,0,12040:0:0:0:0:
320,192,10840,1,0,0:0:0:0:
192,192,13240,1,0,0:0:0:0:
320,192,13240,1,0,0:0:0:0:
64,192,14440,128,4,14740:0:0:0:0:
320,192,14440,1,0,0:0:0:0:
448,192,14740,1,8,0:0:0:0:
192,192,14890,1,0,0:0:0:0:
192,192,15190,1,0,0:0:0:0:
448,192,15340,1,8,0:0:0:0:
64,192,15640,1,0,0:0:0:0:
320,192,15940,1,8,0:0:0:0:
64,192,16090,1,0,0:0:0:0:
64,192,16390,1,0,0:0:0:0:
320,192,16540,1,8,0:0:0:0:
192,192,16690,1,0,0:0:0:0:
64,192,16840,1,0,0:0:0:0:
448,192,17140,1,8,0:0:0:0:
64,192,17290,1,0,0:0:0:0:
64,192,17590,1,0,0:0:0:0:
448,192,17740,1,8,0:0:0:0:
192,192,18040,1,0,0:0:0:0:
448,192,18340,1,8,0:0:0:0:
192,192,18490,1,0,0:0:0:0:
64,192,18640,1,0,0:0:0:0:
192,192,18790,1,0,0:0:0:0:
448,192,18940,1,8,0:0:0:0:
64,192,19240,128,0,19540:0:0:0:0:
448,192,19540,1,8,0:0:0:0:
192,192,19690,1,0,0:0:0:0:
64,192,19990,1,0,0:0:0:0:
448,192,20140,1,8,0:0:0:0:
320,192,20440,1,0,0:0:0:0:
448,192,20740,1,8,0:0:0:0:
192,192,20890,1,0,0:0:0:0:
64,192,21190,1,0,0:0:0:0:
448,192,21340,1,8,0:0:0:0:
64,192,21640,1,0,0:0:0:0:
320,192,21940,1,8,0:0:0:0:
64,192,22090,1,0,0:0:0:0:
64,192,22390,1,0,0:0:0:0:
320,192,22540,1,8,0:0:0:0:
64,192,22840,1,0,0:0:0:0:
448,192,22840,1,0,0:0:0:0:
192,192,23440,1,0,0:0:0:0:
448,192,23740,1,0,0:0:0:0:
64,192,24040,128,4,24340:0:0:0:0:
192,192,24040,1,0,0:0:0:0:
320,192,24640,1,0,0:0:0:0:
448,192,24940,1,8,0:0:0:0:
64,192,25240,1,0,0:0:0:0:
448,192,25540,1,8,0:0:0:0:
320,192,25690,1,0,0:0:0:0:
64,192,25840,1,0,0:0:0:0:
320,192,25990,1,0,0:0:0:0:
448,192,26140,1,8,0:0:0:0:
64,192,26440,1,0,0:0:0:0:
448,192,26740,1,8,0:0:0:0:
192,192,26890,1,0,0:0:0:0:
192,192,27190,1,0,0:0:0:0:
448,192,27340,1,8,0:0:0:0:
64,192,27640,1,0,0:0:0:0:
320,192,27940,1,8,0:0:0:0:
64,192,28090,1,0,0:0:0:0:
64,192,28390,1,0,0:0:0:0:
320,192,28540,1,8,0:0:0:0:
192,192,28690,1,0,0:0:0:0:
448,192,28840,128,0,29140:0:0:0:0:
192,192,29140,1,8,0:0:0:0:
64,192,29290,1,0,0:0:0:0:
448,192,29590,1,0,0:0:0:0:
320,192,29740,1,8,0:0:0:0:
192,192,29890,1,0,0:0:0:0:
64,192,30040,128,8,30340:0:0:0:0:
320,192,30340,1,8,0:0:0:0:
192,192,30640,1,8,0:0:0:0:
448,192,30940,1,8,0:0:0:0:
64,192,31240,1,0,0:0:0:0:
192,192,31240,128,0,32440:0:0:0:0:
320,192,32440,1,0,0:0:0:0:
448,192,32440,1,0,0:0:0:0:
64,192,32740,128,0,33640:0:0:0:0:
448,192,33640,1,4,0:0:0:0:
320,192,33790,1,0,0:0:0:0:
192,192,33940,1,8,0:0:0:0:
320,192,34090,1,0,0:0:0:0:
448,192,34240,1,0,0:0:0:0:
192,192,34390,1,0,0:0:0:0:
320,192,34540,1,8,0:0:0:0:
192,192,34690,1,0,0:0:0:0:
448,192,34840,1,0,0:0:0:0:
320,192,34990,1,0,0:0:0:0:
192,192,35140,1,8,0:0:0:0:
320,192,35290,1,0,0:0:0:0:
448,192,35440,1,0,0:0:0:0:
320,192,35665,1,0,0:0:0:0:
192,192,35890,1,0,0:0:0:0:
64,192,36040,1,0,0:0:0:0:
320,192,36190,1,0,0:0:0:0:
192,192,36340,1,8,0:0:0:0:
320,192,36490,1,0,0:0:0:0:
64,192,36640,1,0,0:0:0:0:
192,192,36790,1,0,0:0:0:0:
320,192,36940,1,8,0:0:0:0:
192,192,37090,1,0,0:0:0:0:
64,192,37240,1,0,0:0:0:0:
320,192,37390,1,0,0:0:0:0:
192,192,37540,1,8,0:0:0:0:
320,192,37690,1,0,0:0:0:0:
64,192,37840,1,0,0:0:0:0:
192,192,37990,1,0,0:0:0:0:
448,192,38140,1,8,0:0:0:0:
320,192,38290,1,0,0:0:0:0:
192,192,38440,1,0,0:0:0:0:
64,192,38590,1,0,0:0:0:0:
448,192,38740,1,8,0:0:0:0:
64,192,38890,1,0,0:0:0:0:
192,192,39040,1,0,0:0:0:0:
320,192,39190,1,0,0:0:0:0:
192,192,39340,1,8,0:0:0:0:
64,192,39490,1,0,0:0:0:0:
192,192,39640,1,0,0:0:0:0:
64,192,39790,1,0,0:0:0:0:
448,192,39940,1,8,0:0:0:0:
64,192,40090,1,0,0:0:0:0:
192,192,40240,1,0,0:0:0:0:
320,192,40465,1,0,0:0:0:0:
448,192,40690,1,0,0:0:0:0:
64,192,40840,128,0,41140:0:0:0:0:
320,192,41140,128,0,41440:0:0:0:0:
192,192,41440,128,0,41740:0:0:0:0:
448,192,41740,128,0,42040:0:0:0:0:
320,192,42040,1,0,0:0:0:0:
192,192,42190,1,0,0:0:0:0:
448,192,42490,1,0,0:0:0:0:
64,192,42790,1,0,0:0:0:0:
64,192,43240,1,4,0:0:0:0:
192,192,43390,1,0,0:0:0:0:
320,192,43540,1,8,0:0:0:0:
192,192,43690,1,0,0:0:0:0:
64,192,43840,1,0,0:0:0:0:
320,192,43990,1,0,0:0:0:0:
192,192,44140,1,8,0:0:0:0:
320,192,44290,1,0,0:0:0:0:
64,192,44440,1,0,0:0:0:0:
192,192,44590,1,0,0:0:0:0:
320,192,44740,1,8,0:0:0:0:
192,192,44890,1,0,0:0:0:0:
64,192,45040,1,0,0:0:0:0:
192,192,45265,1,0,0:0:0:0:
320,192,45490,1,0,0:0:0:0:
448,192,45640,1,0,0:0:0:0:
192,192,45790,1,0,0:0:0:0:
320,192,45940,1,8,0:0:0:0:
192,192,46090,1,0,0:0:0:0:
448,192,46240,1,0,0:0:0:0:
320,192,46390,1,0,0:0:0:0:
192,192,46540,1,8,0:0:0:0:
320,192,46690,1,0,0:0:0:0:
448,192,46840,1,0,0:0:0:0:
192,192,46990,1,0,0:0:0:0:
320,192,47140,1,8,0:0:0:0:
192,192,47290,1,0,0:0:0:0:
448,192,47440,1,0,0:0:0:0:
320,192,47590,1,0,0:0:0:0:
64,192,47740,1,8,0:0:0:0:
192,192,47890,1,0,0:0:0:0:
320,192,48040,1,4,0:0:0:0:
448,192,48190,1,0,0:0:0:0:
64,192,48340,1,8,0:0:0:0:
448,192,48490,1,0,0:0:0:0:
320,192,48640,1,0,0:0:0:0:
192,192,48790,1,0,0:0:0:0:
320,192,48940,1,8,0:0:0:0:
448,192,49090,1,0,0:0:0:0:
320,192,49240,1,4,0:0:0:0:
448,192,49390,1,0,0:0:0:0:
64,192,49540,1,8,0:0:0:0:
448,192,49690,1,0,0:0:0:0:
320,192,49840,1,0,0:0:0:0:
192,192,50065,1,0,0:0:0:0:
64,192,50290,1,0,0:0:0:0:
448,192,50440,128,4,50740:0:0:0:0:
192,192,50740,128,0,51040:0:0:0:0:
320,192,51040,128,4,51340:0:0:0:0:
64,192,51340,128,0,51640:0:0:0:0:
192,192,51640,1,0,0:0:0:0:
320,192,51790,1,0,0:0:0:0:
448,192,51940,1,0,0:0:0:0:
64,192,52090,128,0,52390:0:0:0:0:
192,192,52390,128,0,52840:0:0:0:0:
320,192,52840,1,4,0:0:0:0:
448,192,52840,1,0,0:0:0:0:
64,192,53740,1,4,0:0:0:0:
448,192,53740,1,0,0:0:0:0:
64,192,55390,1,4,0:0:0:0:
448,192,55390,1,0,0:0:0:0:
192,192,55915,1,4,0:0:0:0:
320,192,55915,1,0,0:0:0:0:
64,192,56215,1,4,0:0:0:0:
448,192,56215,1,0,0:0:0:0:
320,192,56890,1,4,0:0:0:0:
448,192,56890,1,0,0:0:0:0:
64,192,57340,1,4,0:0:0:0:
192,192,57340,1,0,0:0:0:0:
320,192,57640,1,4,0:0:0:0:
448,192,57640,1,0,0:0:0:0:
64,192,58090,1,4,0:0:0:0:
192,192,58090,1,0,0:0:0:0:
320,192,58690,1,4,0:0:0:0:
448,192,58690,1,0,0:0:0:0:
320,192,59440,1,4,0:0:0:0:
448,192,59440,1,0,0:0:0:0:
64,192,59740,128,4,60340:0:0:0:0:
192,192,59740,1,0,0:0:0:0:
448,192,60340,128,0,60640:0:0:0:0:
64,192,60940,1,0,0:0:0:0:
192,192,61090,1,0,0:0:0:0:
320,192,61240,1,0,0:0:0:0:
64,192,61540,1,2,0:0:0:0:
448,192,61540,1,0,0:0:0:0:
320,192,61840,1,0,0:0:0:0:
192,192,61990,1,0,0:0:0:0:
320,192,62140,1,0,0:0:0:0:
192,192,62290,1,0,0:0:0:0:
64,192,62440,1,4,0:0:0:0:
448,192,62440,1,0,0:0:0:0:
64,192,62740,1,0,0:0:0:0:
64,192,63040,1,0,0:0:0:0:
64,192,63340,1,0,0:0:0:0:
192,192,63640,1,0,0:0:0:0:
192,192,63940,1,0,0:0:0:0:
192,192,64240,1,0,0:0:0:0:
192,192,64540,1,0,0:0:0:0:
320,192,64690,1,0,0:0:0:0:
448,192,64840,1,4,0:0:0:0:
448,192,65140,1,0,0:0:0:0:
448,192,65440,1,0,0:0:0:0:
448,192,65740,1,0,0:0:0:0:
320,192,66040,1,0,0:0:0:0:
320,192,66340,1,0,0:0:0:0:
320,192,66640,1,0,0:0:0:0:
320,192,66940,1,0,0:0:0:0:
192,192,67090,1,0,0:0:0:0:
64,192,67240,1,4,0:0:0:0:
64,192,67540,1,0,0:0:0:0:
192,192,67840,1,0,0:0:0:0:
320,192,67990,1,0,0:0:0:0:
192,192,68140,1,0,0:0:0:0:
320,192,68290,1,0,0:0:0:0:
448,192,68440,1,4,0:0:0:0:
448,192,68740,1,0,0:0:0:0:
320,192,69040,1,0,0:0:0:0:
320,192,69340,1,0,0:0:0:0:
64,192,69640,1,4,0:0:0:0:
448,192,69640,1,0,0:0:0:0:
320,192,69790,1,0,0:0:0:0:
192,192,70090,1,0,0:0:0:0:
64,192,70240,1,4,0:0:0:0:
448,192,70240,1,0,0:0:0:0:
320,192,70540,1,0,0:0:0:0:
64,192,70840,128,4,72040:0:0:0:0:
192,192,70840,1,0,0:0:0:0:
320,192,72040,1,4,0:0:0:0:
448,192,72040,1,0,0:0:0:0:
192,192,72340,1,0,0:0:0:0:
448,192,72340,1,0,0:0:0:0:
64,192,72640,1,0,0:0:0:0:
320,192,72640,1,0,0:0:0:0:
64,192,72940,1,0,0:0:0:0:
192,192,72940,1,0,0:0:0:0:
320,192,73240,1,0,0:0:0:0:
448,192,73240,1,0,0:0:0:0:
192,192,73540,1,0,0:0:0:0:
448,192,73540,1,0,0:0:0:0:
64,192,73840,128,0,74440:0:0:0:0:
320,192,73840,1,0,0:0:0:0:
320,192,74440,1,0,0:0:0:0:
448,192,74440,1,0,0:0:0:0:
192,192,74740,1,0,0:0:0:0:
320,192,74740,1,0,0:0:0:0:
64,192,75040,1,0,0:0:0:0:
448,192,75040,1,0,0:0:0:0:
192,192,75340,1,0,0:0:0:0:
320,192,75340,1,0,0:0:0:0:
64,192,75640,1,0,0:0:0:0:
192,192,75640,1,0,0:0:0:0:
320,192,75940,1,0,0:0:0:0:
448,192,75940,1,0,0:0:0:0:
64,192,76240,1,4,0:0:0:0:
192,192,76240,1,0,0:0:0:0:
64,192,76840,1,4,0:0:0:0:
192,192,76840,1,0,0:0:0:0:
320,192,77140,1,0,0:0:0:0:
448,192,77140,1,0,0:0:0:0:
64,192,77440,1,0,0:0:0:0:
448,192,77440,1,0,0:0:0:0:
64,192,77740,1,0,0:0:0:0:
192,192,77740,1,0,0:0:0:0:
320,192,78040,1,4,0:0:0:0:
448,192,78040,1,0,0:0:0:0:
64,192,78340,1,0,0:0:0:0:
320,192,78340,1,0,0:0:0:0:
192,192,78640,128,0,79240:0:0:0:0:
448,192,78640,1,0,0:0:0:0:
64,192,79240,1,4,0:0:0:0:
320,192,79240,1,0,0:0:0:0:
192,192,79540,1,0,0:0:0:0:
448,192,79540,1,0,0:0:0:0:
64,192,79840,1,0,0:0:0:0:
320,192,79840,1,0,0:0:0:0:
192,192,80140,1,0,0:0:0:0:
448,192,80140,1,0,0:0:0:0:
64,192,80440,1,0,0:0:0:0:
448,192,80440,1,0,0:0:0:0:
192,192,80740,1,0,0:0:0:0:
320,192,80740,1,0,0:0:0:0:
64,192,81040,1,0,0:0:0:0:
192,192,81190,1,0,0:0:0:0:
448,192,81340,1,0,0:0:0:0:
320,192,81490,1,0,0:0:0:0:
64,192,81640,1,8,0:0:0:0:
192,192,81640,1,0,0:0:0:0:
192,192,84640,1,8,0:0:0:0:
448,192,84640,1,0,0:0:0:0:
320,192,84790,1,8,0:0:0:0:
64,192,84940,1,0,0:0:0:0:
448,192,84940,1,0,0:0:0:0:
192,192,85090,1,0,0:0:0:0:
64,192,85240,1,2,0:0:0:0:
448,192,85540,1,0,0:0:0:0:
192,192,85840,128,0,86140:0:0:0:0:
320,192,86140,128,0,86440:0:0:0:0:
64,192,86440,128,0,87415:0:0:0:0:
448,192,87415,128,0,87640:0:0:0:0:
448,192,87940,1,8,0:0:0:0:
192,192,88090,1,0,0:0:0:0:
320,192,88240,1,0,0:0:0:0:
64,192,88390,1,0,0:0:0:0:
192,192,88540,1,8,0:0:0:0:
64,192,88690,1,0,0:0:0:0:
448,192,88840,1,0,0:0:0:0:
192,192,88990,1,0,0:0:0:0:
320,192,89140,1,8,0:0:0:0:
64,192,89290,1,0,0:0:0:0:
192,192,89440,1,0,0:0:0:0:
64,192,89590,1,0,0:0:0:0:
320,192,89740,1,8,0:0:0:0:
448,192,89890,1,0,0:0:0:0:
192,192,90040,1,0,0:0:0:0:
320,192,90190,1,0,0:0:0:0:
64,192,90340,1,8,0:0:0:0:
320,192,90490,1,0,0:0:0:0:
448,192,90640,1,0,0:0:0:0:
192,192,90790,1,0,0:0:0:0:
320,192,90940,1,8,0:0:0:0:
448,192,91090,1,0,0:0:0:0:
64,192,91240,1,0,0:0:0:0:
320,192,91390,1,0,0:0:0:0:
448,192,91540,1,8,0:0:0:0:
320,192,91690,1,0,0:0:0:0:
192,192,91840,1,0,0:0:0:0:
64,192,91990,1,0,0:0:0:0:
448,192,92140,128,8,92290:0:0:0:0:
192,192,92440,128,0,92590:0:0:0:0:
320,192,92590,1,0,0:0:0:0:
448,192,92740,1,8,0:0:0:0:
192,192,92890,128,0,93040:0:0:0:0:
320,192,93040,1,0,0:0:0:0:
448,192,93190,1,0,0:0:0:0:
192,192,93340,128,8,93490:0:0:0:0:
448,192,93640,1,0,0:0:0:0:
64,192,93790,1,0,0:0:0:0:
448,192,93940,1,8,0:0:0:0:
192,192,94090,1,0,0:0:0:0:
448,192,94240,1,0,0:0:0:0:
64,192,94390,1,0,0:0:0:0:
448,192,94540,1,8,0:0:0:0:
192,192,94690,1,0,0:0:0:0:
64,192,94840,1,0,0:0:0:0:
192,192,94990,1,0,0:0:0:0:
320,192,95140,1,8,0:0:0:0:
448,192,95290,1,0,0:0:0:0:
192,192,95440,128,0,96040:0:0:0:0:
64,192,96040,1,4,0:0:0:0:
448,192,96040,1,0,0:0:0:0:
320,192,96190,128,0,96415:0:0:0:0:
192,192,96415,128,0,96640:0:0:0:0:
320,192,96640,128,0,96940:0:0:0:0:
64,192,96940,1,8,0:0:0:0:
448,192,96940,1,0,0:0:0:0:
192,192,97240,1,0,0:0:0:0:
320,192,97390,128,0,97615:0:0:0:0:
192,192,97615,128,0,97840:0:0:0:0:
320,192,97840,128,0,98140:0:0:0:0:
64,192,98140,1,8,0:0:0:0:
448,192,98140,1,0,0:0:0:0:
192,192,98440,1,0,0:0:0:0:
448,192,98590,128,0,98815:0:0:0:0:
64,192,98815,128,0,99040:0:0:0:0:
448,192,99040,128,0,99340:0:0:0:0:
64,192,99340,1,8,0:0:0:0:
320,192,99340,1,0,0:0:0:0:
192,192,99640,1,0,0:0:0:0:
320,192,99790,1,0,0:0:0:0:
64,192,99940,1,8,0:0:0:0:
192,192,100090,1,0,0:0:0:0:
320,192,100240,1,0,0:0:0:0:
192,192,100390,1,0,0:0:0:0:
448,192,100540,1,8,0:0:0:0:
320,192,100690,1,0,0:0:0:0:
192,192,100840,1,0,0:0:0:0:
448,192,100990,1,0,0:0:0:0:
320,192,101140,1,8,0:0:0:0:
64,192,101290,1,0,0:0:0:0:
192,192,101440,128,0,101740:0:0:0:0:
320,192,101740,1,8,0:0:0:0:
448,192,101740,1,0,0:0:0:0:
320,192,102040,1,0,0:0:0:0:
192,192,102190,1,0,0:0:0:0:
64,192,102340,1,8,0:0:0:0:
320,192,102490,1,0,0:0:0:0:
192,192,102640,1,0,0:0:0:0:
64,192,102790,1,0,0:0:0:0:
320,192,102940,1,8,0:0:0:0:
320,192,103240,1,4,0:0:0:0:
448,192,103240,1,0,0:0:0:0:
64,192,103390,1,0,0:0:0:0:
192,192,103390,1,0,0:0:0:0:
64,192,104140,1,8,0:0:0:0:
320,192,104140,1,0,0:0:0:0:
448,192,104140,1,0,0:0:0:0:
64,192,104440,1,4,0:0:0:0:
192,192,104440,1,0,0:0:0:0:
320,192,104590,1,0,0:0:0:0:
448,192,104590,1,0,0:0:0:0:
64,192,105340,1,8,0:0:0:0:
192,192,105340,1,0,0:0:0:0:
320,192,105340,1,0,0:0:0:0:
192,192,105640,1,4,0:0:0:0:
448,192,105640,1,0,0:0:0:0:
320,192,105790,1,0,0:0:0:0:
64,192,106090,1,0,0:0:0:0:
448,192,106090,1,0,0:0:0:0:
192,192,106390,1,0,0:0:0:0:
64,192,106540,1,8,0:0:0:0:
320,192,106540,1,0,0:0:0:0:
64,192,106840,1,8,0:0:0:0:
192,192,106840,1,4,0:0:0:0:
320,192,106990,1,0,0:0:0:0:
448,192,106990,1,0,0:0:0:0:
64,192,107140,1,8,0:0:0:0:
192,192,107140,1,0,0:0:0:0:
320,192,107440,1,8,0:0:0:0:
448,192,107440,1,0,0:0:0:0:
64,192,107740,1,8,0:0:0:0:
192,192,107740,1,0,0:0:0:0:
64,192,108040,1,8,0:0:0:0:
448,192,108040,1,4,0:0:0:0:
320,192,108190,1,0,0:0:0:0:
320,192,108340,1,0,0:0:0:0:
64,192,108490,1,8,0:0:0:0:
192,192,108490,1,0,0:0:0:0:
448,192,108790,1,0,0:0:0:0:
320,192,108940,1,0,0:0:0:0:
192,192,109090,1,0,0:0:0:0:
64,192,109240,1,8,0:0:0:0:
448,192,109240,1,4,0:0:0:0:
192,192,109390,1,0,0:0:0:0:
192,192,109540,1,0,0:0:0:0:
320,192,109690,1,8,0:0:0:0:
448,192,109690,1,0,0:0:0:0:
320,192,109990,1,0,0:0:0:0:
192,192,110140,1,0,0:0:0:0:
320,192,110290,1,0,0:0:0:0:
64,192,110440,1,8,0:0:0:0:
448,192,110440,1,4,0:0:0:0:
192,192,110590,1,0,0:0:0:0:
320,192,110740,1,0,0:0:0:0:
192,192,110890,1,8,0:0:0:0:
320,192,111040,1,0,0:0:0:0:
192,192,111190,1,0,0:0:0:0:
320,192,111340,1,0,0:0:0:0:
192,192,111490,1,0,0:0:0:0:
320,192,111640,128,4,112840:0:0:0:0:
