osu file format v14

[General]
AudioFilename: audio.mp3
AudioLeadIn: 0
PreviewTime: 52655
Countdown: 0
SampleSet: Drum
StackLeniency: 0.7
Mode: 3
LetterboxInBreaks: 0
SpecialStyle: 0
WidescreenStoryboard: 0

[Editor]
DistanceSpacing: 1
BeatDivisor: 4
GridSize: 4
TimelineZoom: 2.599999

[Metadata]
Title:Nyarlathotep
TitleUnicode:Nyarlathotep
Artist:nato
ArtistUnicode:nato
Creator:Arzenvald
Version:EXtinction Lv.24
Source:Pump It Up XX
Tags:펌프 잇 업 나토 니알라토텝 PIU 2019 20th anniversary edition original dance arcade double X twenty ANDAMIRO DoNotMess MEGAtive ExUsagi
BeatmapID:1947312
BeatmapSetID:923367

[Difficulty]
HPDrainRate:8.5
CircleSize:4
OverallDifficulty:8.5
ApproachRate:5
SliderMultiplier:1.4
SliderTickRate:1

[Events]
//Background and Video events
0,0,"BG.png",0,0
//Break Periods
//Storyboard Layer 0 (Background)
//Storyboard Layer 1 (Fail)
//Storyboard Layer 2 (Pass)
//Storyboard Layer 3 (Foreground)
//Storyboard Layer 4 (Overlay)
//Storyboard Sound Samples

[TimingPoints]
4840,300,4,3,1,70,1,0
6040,-33.3333,4,3,1,70,0,0
6058,-37.4875,4,3,1,70,0,0
6077,-42.7182,4,3,1,70,0,0
6096,-49.3661,4,3,1,70,0,0
6115,-57.9041,4,3,1,70,0,0
6133,-68.9959,4,3,1,70,0,0
6152,-83.5776,4,3,1,70,0,0
6171,-102.972,4,3,1,70,0,0
6190,-129.032,4,3,1,70,0,0
6208,-164.3,4,3,1,70,0,0
6227,-212.092,4,3,1,70,0,0
6246,-276.349,4,3,1,70,0,0
6265,-361.021,4,3,1,70,0,0
6283,-469.08,4,3,1,70,0,0
6302,-602.699,4,3,1,70,0,0
6321,-768.905,4,3,1,70,0,0
6340,-1000,4,3,1,70,0,0
6658,-988.433,4,3,1,70,0,0
6677,-974.657,4,3,1,70,0,0
6696,-956.51,4,3,1,70,0,0
6715,-932.296,4,3,1,70,0,0
6733,-900.975,4,3,1,70,0,0
6752,-862.305,4,3,1,70,0,0
6771,-816.881,4,3,1,70,0,0
6790,-766.016,4,3,1,70,0,0
6808,-711.505,4,3,1,70,0,0
6827,-655.326,4,3,1,70,0,0
6846,-599.353,4,3,1,70,0,0
6865,-545.158,4,3,1,70,0,0
6883,-493.909,4,3,1,70,0,0
6902,-446.361,4,3,1,70,0,0
6921,-402.902,4,3,1,70,0,0
6940,-363.636,4,3,1,70,0,0
6958,-328.462,4,3,1,70,0,0
6977,-297.147,4,3,1,70,0,0
6996,-269.385,4,3,1,70,0,0
7015,-244.838,4,3,1,70,0,0
7033,-223.166,4,3,1,70,0,0
7052,-204.042,4,3,1,70,0,0
7071,-187.162,4,3,1,70,0,0
7090,-172.252,4,3,1,70,0,0
7108,-159.067,4,3,1,70,0,0
7127,-147.391,4,3,1,70,0,0
7146,-137.035,4,3,1,70,0,0
7165,-127.834,4,3,1,70,0,0
7183,-119.646,4,3,1,70,0,0
7202,-112.347,4,3,1,70,0,0
7221,-105.829,4,3,1,70,0,0
7240,-100,4,3,1,70,0,0
8440,-33.3333,4,3,1,70,0,0
8458,-37.4875,4,3,1,70,0,0
8477,-42.7182,4,3,1,70,0,0
8496,-49.3661,4,3,1,70,0,0
8515,-57.9041,4,3,1,70,0,0
8533,-68.9959,4,3,1,70,0,0
8552,-83.5776,4,3,1,70,0,0
8571,-102.972,4,3,1,70,0,0
8590,-129.032,4,3,1,70,0,0
8608,-164.3,4,3,1,70,0,0
8627,-212.092,4,3,1,70,0,0
8646,-276.349,4,3,1,70,0,0
8665,-361.021,4,3,1,70,0,0
8683,-469.08,4,3,1,70,0,0
8702,-602.699,4,3,1,70,0,0
8721,-768.905,4,3,1,70,0,0
8740,-1000,4,3,1,70,0,0
9058,-988.433,4,3,1,70,0,0
9077,-974.657,4,3,1,70,0,0
9096,-956.51,4,3,1,70,0,0
9115,-932.296,4,3,1,70,0,0
9133,-900.975,4,3,1,70,0,0
9152,-862.305,4,3,1,70,0,0
9171,-816.881,4,3,1,70,0,0
9190,-766.016,4,3,1,70,0,0
9208,-711.505,4,3,1,70,0,0
9227,-655.326,4,3,1,70,0,0
9246,-599.353,4,3,1,70,0,0
9265,-545.158,4,3,1,70,0,0
9283,-493.909,4,3,1,70,0,0
9302,-446.361,4,3,1,70,0,0
9321,-402.902,4,3,1,70,0,0
9340,-363.636,4,3,1,70,0,0
9358,-328.462,4,3,1,70,0,0
9377,-297.147,4,3,1,70,0,0
9396,-269.385,4,3,1,70,0,0
9415,-244.838,4,3,1,70,0,0
9433,-223.166,4,3,1,70,0,0
9452,-204.042,4,3,1,70,0,0
9471,-187.162,4,3,1,70,0,0
9490,-172.252,4,3,1,70,0,0
9508,-159.067,4,3,1,70,0,0
9527,-147.391,4,3,1,70,0,0
9546,-137.035,4,3,1,70,0,0
9565,-127.834,4,3,1,70,0,0
9583,-119.646,4,3,1,70,0,0
9602,-112.347,4,3,1,70,0,0
9621,-105.829,4,3,1,70,0,0
9640,-100,4,3,1,70,0,0
10840,-33.3333,4,3,1,70,0,0
10858,-37.4875,4,3,1,70,0,0
10877,-42.7182,4,3,1,70,0,0
10896,-49.3661,4,3,1,70,0,0
10915,-57.9041,4,3,1,70,0,0
10933,-68.9959,4,3,1,70,0,0
10952,-83.5776,4,3,1,70,0,0
10971,-102.972,4,3,1,70,0,0
10990,-129.032,4,3,1,70,0,0
11008,-164.3,4,3,1,70,0,0
11027,-212.092,4,3,1,70,0,0
11046,-276.349,4,3,1,70,0,0
11065,-361.021,4,3,1,70,0,0
11083,-469.08,4,3,1,70,0,0
11102,-602.699,4,3,1,70,0,0
11121,-768.905,4,3,1,70,0,0
11140,-1000,4,3,1,70,0,0
11458,-988.433,4,3,1,70,0,0
11477,-974.657,4,3,1,70,0,0
11496,-956.51,4,3,1,70,0,0
11515,-932.296,4,3,1,70,0,0
11533,-900.975,4,3,1,70,0,0
11552,-862.305,4,3,1,70,0,0
11571,-816.881,4,3,1,70,0,0
11590,-766.016,4,3,1,70,0,0
11608,-711.505,4,3,1,70,0,0
11627,-655.326,4,3,1,70,0,0
11646,-599.353,4,3,1,70,0,0
11665,-545.158,4,3,1,70,0,0
11683,-493.909,4,3,1,70,0,0
11702,-446.361,4,3,1,70,0,0
11721,-402.902,4,3,1,70,0,0
11740,-363.636,4,3,1,70,0,0
11758,-328.462,4,3,1,70,0,0
11777,-297.147,4,3,1,70,0,0
11796,-269.385,4,3,1,70,0,0
11815,-244.838,4,3,1,70,0,0
11833,-223.166,4,3,1,70,0,0
11852,-204.042,4,3,1,70,0,0
11871,-187.162,4,3,1,70,0,0
11890,-172.252,4,3,1,70,0,0
11908,-159.067,4,3,1,70,0,0
11927,-147.391,4,3,1,70,0,0
11946,-137.035,4,3,1,70,0,0
11965,-127.834,4,3,1,70,0,0
11983,-119.646,4,3,1,70,0,0
12002,-112.347,4,3,1,70,0,0
12021,-105.829,4,3,1,70,0,0
12040,-100,4,3,1,70,0,0
13240,-33.3333,4,3,1,70,0,0
13258,-35.2931,4,3,1,70,0,0
13277,-37.4875,4,3,1,70,0,0
13296,-39.9496,4,3,1,70,0,0
13315,-42.7182,4,3,1,70,0,0
13333,-45.8391,4,3,1,70,0,0
13352,-49.3661,4,3,1,70,0,0
13371,-53.3626,4,3,1,70,0,0
13390,-57.9041,4,3,1,70,0,0
13408,-63.0799,4,3,1,70,0,0
13427,-68.9959,4,3,1,70,0,0
13446,-75.7785,4,3,1,70,0,0
13465,-83.5776,4,3,1,70,0,0
13483,-92.5715,4,3,1,70,0,0
13502,-102.972,4,3,1,70,0,0
13521,-115.028,4,3,1,70,0,0
13540,-129.032,4,3,1,70,0,0
13558,-145.326,4,3,1,70,0,0
13577,-164.3,4,3,1,70,0,0
13596,-186.395,4,3,1,70,0,0
13615,-212.092,4,3,1,70,0,0
13633,-241.905,4,3,1,70,0,0
13652,-276.349,4,3,1,70,0,0
13671,-315.914,4,3,1,70,0,0
13690,-361.021,4,3,1,70,0,0
13708,-411.997,4,3,1,70,0,0
13727,-469.08,4,3,1,70,0,0
13746,-532.503,4,3,1,70,0,0
13765,-602.699,4,3,1,70,0,0
13783,-680.715,4,3,1,70,0,0
13802,-768.905,4,3,1,70,0,0
13821,-872.131,4,3,1,70,0,0
13840,-1000,4,3,1,70,0,0
14290,-125,4,3,1,70,0,0
14327,-83.3333333333333,4,3,1,70,0,0
14365,-62.5,4,3,1,70,0,0
14440,-100,4,2,1,70,0,0
32440,-66.6666666666667,4,2,1,70,0,0
32590,-200,4,2,1,70,0,0
32740,-25,4,2,1,70,0,0
32758,-28.1193,4,2,1,70,0,0
32777,-32.0487,4,2,1,70,0,0
32796,-37.0468,4,2,1,70,0,0
32815,-43.4742,4,2,1,70,0,0
32833,-51.8405,4,2,1,70,0,0
32852,-62.8724,4,2,1,70,0,0
32871,-77.6129,4,2,1,70,0,0
32890,-97.561,4,2,1,70,0,0
32908,-124.853,4,2,1,70,0,0
32927,-162.463,4,2,1,70,0,0
32946,-214.365,4,2,1,70,0,0
32965,-285.538,4,2,1,70,0,0
32983,-381.985,4,2,1,70,0,0
33002,-512.165,4,2,1,70,0,0
33021,-695.495,4,2,1,70,0,0
33040,-1000,4,2,1,70,0,0
33077,-974.657,4,2,1,70,0,0
33115,-932.296,4,2,1,70,0,0
33152,-862.305,4,2,1,70,0,0
33190,-766.016,4,2,1,70,0,0
33227,-655.326,4,2,1,70,0,0
33265,-545.158,4,2,1,70,0,0
33302,-446.361,4,2,1,70,0,0
33340,-363.636,4,2,1,70,0,0
33377,-297.147,4,2,1,70,0,0
33415,-244.838,4,2,1,70,0,0
33452,-204.042,4,2,1,70,0,0
33490,-172.252,4,2,1,70,0,0
33527,-147.391,4,2,1,70,0,0
33565,-127.834,4,2,1,70,0,0
33602,-112.347,4,2,1,70,0,0
33640,-100,4,1,1,70,0,0
40840,-100,4,2,1,70,0,0
43240,-100,4,1,1,70,0,0
50440,-100,4,2,1,70,0,0
52840,-40,4,3,1,70,0,0
52915,-1000,4,3,1,70,0,0
52933,-905.104,4,3,1,70,0,0
52952,-775.449,4,3,1,70,0,0
52971,-614.4,4,3,1,70,0,0
52989,-458.732,4,3,1,70,0,0
53008,-334.429,4,3,1,70,0,0
53027,-245.033,4,3,1,70,0,0
53046,-183.397,4,3,1,70,0,0
53064,-141.2,4,3,1,70,0,0
53083,-112.033,4,3,1,70,0,0
53102,-91.5497,4,3,1,70,0,0
53121,-76.9231,4,3,1,70,0,0
53140,-100,4,3,1,70,0,0
53740,-40,4,3,1,70,0,0
53815,-1000,4,3,1,70,0,0
53833,-905.104,4,3,1,70,0,0
53852,-775.449,4,3,1,70,0,0
53871,-614.4,4,3,1,70,0,0
53889,-458.732,4,3,1,70,0,0
53908,-334.429,4,3,1,70,0,0
53927,-245.033,4,3,1,70,0,0
53946,-183.397,4,3,1,70,0,0
53964,-141.2,4,3,1,70,0,0
53983,-112.033,4,3,1,70,0,0
54002,-91.5497,4,3,1,70,0,0
54021,-76.9231,4,3,1,70,0,0
54040,-100,4,3,1,70,0,0
54340,-166.666666666667,4,3,1,70,0,0
55240,-100,4,3,1,70,0,0
55390,-40,4,3,1,70,0,0
55465,-1000,4,3,1,70,0,0
55483,-905.104,4,3,1,70,0,0
55502,-775.449,4,3,1,70,0,0
55521,-614.4,4,3,1,70,0,0
55539,-458.732,4,3,1,70,0,0
55558,-334.429,4,3,1,70,0,0
55577,-245.033,4,3,1,70,0,0
55596,-183.397,4,3,1,70,0,0
55614,-141.2,4,3,1,70,0,0
55633,-112.033,4,3,1,70,0,0
55652,-91.5497,4,3,1,70,0,0
55671,-76.9231,4,3,1,70,0,0
55690,-100,4,3,1,70,0,0
55915,-58.1396,4,3,1,70,0,0
55990,-357.143,4,3,1,70,0,0
56065,-100,4,3,1,70,0,0
56215,-35.2112,4,3,1,70,0,0
56290,-357.143,4,3,1,70,0,0
56440,-166.667,4,3,1,70,0,0
56515,-100,4,3,1,70,0,0
56890,-40,4,3,1,70,0,0
56965,-1000,4,3,1,70,0,0
56983,-905.104,4,3,1,70,0,0
57002,-775.449,4,3,1,70,0,0
57021,-614.4,4,3,1,70,0,0
57039,-458.732,4,3,1,70,0,0
57058,-334.429,4,3,1,70,0,0
57077,-245.033,4,3,1,70,0,0
57096,-183.397,4,3,1,70,0,0
57114,-141.2,4,3,1,70,0,0
57133,-112.033,4,3,1,70,0,0
57152,-91.5497,4,3,1,70,0,0
57171,-76.9231,4,3,1,70,0,0
57190,-100,4,3,1,70,0,0
57340,-35.2112,4,3,1,70,0,0
57415,-357.143,4,3,1,70,0,0
57565,-166.667,4,3,1,70,0,0
57640,-58.1396,4,3,1,70,0,0
57715,-357.143,4,3,1,70,0,0
57790,-35.2112,4,3,1,70,0,0
57865,-357.143,4,3,1,70,0,0
58015,-166.667,4,3,1,70,0,0
58090,-28.0899,4,3,1,70,0,0
58165,-357.143,4,3,1,70,0,0
58390,-166.667,4,3,1,70,0,0
58465,-100,4,3,1,70,0,0
58690,-35.2112,4,3,1,70,0,0
58765,-357.143,4,3,1,70,0,0
58915,-166.667,4,3,1,70,0,0
58990,-100,4,3,1,70,0,0
59440,-47.1698,4,3,1,70,0,0
59515,-357.143,4,3,1,70,0,0
59590,-166.667,4,3,1,70,0,0
59665,-100,4,3,1,70,0,0
59740,-35.2112,4,3,1,70,0,0
59815,-357.143,4,3,1,70,0,0
59890,-166.667,4,3,1,70,0,0
59965,-100,4,3,1,70,0,0
60040,-100,4,3,1,70,0,0
61540,-100,4,2,1,70,0,0
62440,-100,4,3,1,70,0,0
70840,-30.3030303030303,4,3,1,70,0,0
70915,-1000,4,3,1,70,0,0
71065,-200,4,3,1,70,0,0
71140,-100,4,3,1,70,0,0
81640,-33.3333,4,3,1,70,0,0
81658,-37.4297,4,3,1,70,0,0
81677,-42.5583,4,3,1,70,0,0
81696,-49.0132,4,3,1,70,0,0
81715,-57.1769,4,3,1,70,0,0
81733,-67.5333,4,3,1,70,0,0
81752,-80.6645,4,3,1,70,0,0
81771,-97.1976,4,3,1,70,0,0
81790,-117.647,4,3,1,70,0,0
81808,-142.079,4,3,1,70,0,0
81827,-169.577,4,3,1,70,0,0
81846,-197.726,4,3,1,70,0,0
81865,-222.737,4,3,1,70,0,0
81883,-240.81,4,3,1,70,0,0
81902,-250.176,4,3,1,70,0,0
81921,-252.097,4,3,1,70,0,0
81940,-250,4,3,1,70,0,0
82240,-125,4,3,1,70,0,0
82315,-62.5,4,3,1,70,0,0
82390,-500,4,3,1,70,0,0
84640,-100,4,2,1,70,0,0
85240,-100,4,2,0,70,0,0
85540,-100,4,2,1,70,0,0
86140,-100,4,1,1,70,0,0
87940,-100,4,1,1,70,0,0
95440,-100,4,3,1,70,0,0
96040,-100,4,1,1,70,0,0

[HitObjects]
64,192,6040,5,0,0:0:0:0:
448,192,6040,128,0,7240:0:0:0:0:
64,192,8440,1,0,0:0:0:0:
448,192,8440,128,0,9640:0:0:0:0:
64,192,10840,1,0,0:0:0:0:
448,192,10840,128,0,12040:0:0:0:0:
64,192,13240,1,0,0:0:0:0:
448,192,13240,1,0,0:0:0:0:
64,192,14440,128,4,14890:0:0:0:0:
192,192,14440,128,0,14590:0:0:0:0:
448,192,14440,128,0,14590:0:0:0:0:
192,192,14740,128,8,14890:0:0:0:0:
448,192,14740,128,0,14890:0:0:0:0:
320,192,14890,128,0,14965:0:0:0:0:
192,192,14965,128,0,15040:0:0:0:0:
64,192,15040,128,0,15115:0:0:0:0:
448,192,15040,128,0,15115:0:0:0:0:
320,192,15115,128,0,15190:0:0:0:0:
192,192,15190,128,0,15265:0:0:0:0:
320,192,15265,128,0,15340:0:0:0:0:
192,192,15340,128,8,15415:0:0:0:0:
448,192,15340,128,0,15415:0:0:0:0:
320,192,15415,128,0,15490:0:0:0:0:
192,192,15490,128,0,15565:0:0:0:0:
64,192,15565,128,0,15640:0:0:0:0:
320,192,15565,128,0,15640:0:0:0:0:
192,192,15640,128,0,15940:0:0:0:0:
448,192,15640,128,0,15940:0:0:0:0:
64,192,15940,1,8,0:0:0:0:
320,192,15940,1,0,0:0:0:0:
320,192,16090,1,0,0:0:0:0:
448,192,16090,1,0,0:0:0:0:
192,192,16165,1,0,0:0:0:0:
320,192,16240,1,0,0:0:0:0:
448,192,16240,1,0,0:0:0:0:
64,192,16315,1,0,0:0:0:0:
192,192,16390,1,0,0:0:0:0:
320,192,16390,1,0,0:0:0:0:
64,192,16465,1,0,0:0:0:0:
320,192,16540,1,8,0:0:0:0:
448,192,16540,1,0,0:0:0:0:
64,192,16690,1,0,0:0:0:0:
192,192,16690,1,0,0:0:0:0:
320,192,16765,1,0,0:0:0:0:
64,192,16840,1,0,0:0:0:0:
192,192,16840,1,0,0:0:0:0:
320,192,16990,1,0,0:0:0:0:
192,192,17065,1,0,0:0:0:0:
320,192,17140,1,8,0:0:0:0:
448,192,17140,1,0,0:0:0:0:
192,192,17290,1,0,0:0:0:0:
320,192,17290,1,0,0:0:0:0:
64,192,17365,1,0,0:0:0:0:
320,192,17440,1,0,0:0:0:0:
192,192,17515,1,0,0:0:0:0:
320,192,17590,1,0,0:0:0:0:
448,192,17590,1,0,0:0:0:0:
64,192,17665,1,0,0:0:0:0:
192,192,17740,1,8,0:0:0:0:
448,192,17740,1,0,0:0:0:0:
320,192,17890,1,0,0:0:0:0:
192,192,17965,1,0,0:0:0:0:
64,192,18040,1,0,0:0:0:0:
448,192,18040,1,0,0:0:0:0:
192,192,18190,1,0,0:0:0:0:
320,192,18265,1,0,0:0:0:0:
64,192,18340,1,8,0:0:0:0:
448,192,18340,1,0,0:0:0:0:
64,192,18490,1,0,0:0:0:0:
192,192,18490,1,0,0:0:0:0:
320,192,18565,1,0,0:0:0:0:
192,192,18640,1,0,0:0:0:0:
64,192,18790,1,0,0:0:0:0:
192,192,18790,1,0,0:0:0:0:
320,192,18940,1,8,0:0:0:0:
448,192,18940,128,0,19240:0:0:0:0:
320,192,19090,1,0,0:0:0:0:
64,192,19240,128,0,19540:0:0:0:0:
192,192,19240,128,0,19390:0:0:0:0:
320,192,19240,128,0,19390:0:0:0:0:
448,192,19540,128,8,19840:0:0:0:0:
320,192,19690,128,0,19840:0:0:0:0:
64,192,19765,128,0,19840:0:0:0:0:
192,192,19840,128,0,19990:0:0:0:0:
448,192,19915,128,0,19990:0:0:0:0:
320,192,19990,128,0,20140:0:0:0:0:
64,192,20065,128,0,20140:0:0:0:0:
192,192,20140,128,8,20290:0:0:0:0:
448,192,20215,128,0,20290:0:0:0:0:
320,192,20290,128,0,20440:0:0:0:0:
64,192,20365,128,0,20440:0:0:0:0:
192,192,20440,128,0,20740:0:0:0:0:
448,192,20440,128,0,20740:0:0:0:0:
64,192,20740,1,8,0:0:0:0:
320,192,20740,1,0,0:0:0:0:
64,192,20890,1,0,0:0:0:0:
448,192,20890,1,0,0:0:0:0:
192,192,20965,1,0,0:0:0:0:
320,192,21040,1,0,0:0:0:0:
448,192,21040,1,0,0:0:0:0:
192,192,21115,1,0,0:0:0:0:
64,192,21190,1,0,0:0:0:0:
320,192,21190,1,0,0:0:0:0:
192,192,21265,1,0,0:0:0:0:
320,192,21340,1,8,0:0:0:0:
448,192,21340,1,0,0:0:0:0:
64,192,21490,1,0,0:0:0:0:
448,192,21490,1,0,0:0:0:0:
320,192,21565,1,0,0:0:0:0:
64,192,21640,1,0,0:0:0:0:
192,192,21640,1,0,0:0:0:0:
192,192,21790,1,0,0:0:0:0:
320,192,21865,1,0,0:0:0:0:
64,192,21940,1,8,0:0:0:0:
448,192,21940,1,0,0:0:0:0:
192,192,22090,1,0,0:0:0:0:
320,192,22090,1,0,0:0:0:0:
64,192,22165,1,0,0:0:0:0:
320,192,22240,1,0,0:0:0:0:
192,192,22315,1,0,0:0:0:0:
320,192,22390,1,0,0:0:0:0:
448,192,22390,1,0,0:0:0:0:
64,192,22465,1,0,0:0:0:0:
192,192,22540,1,8,0:0:0:0:
448,192,22540,1,0,0:0:0:0:
320,192,22690,1,0,0:0:0:0:
448,192,22765,1,0,0:0:0:0:
64,192,22840,128,0,23440:0:0:0:0:
192,192,22840,1,0,0:0:0:0:
192,192,23140,128,0,23440:0:0:0:0:
320,192,23440,1,0,0:0:0:0:
448,192,23440,1,0,0:0:0:0:
192,192,23515,1,0,0:0:0:0:
320,192,23590,1,0,0:0:0:0:
448,192,23590,1,0,0:0:0:0:
192,192,23627,1,0,0:0:0:0:
64,192,23665,1,0,0:0:0:0:
448,192,23702,1,0,0:0:0:0:
320,192,23740,1,0,0:0:0:0:
64,192,23815,1,0,0:0:0:0:
192,192,23815,1,0,0:0:0:0:
320,192,23890,1,0,0:0:0:0:
448,192,23890,1,0,0:0:0:0:
64,192,23965,1,0,0:0:0:0:
192,192,23965,1,0,0:0:0:0:
320,192,24040,128,4,24190:0:0:0:0:
448,192,24040,128,0,24490:0:0:0:0:
64,192,24190,128,0,24490:0:0:0:0:
192,192,24190,128,0,24490:0:0:0:0:
320,192,24490,128,0,24640:0:0:0:0:
64,192,24640,128,0,24715:0:0:0:0:
448,192,24640,128,0,24715:0:0:0:0:
320,192,24715,128,0,24790:0:0:0:0:
192,192,24790,128,0,24865:0:0:0:0:
64,192,24865,128,0,24940:0:0:0:0:
192,192,24940,128,8,25015:0:0:0:0:
320,192,25015,128,0,25090:0:0:0:0:
448,192,25090,128,0,25165:0:0:0:0:
320,192,25165,128,0,25240:0:0:0:0:
64,192,25240,128,0,25540:0:0:0:0:
192,192,25240,1,0,0:0:0:0:
448,192,25390,1,0,0:0:0:0:
320,192,25540,1,8,0:0:0:0:
448,192,25540,1,0,0:0:0:0:
64,192,25690,1,0,0:0:0:0:
192,192,25690,1,0,0:0:0:0:
320,192,25765,1,0,0:0:0:0:
192,192,25840,1,0,0:0:0:0:
448,192,25840,1,0,0:0:0:0:
64,192,25915,1,0,0:0:0:0:
320,192,25990,1,0,0:0:0:0:
448,192,25990,1,0,0:0:0:0:
192,192,26065,1,0,0:0:0:0:
320,192,26140,1,8,0:0:0:0:
448,192,26140,1,0,0:0:0:0:
64,192,26290,1,0,0:0:0:0:
192,192,26290,1,0,0:0:0:0:
320,192,26365,1,0,0:0:0:0:
64,192,26440,1,0,0:0:0:0:
192,192,26440,1,0,0:0:0:0:
64,192,26590,1,0,0:0:0:0:
192,192,26665,1,0,0:0:0:0:
320,192,26740,1,8,0:0:0:0:
448,192,26740,1,0,0:0:0:0:
64,192,26890,1,0,0:0:0:0:
192,192,26890,1,0,0:0:0:0:
320,192,26965,1,0,0:0:0:0:
192,192,27040,1,0,0:0:0:0:
448,192,27040,1,0,0:0:0:0:
64,192,27115,1,0,0:0:0:0:
320,192,27190,1,0,0:0:0:0:
448,192,27190,1,0,0:0:0:0:
192,192,27265,1,0,0:0:0:0:
320,192,27340,1,8,0:0:0:0:
448,192,27340,1,0,0:0:0:0:
192,192,27490,1,0,0:0:0:0:
320,192,27565,1,0,0:0:0:0:
64,192,27640,1,0,0:0:0:0:
192,192,27640,1,0,0:0:0:0:
320,192,27790,1,0,0:0:0:0:
192,192,27865,1,0,0:0:0:0:
64,192,27940,1,8,0:0:0:0:
448,192,27940,1,0,0:0:0:0:
64,192,28090,1,0,0:0:0:0:
320,192,28090,1,0,0:0:0:0:
192,192,28165,1,0,0:0:0:0:
320,192,28240,1,0,0:0:0:0:
448,192,28240,1,0,0:0:0:0:
64,192,28315,1,0,0:0:0:0:
320,192,28390,1,0,0:0:0:0:
192,192,28440,1,0,0:0:0:0:
320,192,28490,1,0,0:0:0:0:
64,192,28540,1,8,0:0:0:0:
448,192,28540,128,0,28840:0:0:0:0:
64,192,28690,1,0,0:0:0:0:
192,192,28690,1,0,0:0:0:0:
320,192,28765,1,0,0:0:0:0:
64,192,28840,1,0,0:0:0:0:
192,192,28840,128,0,28915:0:0:0:0:
192,192,28990,128,0,29290:0:0:0:0:
320,192,28990,128,0,29065:0:0:0:0:
320,192,29140,128,8,29365:0:0:0:0:
448,192,29140,128,0,29440:0:0:0:0:
64,192,29290,128,0,29365:0:0:0:0:
192,192,29365,128,0,29440:0:0:0:0:
320,192,29440,128,0,29515:0:0:0:0:
448,192,29515,128,0,29590:0:0:0:0:
192,192,29590,128,0,29665:0:0:0:0:
64,192,29665,128,0,29965:0:0:0:0:
320,192,29665,128,0,29740:0:0:0:0:
448,192,29740,128,8,29815:0:0:0:0:
192,192,29815,128,0,29890:0:0:0:0:
320,192,29890,128,0,29965:0:0:0:0:
192,192,29965,128,0,30040:0:0:0:0:
64,192,30040,128,8,30340:0:0:0:0:
320,192,30040,1,0,0:0:0:0:
448,192,30040,1,0,0:0:0:0:
320,192,30190,1,0,0:0:0:0:
320,192,30340,1,8,0:0:0:0:
448,192,30340,1,0,0:0:0:0:
320,192,30490,1,0,0:0:0:0:
320,192,30640,1,8,0:0:0:0:
448,192,30640,1,0,0:0:0:0:
320,192,30790,1,0,0:0:0:0:
320,192,30940,1,8,0:0:0:0:
448,192,30940,1,0,0:0:0:0:
192,192,31015,1,0,0:0:0:0:
64,192,31090,1,0,0:0:0:0:
448,192,31090,1,0,0:0:0:0:
64,192,31240,1,0,0:0:0:0:
192,192,31240,1,0,0:0:0:0:
448,192,31315,1,0,0:0:0:0:
320,192,31390,1,0,0:0:0:0:
192,192,31465,1,0,0:0:0:0:
64,192,31540,1,8,0:0:0:0:
448,192,31540,1,0,0:0:0:0:
320,192,31615,1,0,0:0:0:0:
64,192,31690,1,0,0:0:0:0:
192,192,31690,1,0,0:0:0:0:
320,192,31765,1,0,0:0:0:0:
192,192,31840,1,0,0:0:0:0:
448,192,31840,1,0,0:0:0:0:
64,192,31915,1,0,0:0:0:0:
320,192,31990,1,0,0:0:0:0:
448,192,31990,1,0,0:0:0:0:
192,192,32065,1,0,0:0:0:0:
320,192,32140,1,8,0:0:0:0:
448,192,32140,1,0,0:0:0:0:
192,192,32215,1,0,0:0:0:0:
64,192,32290,1,0,0:0:0:0:
320,192,32365,1,0,0:0:0:0:
64,192,32440,1,0,0:0:0:0:
192,192,32440,1,0,0:0:0:0:
448,192,32440,128,0,32740:0:0:0:0:
64,192,32740,128,0,33640:0:0:0:0:
192,192,32740,128,0,33640:0:0:0:0:
320,192,32740,1,0,0:0:0:0:
320,192,33640,1,4,0:0:0:0:
448,192,33640,1,0,0:0:0:0:
64,192,33715,1,0,0:0:0:0:
192,192,33715,1,0,0:0:0:0:
320,192,33790,1,0,0:0:0:0:
192,192,33865,1,0,0:0:0:0:
64,192,33940,1,8,0:0:0:0:
448,192,33940,1,0,0:0:0:0:
320,192,34015,1,0,0:0:0:0:
192,192,34090,1,0,0:0:0:0:
64,192,34165,1,0,0:0:0:0:
192,192,34240,1,0,0:0:0:0:
320,192,34240,1,0,0:0:0:0:
64,192,34315,1,0,0:0:0:0:
448,192,34315,1,0,0:0:0:0:
320,192,34390,1,0,0:0:0:0:
192,192,34465,1,0,0:0:0:0:
320,192,34540,1,8,0:0:0:0:
448,192,34540,1,0,0:0:0:0:
64,192,34615,1,0,0:0:0:0:
192,192,34690,1,0,0:0:0:0:
64,192,34765,1,0,0:0:0:0:
320,192,34840,1,0,0:0:0:0:
448,192,34840,1,0,0:0:0:0:
64,192,34915,1,0,0:0:0:0:
192,192,34915,1,0,0:0:0:0:
320,192,34990,1,0,0:0:0:0:
192,192,35065,1,0,0:0:0:0:
64,192,35140,1,8,0:0:0:0:
448,192,35140,1,0,0:0:0:0:
320,192,35215,1,0,0:0:0:0:
192,192,35290,1,0,0:0:0:0:
64,192,35365,1,0,0:0:0:0:
192,192,35440,128,0,35665:0:0:0:0:
320,192,35440,1,0,0:0:0:0:
64,192,35665,1,0,0:0:0:0:
320,192,35665,128,0,35890:0:0:0:0:
192,192,35890,1,0,0:0:0:0:
448,192,35890,128,0,36040:0:0:0:0:
64,192,36040,1,0,0:0:0:0:
320,192,36040,1,0,0:0:0:0:
192,192,36115,1,0,0:0:0:0:
448,192,36115,1,0,0:0:0:0:
320,192,36190,1,0,0:0:0:0:
192,192,36265,1,0,0:0:0:0:
320,192,36340,1,8,0:0:0:0:
448,192,36340,1,0,0:0:0:0:
192,192,36415,1,0,0:0:0:0:
64,192,36490,1,0,0:0:0:0:
448,192,36565,1,0,0:0:0:0:
64,192,36640,1,0,0:0:0:0:
320,192,36640,1,0,0:0:0:0:
192,192,36715,1,0,0:0:0:0:
448,192,36715,1,0,0:0:0:0:
320,192,36790,1,0,0:0:0:0:
64,192,36865,1,0,0:0:0:0:
320,192,36940,1,8,0:0:0:0:
448,192,36940,1,0,0:0:0:0:
192,192,37015,1,0,0:0:0:0:
64,192,37090,1,0,0:0:0:0:
192,192,37165,1,0,0:0:0:0:
64,192,37240,1,0,0:0:0:0:
320,192,37240,1,0,0:0:0:0:
192,192,37315,1,0,0:0:0:0:
448,192,37315,1,0,0:0:0:0:
320,192,37390,1,0,0:0:0:0:
192,192,37465,1,0,0:0:0:0:
64,192,37540,1,8,0:0:0:0:
448,192,37540,1,0,0:0:0:0:
320,192,37615,1,0,0:0:0:0:
192,192,37690,1,0,0:0:0:0:
64,192,37765,1,0,0:0:0:0:
320,192,37840,1,0,0:0:0:0:
448,192,37840,128,0,37990:0:0:0:0:
192,192,37990,1,0,0:0:0:0:
320,192,37990,128,0,38140:0:0:0:0:
64,192,38140,128,8,38290:0:0:0:0:
192,192,38140,1,0,0:0:0:0:
192,192,38290,128,0,38440:0:0:0:0:
320,192,38290,1,0,0:0:0:0:
64,192,38440,1,0,0:0:0:0:
448,192,38440,1,0,0:0:0:0:
192,192,38515,1,0,0:0:0:0:
320,192,38515,1,0,0:0:0:0:
64,192,38590,1,0,0:0:0:0:
192,192,38665,1,0,0:0:0:0:
320,192,38740,1,8,0:0:0:0:
448,192,38740,1,0,0:0:0:0:
192,192,38815,1,0,0:0:0:0:
64,192,38890,1,0,0:0:0:0:
448,192,38890,1,0,0:0:0:0:
320,192,38965,1,0,0:0:0:0:
64,192,39040,1,0,0:0:0:0:
448,192,39040,1,0,0:0:0:0:
192,192,39115,1,0,0:0:0:0:
320,192,39115,1,0,0:0:0:0:
64,192,39190,1,0,0:0:0:0:
192,192,39265,1,0,0:0:0:0:
320,192,39340,1,8,0:0:0:0:
448,192,39340,1,0,0:0:0:0:
192,192,39415,1,0,0:0:0:0:
64,192,39490,1,0,0:0:0:0:
448,192,39490,1,0,0:0:0:0:
320,192,39565,1,0,0:0:0:0:
64,192,39640,1,0,0:0:0:0:
448,192,39640,1,0,0:0:0:0:
192,192,39715,1,0,0:0:0:0:
320,192,39715,1,0,0:0:0:0:
64,192,39790,1,0,0:0:0:0:
192,192,39865,1,0,0:0:0:0:
320,192,39940,1,8,0:0:0:0:
448,192,39940,1,0,0:0:0:0:
192,192,40015,1,0,0:0:0:0:
64,192,40090,1,0,0:0:0:0:
448,192,40090,1,0,0:0:0:0:
320,192,40165,1,0,0:0:0:0:
64,192,40240,128,0,40465:0:0:0:0:
448,192,40240,1,0,0:0:0:0:
192,192,40465,128,0,40690:0:0:0:0:
448,192,40465,1,0,0:0:0:0:
320,192,40690,128,0,40840:0:0:0:0:
448,192,40690,1,0,0:0:0:0:
64,192,40840,128,0,40990:0:0:0:0:
192,192,40840,1,0,0:0:0:0:
320,192,40990,1,0,0:0:0:0:
192,192,41065,1,0,0:0:0:0:
64,192,41140,1,0,0:0:0:0:
320,192,41140,1,0,0:0:0:0:
448,192,41140,128,0,41290:0:0:0:0:
192,192,41290,1,0,0:0:0:0:
320,192,41365,1,0,0:0:0:0:
64,192,41440,128,0,41590:0:0:0:0:
192,192,41440,1,0,0:0:0:0:
320,192,41590,1,0,0:0:0:0:
192,192,41665,1,0,0:0:0:0:
64,192,41740,1,0,0:0:0:0:
320,192,41740,1,0,0:0:0:0:
448,192,41740,128,0,41890:0:0:0:0:
192,192,41890,1,0,0:0:0:0:
320,192,41965,1,0,0:0:0:0:
192,192,42040,1,0,0:0:0:0:
448,192,42040,1,0,0:0:0:0:
64,192,42190,1,0,0:0:0:0:
192,192,42190,1,0,0:0:0:0:
448,192,42190,1,0,0:0:0:0:
64,192,42490,1,0,0:0:0:0:
320,192,42490,1,0,0:0:0:0:
448,192,42490,128,0,42790:0:0:0:0:
64,192,42790,1,0,0:0:0:0:
192,192,42790,128,0,43240:0:0:0:0:
320,192,42790,1,0,0:0:0:0:
64,192,43240,1,4,0:0:0:0:
448,192,43240,1,0,0:0:0:0:
192,192,43315,1,0,0:0:0:0:
320,192,43315,1,0,0:0:0:0:
448,192,43390,1,0,0:0:0:0:
320,192,43465,1,0,0:0:0:0:
64,192,43540,1,8,0:0:0:0:
192,192,43540,1,0,0:0:0:0:
448,192,43615,1,0,0:0:0:0:
64,192,43690,1,0,0:0:0:0:
320,192,43690,1,0,0:0:0:0:
192,192,43765,1,0,0:0:0:0:
320,192,43840,1,0,0:0:0:0:
448,192,43840,1,0,0:0:0:0:
64,192,43915,1,0,0:0:0:0:
192,192,43915,1,0,0:0:0:0:
448,192,43990,1,0,0:0:0:0:
320,192,44065,1,0,0:0:0:0:
64,192,44140,1,8,0:0:0:0:
192,192,44140,1,0,0:0:0:0:
448,192,44215,1,0,0:0:0:0:
64,192,44290,1,0,0:0:0:0:
320,192,44290,1,0,0:0:0:0:
192,192,44365,1,0,0:0:0:0:
64,192,44440,1,0,0:0:0:0:
448,192,44440,1,0,0:0:0:0:
192,192,44515,1,0,0:0:0:0:
320,192,44515,1,0,0:0:0:0:
448,192,44590,1,0,0:0:0:0:
320,192,44665,1,0,0:0:0:0:
64,192,44740,1,8,0:0:0:0:
192,192,44740,1,0,0:0:0:0:
448,192,44815,1,0,0:0:0:0:
64,192,44890,1,0,0:0:0:0:
320,192,44890,1,0,0:0:0:0:
192,192,44965,1,0,0:0:0:0:
320,192,45040,128,0,45265:0:0:0:0:
448,192,45040,1,0,0:0:0:0:
192,192,45265,128,0,45490:0:0:0:0:
448,192,45265,1,0,0:0:0:0:
320,192,45490,128,0,45640:0:0:0:0:
448,192,45490,1,0,0:0:0:0:
192,192,45640,1,0,0:0:0:0:
448,192,45640,1,0,0:0:0:0:
64,192,45715,1,0,0:0:0:0:
320,192,45715,1,0,0:0:0:0:
448,192,45790,1,0,0:0:0:0:
192,192,45865,1,0,0:0:0:0:
64,192,45940,1,8,0:0:0:0:
448,192,45940,1,0,0:0:0:0:
320,192,46015,1,0,0:0:0:0:
64,192,46090,1,0,0:0:0:0:
192,192,46090,1,0,0:0:0:0:
448,192,46165,1,0,0:0:0:0:
64,192,46240,1,0,0:0:0:0:
320,192,46240,1,0,0:0:0:0:
192,192,46315,1,0,0:0:0:0:
448,192,46315,1,0,0:0:0:0:
320,192,46390,1,0,0:0:0:0:
192,192,46465,1,0,0:0:0:0:
64,192,46540,1,8,0:0:0:0:
448,192,46540,1,0,0:0:0:0:
320,192,46615,1,0,0:0:0:0:
64,192,46690,1,0,0:0:0:0:
192,192,46690,1,0,0:0:0:0:
320,192,46765,1,0,0:0:0:0:
192,192,46840,1,0,0:0:0:0:
448,192,46840,1,0,0:0:0:0:
64,192,46915,1,0,0:0:0:0:
320,192,46915,1,0,0:0:0:0:
448,192,46990,1,0,0:0:0:0:
192,192,47065,1,0,0:0:0:0:
64,192,47140,1,8,0:0:0:0:
448,192,47140,1,0,0:0:0:0:
320,192,47215,1,0,0:0:0:0:
64,192,47290,1,0,0:0:0:0:
192,192,47290,1,0,0:0:0:0:
448,192,47365,1,0,0:0:0:0:
64,192,47440,128,0,47590:0:0:0:0:
192,192,47440,1,0,0:0:0:0:
192,192,47590,128,0,47740:0:0:0:0:
320,192,47590,1,0,0:0:0:0:
320,192,47740,1,8,0:0:0:0:
448,192,47740,128,0,47890:0:0:0:0:
192,192,47890,1,0,0:0:0:0:
320,192,47890,128,0,48040:0:0:0:0:
64,192,48040,1,4,0:0:0:0:
192,192,48040,1,0,0:0:0:0:
448,192,48040,1,0,0:0:0:0:
320,192,48115,1,0,0:0:0:0:
64,192,48190,1,0,0:0:0:0:
448,192,48190,1,0,0:0:0:0:
192,192,48265,1,0,0:0:0:0:
320,192,48340,1,8,0:0:0:0:
448,192,48340,1,0,0:0:0:0:
192,192,48415,1,0,0:0:0:0:
64,192,48490,1,0,0:0:0:0:
448,192,48490,1,0,0:0:0:0:
192,192,48565,1,0,0:0:0:0:
320,192,48565,1,0,0:0:0:0:
64,192,48640,1,0,0:0:0:0:
448,192,48640,1,0,0:0:0:0:
320,192,48715,1,0,0:0:0:0:
64,192,48790,1,0,0:0:0:0:
192,192,48790,1,0,0:0:0:0:
448,192,48865,1,0,0:0:0:0:
192,192,48940,1,8,0:0:0:0:
320,192,48940,1,0,0:0:0:0:
64,192,49015,1,0,0:0:0:0:
320,192,49090,1,0,0:0:0:0:
448,192,49090,1,0,0:0:0:0:
192,192,49165,1,0,0:0:0:0:
64,192,49240,1,4,0:0:0:0:
320,192,49240,1,0,0:0:0:0:
448,192,49240,1,0,0:0:0:0:
192,192,49315,1,0,0:0:0:0:
320,192,49390,1,0,0:0:0:0:
448,192,49390,1,0,0:0:0:0:
192,192,49465,1,0,0:0:0:0:
64,192,49540,1,8,0:0:0:0:
448,192,49540,1,0,0:0:0:0:
320,192,49615,1,0,0:0:0:0:
64,192,49690,1,0,0:0:0:0:
192,192,49690,1,0,0:0:0:0:
320,192,49765,1,0,0:0:0:0:
448,192,49765,1,0,0:0:0:0:
64,192,49840,1,0,0:0:0:0:
192,192,49840,1,0,0:0:0:0:
448,192,49990,1,0,0:0:0:0:
192,192,50065,1,0,0:0:0:0:
320,192,50065,1,0,0:0:0:0:
64,192,50140,1,8,0:0:0:0:
320,192,50290,1,0,0:0:0:0:
448,192,50290,1,0,0:0:0:0:
64,192,50365,1,0,0:0:0:0:
192,192,50440,1,4,0:0:0:0:
320,192,50440,1,0,0:0:0:0:
448,192,50515,1,0,0:0:0:0:
192,192,50590,1,0,0:0:0:0:
448,192,50665,1,0,0:0:0:0:
64,192,50740,1,0,0:0:0:0:
192,192,50740,1,0,0:0:0:0:
320,192,50815,1,0,0:0:0:0:
192,192,50890,1,0,0:0:0:0:
320,192,50965,1,0,0:0:0:0:
64,192,51040,1,4,0:0:0:0:
192,192,51040,1,0,0:0:0:0:
448,192,51040,1,0,0:0:0:0:
320,192,51115,1,0,0:0:0:0:
64,192,51190,1,0,0:0:0:0:
320,192,51265,1,0,0:0:0:0:
64,192,51340,1,0,0:0:0:0:
192,192,51340,1,0,0:0:0:0:
320,192,51415,1,0,0:0:0:0:
192,192,51490,1,0,0:0:0:0:
320,192,51565,1,0,0:0:0:0:
64,192,51640,1,0,0:0:0:0:
192,192,51690,1,0,0:0:0:0:
320,192,51740,1,0,0:0:0:0:
448,192,51790,1,0,0:0:0:0:
192,192,51840,1,0,0:0:0:0:
320,192,51890,1,0,0:0:0:0:
448,192,51940,1,0,0:0:0:0:
64,192,51990,1,0,0:0:0:0:
192,192,52040,1,0,0:0:0:0:
320,192,52090,1,0,0:0:0:0:
64,192,52140,1,0,0:0:0:0:
192,192,52190,1,0,0:0:0:0:
320,192,52240,1,0,0:0:0:0:
448,192,52290,1,0,0:0:0:0:
64,192,52340,1,0,0:0:0:0:
192,192,52390,1,0,0:0:0:0:
320,192,52390,1,0,0:0:0:0:
64,192,52540,1,0,0:0:0:0:
192,192,52540,1,0,0:0:0:0:
64,192,52690,1,0,0:0:0:0:
448,192,52690,1,0,0:0:0:0:
64,192,52840,1,4,0:0:0:0:
192,192,52840,1,0,0:0:0:0:
320,192,52840,128,0,53140:0:0:0:0:
448,192,52840,1,0,0:0:0:0:
192,192,53140,128,0,53440:0:0:0:0:
64,192,53290,128,0,53440:0:0:0:0:
448,192,53440,1,0,0:0:0:0:
320,192,53477,1,0,0:0:0:0:
64,192,53515,1,0,0:0:0:0:
192,192,53552,1,0,0:0:0:0:
448,192,53590,1,0,0:0:0:0:
320,192,53627,1,0,0:0:0:0:
64,192,53665,1,0,0:0:0:0:
192,192,53702,1,0,0:0:0:0:
320,192,53740,128,4,54040:0:0:0:0:
448,192,53740,128,0,54190:0:0:0:0:
192,192,54040,128,0,54340:0:0:0:0:
64,192,54190,128,0,54340:0:0:0:0:
320,192,54190,128,0,54340:0:0:0:0:
320,192,55240,1,0,0:0:0:0:
448,192,55277,1,0,0:0:0:0:
192,192,55315,1,0,0:0:0:0:
64,192,55352,1,0,0:0:0:0:
320,192,55390,128,4,55690:0:0:0:0:
448,192,55390,128,0,55690:0:0:0:0:
64,192,55915,128,4,56065:0:0:0:0:
320,192,55915,128,0,56065:0:0:0:0:
448,192,55915,128,0,56065:0:0:0:0:
64,192,56215,128,4,56515:0:0:0:0:
192,192,56215,128,0,56590:0:0:0:0:
320,192,56215,128,0,56665:0:0:0:0:
448,192,56215,128,0,56740:0:0:0:0:
64,192,56740,128,0,56815:0:0:0:0:
192,192,56815,128,0,57190:0:0:0:0:
64,192,56890,128,4,57190:0:0:0:0:
320,192,56890,128,0,57190:0:0:0:0:
448,192,56890,128,0,57190:0:0:0:0:
64,192,57340,1,4,0:0:0:0:
192,192,57340,1,0,0:0:0:0:
320,192,57340,1,0,0:0:0:0:
448,192,57340,128,0,57640:0:0:0:0:
64,192,57640,1,4,0:0:0:0:
192,192,57640,1,0,0:0:0:0:
320,192,57640,1,0,0:0:0:0:
64,192,57790,1,4,0:0:0:0:
192,192,57790,128,0,58465:0:0:0:0:
320,192,57790,1,0,0:0:0:0:
448,192,57790,1,0,0:0:0:0:
64,192,58090,128,4,58465:0:0:0:0:
320,192,58090,128,0,58465:0:0:0:0:
448,192,58090,128,0,58465:0:0:0:0:
320,192,58615,1,0,0:0:0:0:
192,192,58652,1,0,0:0:0:0:
64,192,58690,128,4,59140:0:0:0:0:
320,192,58690,128,0,59140:0:0:0:0:
448,192,58690,128,0,59140:0:0:0:0:
192,192,58990,128,0,59140:0:0:0:0:
64,192,59290,128,0,59365:0:0:0:0:
192,192,59290,128,0,59365:0:0:0:0:
448,192,59290,1,0,0:0:0:0:
320,192,59365,128,0,59665:0:0:0:0:
64,192,59440,128,4,59665:0:0:0:0:
192,192,59440,128,0,59665:0:0:0:0:
448,192,59440,128,0,59665:0:0:0:0:
64,192,59740,128,4,60040:0:0:0:0:
192,192,59740,1,0,0:0:0:0:
320,192,59740,128,0,60040:0:0:0:0:
448,192,59740,1,0,0:0:0:0:
192,192,60040,128,0,60265:0:0:0:0:
448,192,60040,128,0,60265:0:0:0:0:
64,192,60190,128,0,60415:0:0:0:0:
320,192,60190,128,0,60415:0:0:0:0:
192,192,60340,128,0,60640:0:0:0:0:
448,192,60340,128,0,60640:0:0:0:0:
64,192,60490,128,0,60640:0:0:0:0:
320,192,60490,128,0,60640:0:0:0:0:
64,192,60940,1,0,0:0:0:0:
448,192,60940,1,0,0:0:0:0:
320,192,60977,1,0,0:0:0:0:
64,192,61015,1,0,0:0:0:0:
192,192,61015,1,0,0:0:0:0:
320,192,61090,1,0,0:0:0:0:
448,192,61090,1,0,0:0:0:0:
64,192,61165,1,0,0:0:0:0:
192,192,61165,128,0,61540:0:0:0:0:
320,192,61240,1,0,0:0:0:0:
448,192,61240,128,0,61540:0:0:0:0:
64,192,61540,1,2,0:0:0:0:
320,192,61540,1,0,0:0:0:0:
64,192,61765,1,0,0:0:0:0:
192,192,61840,1,0,0:0:0:0:
64,192,61915,1,0,0:0:0:0:
448,192,61915,1,0,0:0:0:0:
320,192,61990,1,0,0:0:0:0:
448,192,61990,1,0,0:0:0:0:
192,192,62065,1,0,0:0:0:0:
320,192,62140,1,0,0:0:0:0:
64,192,62215,1,0,0:0:0:0:
448,192,62215,1,0,0:0:0:0:
64,192,62290,1,0,0:0:0:0:
192,192,62290,1,0,0:0:0:0:
320,192,62365,1,0,0:0:0:0:
64,192,62440,128,4,62515:0:0:0:0:
192,192,62440,128,0,62665:0:0:0:0:
448,192,62440,1,0,0:0:0:0:
64,192,62590,128,0,62665:0:0:0:0:
320,192,62740,1,0,0:0:0:0:
448,192,62740,128,0,63040:0:0:0:0:
64,192,63040,128,0,63115:0:0:0:0:
320,192,63040,1,0,0:0:0:0:
64,192,63190,128,0,63265:0:0:0:0:
320,192,63190,1,0,0:0:0:0:
320,192,63415,1,0,0:0:0:0:
64,192,63490,128,0,63565:0:0:0:0:
192,192,63490,1,0,0:0:0:0:
64,192,63640,128,0,63715:0:0:0:0:
448,192,63640,1,0,0:0:0:0:
192,192,63790,1,0,0:0:0:0:
64,192,63840,1,0,0:0:0:0:
320,192,63890,1,0,0:0:0:0:
192,192,63940,1,0,0:0:0:0:
448,192,63940,128,0,64240:0:0:0:0:
64,192,64240,128,0,64315:0:0:0:0:
320,192,64240,1,0,0:0:0:0:
64,192,64390,128,0,64465:0:0:0:0:
320,192,64390,1,0,0:0:0:0:
448,192,64540,1,0,0:0:0:0:
320,192,64615,1,0,0:0:0:0:
64,192,64690,128,0,64765:0:0:0:0:
192,192,64690,128,0,64765:0:0:0:0:
448,192,64690,1,0,0:0:0:0:
64,192,64840,128,4,64915:0:0:0:0:
192,192,64840,128,0,65065:0:0:0:0:
320,192,64840,1,0,0:0:0:0:
64,192,64990,128,0,65065:0:0:0:0:
320,192,65140,1,0,0:0:0:0:
448,192,65140,128,0,65440:0:0:0:0:
64,192,65440,128,0,65515:0:0:0:0:
320,192,65440,1,0,0:0:0:0:
64,192,65590,128,0,65665:0:0:0:0:
320,192,65590,1,0,0:0:0:0:
320,192,65815,1,0,0:0:0:0:
64,192,65890,128,0,66115:0:0:0:0:
192,192,65890,1,0,0:0:0:0:
192,192,66190,1,0,0:0:0:0:
64,192,66240,1,0,0:0:0:0:
320,192,66290,1,0,0:0:0:0:
192,192,66340,1,0,0:0:0:0:
448,192,66340,128,0,66940:0:0:0:0:
64,192,66640,128,0,66715:0:0:0:0:
320,192,66640,1,0,0:0:0:0:
64,192,66790,128,0,66940:0:0:0:0:
320,192,66790,1,0,0:0:0:0:
320,192,67015,1,0,0:0:0:0:
64,192,67090,128,0,67165:0:0:0:0:
192,192,67090,128,0,67165:0:0:0:0:
448,192,67090,1,0,0:0:0:0:
64,192,67240,128,4,67315:0:0:0:0:
192,192,67240,128,0,67315:0:0:0:0:
448,192,67240,1,0,0:0:0:0:
192,192,67390,128,0,67465:0:0:0:0:
320,192,67390,128,0,67465:0:0:0:0:
320,192,67540,128,0,67615:0:0:0:0:
448,192,67540,128,0,67915:0:0:0:0:
64,192,67840,128,0,67915:0:0:0:0:
192,192,67840,128,0,67915:0:0:0:0:
64,192,67990,1,0,0:0:0:0:
192,192,67990,128,0,68065:0:0:0:0:
320,192,67990,128,0,68065:0:0:0:0:
192,192,68140,1,0,0:0:0:0:
320,192,68140,128,0,68215:0:0:0:0:
448,192,68140,128,0,68515:0:0:0:0:
64,192,68290,1,0,0:0:0:0:
192,192,68290,1,0,0:0:0:0:
320,192,68290,1,0,0:0:0:0:
64,192,68440,128,4,68515:0:0:0:0:
192,192,68440,128,0,68515:0:0:0:0:
320,192,68440,1,0,0:0:0:0:
192,192,68590,128,0,68665:0:0:0:0:
320,192,68590,128,0,68665:0:0:0:0:
320,192,68740,128,0,68815:0:0:0:0:
448,192,68740,128,0,69040:0:0:0:0:
64,192,69040,1,0,0:0:0:0:
192,192,69090,1,0,0:0:0:0:
320,192,69140,1,0,0:0:0:0:
448,192,69190,1,0,0:0:0:0:
320,192,69240,1,0,0:0:0:0:
192,192,69290,1,0,0:0:0:0:
64,192,69340,1,0,0:0:0:0:
192,192,69390,1,0,0:0:0:0:
320,192,69440,1,0,0:0:0:0:
448,192,69490,1,0,0:0:0:0:
64,192,69640,1,4,0:0:0:0:
320,192,69640,128,0,69715:0:0:0:0:
448,192,69640,1,0,0:0:0:0:
320,192,69790,128,0,69940:0:0:0:0:
448,192,69790,1,0,0:0:0:0:
320,192,70090,128,0,70165:0:0:0:0:
448,192,70090,1,0,0:0:0:0:
64,192,70240,128,4,70440:0:0:0:0:
192,192,70240,1,0,0:0:0:0:
448,192,70240,1,0,0:0:0:0:
192,192,70440,1,0,0:0:0:0:
320,192,70540,1,0,0:0:0:0:
448,192,70540,128,0,70765:0:0:0:0:
64,192,70840,1,4,0:0:0:0:
192,192,70840,1,0,0:0:0:0:
320,192,70840,128,0,71515:0:0:0:0:
448,192,70840,128,0,71740:0:0:0:0:
64,192,71290,1,0,0:0:0:0:
192,192,71440,1,0,0:0:0:0:
192,192,71515,1,0,0:0:0:0:
64,192,71590,1,0,0:0:0:0:
320,192,71665,1,0,0:0:0:0:
320,192,71740,1,0,0:0:0:0:
192,192,71815,1,0,0:0:0:0:
448,192,71890,1,0,0:0:0:0:
448,192,71965,1,0,0:0:0:0:
64,192,72040,1,4,0:0:0:0:
192,192,72040,1,0,0:0:0:0:
320,192,72040,1,0,0:0:0:0:
64,192,72340,1,0,0:0:0:0:
320,192,72340,1,0,0:0:0:0:
448,192,72340,1,0,0:0:0:0:
192,192,72590,1,0,0:0:0:0:
320,192,72590,1,0,0:0:0:0:
64,192,72640,1,0,0:0:0:0:
448,192,72640,1,0,0:0:0:0:
64,192,72940,1,0,0:0:0:0:
320,192,72940,1,0,0:0:0:0:
448,192,72940,1,0,0:0:0:0:
192,192,73015,1,0,0:0:0:0:
320,192,73090,1,0,0:0:0:0:
64,192,73240,1,0,0:0:0:0:
192,192,73240,1,0,0:0:0:0:
448,192,73240,1,0,0:0:0:0:
320,192,73390,1,0,0:0:0:0:
192,192,73440,1,0,0:0:0:0:
448,192,73490,1,0,0:0:0:0:
64,192,73540,1,0,0:0:0:0:
192,192,73540,1,0,0:0:0:0:
320,192,73540,1,0,0:0:0:0:
64,192,73690,1,0,0:0:0:0:
192,192,73690,1,0,0:0:0:0:
448,192,73690,1,0,0:0:0:0:
64,192,73840,1,0,0:0:0:0:
320,192,73840,1,0,0:0:0:0:
448,192,73840,1,0,0:0:0:0:
320,192,73940,1,0,0:0:0:0:
448,192,73940,1,0,0:0:0:0:
320,192,74040,1,0,0:0:0:0:
448,192,74040,1,0,0:0:0:0:
64,192,74140,1,0,0:0:0:0:
192,192,74140,1,0,0:0:0:0:
320,192,74240,1,0,0:0:0:0:
448,192,74240,1,0,0:0:0:0:
64,192,74340,1,0,0:0:0:0:
192,192,74340,1,0,0:0:0:0:
64,192,74440,1,0,0:0:0:0:
192,192,74440,1,0,0:0:0:0:
448,192,74440,1,0,0:0:0:0:
64,192,74590,1,0,0:0:0:0:
192,192,74590,1,0,0:0:0:0:
448,192,74590,1,0,0:0:0:0:
64,192,74740,1,0,0:0:0:0:
192,192,74740,1,0,0:0:0:0:
320,192,74740,1,0,0:0:0:0:
64,192,75040,1,0,0:0:0:0:
192,192,75040,1,0,0:0:0:0:
320,192,75040,1,0,0:0:0:0:
64,192,75240,1,0,0:0:0:0:
448,192,75240,1,0,0:0:0:0:
192,192,75340,1,0,0:0:0:0:
320,192,75340,1,0,0:0:0:0:
448,192,75340,1,0,0:0:0:0:
64,192,75490,1,4,0:0:0:0:
192,192,75490,1,0,0:0:0:0:
320,192,75490,1,0,0:0:0:0:
448,192,75490,1,0,0:0:0:0:
64,192,75640,1,0,0:0:0:0:
192,192,75640,1,0,0:0:0:0:
448,192,75640,1,0,0:0:0:0:
64,192,75940,1,0,0:0:0:0:
320,192,75940,1,0,0:0:0:0:
448,192,75940,1,0,0:0:0:0:
192,192,76015,1,0,0:0:0:0:
320,192,76090,1,0,0:0:0:0:
64,192,76240,1,4,0:0:0:0:
192,192,76240,1,0,0:0:0:0:
448,192,76240,1,0,0:0:0:0:
320,192,76315,1,0,0:0:0:0:
64,192,76390,1,0,0:0:0:0:
192,192,76390,1,0,0:0:0:0:
448,192,76465,1,0,0:0:0:0:
64,192,76540,1,0,0:0:0:0:
192,192,76540,1,0,0:0:0:0:
320,192,76540,1,0,0:0:0:0:
448,192,76615,1,0,0:0:0:0:
320,192,76690,1,0,0:0:0:0:
192,192,76765,1,0,0:0:0:0:
64,192,76840,1,4,0:0:0:0:
320,192,76840,1,0,0:0:0:0:
448,192,76840,1,0,0:0:0:0:
64,192,77140,1,0,0:0:0:0:
192,192,77140,1,0,0:0:0:0:
320,192,77140,1,0,0:0:0:0:
320,192,77390,1,0,0:0:0:0:
448,192,77390,1,0,0:0:0:0:
64,192,77440,1,0,0:0:0:0:
192,192,77440,1,0,0:0:0:0:
64,192,77740,1,0,0:0:0:0:
320,192,77740,1,0,0:0:0:0:
448,192,77740,1,0,0:0:0:0:
192,192,77815,1,0,0:0:0:0:
320,192,77890,1,0,0:0:0:0:
64,192,78040,1,4,0:0:0:0:
192,192,78040,1,0,0:0:0:0:
320,192,78040,1,0,0:0:0:0:
448,192,78040,1,0,0:0:0:0:
192,192,78190,1,0,0:0:0:0:
64,192,78240,1,0,0:0:0:0:
320,192,78290,1,0,0:0:0:0:
64,192,78340,1,0,0:0:0:0:
192,192,78340,1,0,0:0:0:0:
448,192,78340,1,0,0:0:0:0:
64,192,78490,1,0,0:0:0:0:
192,192,78490,1,0,0:0:0:0:
448,192,78490,1,0,0:0:0:0:
64,192,78640,1,0,0:0:0:0:
320,192,78640,1,0,0:0:0:0:
448,192,78640,1,0,0:0:0:0:
320,192,78740,1,0,0:0:0:0:
448,192,78740,1,0,0:0:0:0:
320,192,78840,1,0,0:0:0:0:
448,192,78840,1,0,0:0:0:0:
64,192,78940,1,0,0:0:0:0:
192,192,78940,1,0,0:0:0:0:
320,192,79040,1,0,0:0:0:0:
448,192,79040,1,0,0:0:0:0:
64,192,79140,1,0,0:0:0:0:
192,192,79140,1,0,0:0:0:0:
64,192,79240,1,4,0:0:0:0:
192,192,79240,1,0,0:0:0:0:
320,192,79240,1,0,0:0:0:0:
448,192,79240,1,0,0:0:0:0:
192,192,79390,1,0,0:0:0:0:
320,192,79390,1,0,0:0:0:0:
64,192,79540,1,0,0:0:0:0:
320,192,79540,1,0,0:0:0:0:
448,192,79540,1,0,0:0:0:0:
64,192,79640,1,0,0:0:0:0:
192,192,79640,1,0,0:0:0:0:
320,192,79740,1,0,0:0:0:0:
448,192,79740,1,0,0:0:0:0:
64,192,79840,1,0,0:0:0:0:
192,192,79840,1,0,0:0:0:0:
64,192,79990,1,0,0:0:0:0:
448,192,79990,1,0,0:0:0:0:
320,192,80140,1,0,0:0:0:0:
448,192,80140,1,0,0:0:0:0:
192,192,80190,1,0,0:0:0:0:
320,192,80240,1,0,0:0:0:0:
64,192,80290,1,4,0:0:0:0:
448,192,80290,1,0,0:0:0:0:
64,192,80440,1,0,0:0:0:0:
192,192,80440,1,0,0:0:0:0:
448,192,80440,1,0,0:0:0:0:
320,192,80590,1,0,0:0:0:0:
192,192,80640,1,0,0:0:0:0:
64,192,80690,1,0,0:0:0:0:
192,192,80740,1,0,0:0:0:0:
320,192,80740,1,0,0:0:0:0:
448,192,80740,1,0,0:0:0:0:
192,192,80890,1,0,0:0:0:0:
448,192,80890,1,0,0:0:0:0:
64,192,81040,1,0,0:0:0:0:
320,192,81040,1,0,0:0:0:0:
448,192,81040,1,0,0:0:0:0:
64,192,81140,1,0,0:0:0:0:
192,192,81140,1,0,0:0:0:0:
320,192,81240,1,0,0:0:0:0:
448,192,81240,1,0,0:0:0:0:
64,192,81340,1,0,0:0:0:0:
192,192,81340,1,0,0:0:0:0:
448,192,81340,1,0,0:0:0:0:
64,192,81440,1,0,0:0:0:0:
192,192,81440,1,0,0:0:0:0:
320,192,81540,1,0,0:0:0:0:
448,192,81540,1,0,0:0:0:0:
64,192,81640,128,8,82390:0:0:0:0:
192,192,81640,1,0,0:0:0:0:
320,192,81640,1,0,0:0:0:0:
448,192,81640,1,0,0:0:0:0:
192,192,84640,1,8,0:0:0:0:
448,192,84640,1,0,0:0:0:0:
320,192,84715,1,8,0:0:0:0:
192,192,84790,1,8,0:0:0:0:
448,192,84790,1,0,0:0:0:0:
320,192,84865,1,0,0:0:0:0:
64,192,84940,1,0,0:0:0:0:
448,192,84940,1,0,0:0:0:0:
192,192,85015,1,0,0:0:0:0:
64,192,85090,1,0,0:0:0:0:
448,192,85090,1,0,0:0:0:0:
64,192,85240,1,2,0:0:0:0:
192,192,85240,1,2,0:0:0:0:
64,192,85540,1,0,0:0:0:0:
320,192,85540,1,0,0:0:0:0:
448,192,85540,1,0,0:0:0:0:
320,192,85765,1,0,0:0:0:0:
192,192,85840,1,0,0:0:0:0:
448,192,85840,1,0,0:0:0:0:
320,192,85915,1,0,0:0:0:0:
192,192,85990,1,0,0:0:0:0:
64,192,86065,1,0,0:0:0:0:
448,192,86140,1,0,0:0:0:0:
320,192,86215,1,0,0:0:0:0:
192,192,86252,1,0,0:0:0:0:
64,192,86290,1,0,0:0:0:0:
448,192,86340,1,0,0:0:0:0:
320,192,86390,1,0,0:0:0:0:
64,192,86440,128,0,87415:0:0:0:0:
192,192,86440,1,0,0:0:0:0:
192,192,87415,128,0,87465:0:0:0:0:
320,192,87465,128,0,87515:0:0:0:0:
448,192,87515,128,0,87640:0:0:0:0:
192,192,87940,1,8,0:0:0:0:
320,192,87940,1,0,0:0:0:0:
448,192,87940,128,0,88015:0:0:0:0:
64,192,88015,128,0,88090:0:0:0:0:
448,192,88090,128,0,88165:0:0:0:0:
64,192,88165,128,0,88240:0:0:0:0:
448,192,88240,128,0,88315:0:0:0:0:
192,192,88315,128,0,88390:0:0:0:0:
448,192,88390,128,0,88465:0:0:0:0:
320,192,88465,128,0,88540:0:0:0:0:
64,192,88540,1,8,0:0:0:0:
192,192,88540,1,0,0:0:0:0:
448,192,88540,128,0,88615:0:0:0:0:
320,192,88615,128,0,88690:0:0:0:0:
448,192,88690,128,0,88765:0:0:0:0:
192,192,88765,128,0,88840:0:0:0:0:
64,192,88840,128,0,88915:0:0:0:0:
448,192,88915,128,0,88990:0:0:0:0:
64,192,88990,128,0,89065:0:0:0:0:
320,192,89065,128,0,89140:0:0:0:0:
64,192,89140,128,8,89215:0:0:0:0:
192,192,89140,1,0,0:0:0:0:
448,192,89140,1,0,0:0:0:0:
320,192,89215,128,0,89290:0:0:0:0:
64,192,89290,128,0,89365:0:0:0:0:
192,192,89365,128,0,89440:0:0:0:0:
64,192,89440,128,0,89515:0:0:0:0:
448,192,89440,1,0,0:0:0:0:
192,192,89515,128,0,89590:0:0:0:0:
320,192,89590,128,0,89665:0:0:0:0:
448,192,89590,1,0,0:0:0:0:
192,192,89665,128,0,89740:0:0:0:0:
64,192,89740,128,8,89815:0:0:0:0:
448,192,89740,1,0,0:0:0:0:
192,192,89815,128,0,89890:0:0:0:0:
320,192,89890,128,0,89965:0:0:0:0:
448,192,89890,1,0,0:0:0:0:
192,192,89965,128,0,90040:0:0:0:0:
64,192,90040,128,0,90115:0:0:0:0:
192,192,90115,128,0,90190:0:0:0:0:
64,192,90190,128,0,90265:0:0:0:0:
448,192,90265,128,0,90340:0:0:0:0:
64,192,90340,128,8,90415:0:0:0:0:
192,192,90340,1,0,0:0:0:0:
320,192,90340,1,0,0:0:0:0:
448,192,90415,128,0,90490:0:0:0:0:
64,192,90490,128,0,90565:0:0:0:0:
320,192,90565,128,0,90640:0:0:0:0:
64,192,90640,1,0,0:0:0:0:
192,192,90640,128,0,90715:0:0:0:0:
320,192,90715,128,0,90790:0:0:0:0:
64,192,90790,1,0,0:0:0:0:
448,192,90790,128,0,90865:0:0:0:0:
320,192,90865,128,0,90940:0:0:0:0:
64,192,90940,1,8,0:0:0:0:
192,192,90940,128,0,91015:0:0:0:0:
320,192,91015,128,0,91090:0:0:0:0:
64,192,91090,1,0,0:0:0:0:
448,192,91090,128,0,91165:0:0:0:0:
320,192,91165,128,0,91240:0:0:0:0:
64,192,91240,128,0,91315:0:0:0:0:
192,192,91240,128,0,91315:0:0:0:0:
320,192,91315,1,0,0:0:0:0:
192,192,91390,1,0,0:0:0:0:
320,192,91465,128,0,91540:0:0:0:0:
448,192,91465,1,0,0:0:0:0:
64,192,91540,128,8,91615:0:0:0:0:
192,192,91540,128,0,91615:0:0:0:0:
320,192,91615,1,0,0:0:0:0:
192,192,91690,1,0,0:0:0:0:
320,192,91765,128,0,91840:0:0:0:0:
448,192,91765,1,0,0:0:0:0:
64,192,91840,128,0,91915:0:0:0:0:
192,192,91840,128,0,91915:0:0:0:0:
448,192,91915,1,0,0:0:0:0:
321,192,91990,1,0,0:0:0:0:
64,192,92065,1,0,0:0:0:0:
448,192,92140,128,8,92190:0:0:0:0:
320,192,92190,128,0,92240:0:0:0:0:
192,192,92240,128,0,92290:0:0:0:0:
64,192,92290,128,0,92340:0:0:0:0:
448,192,92340,128,0,92390:0:0:0:0:
320,192,92390,128,0,92440:0:0:0:0:
192,192,92440,1,0,0:0:0:0:
64,192,92440,128,0,92515:0:0:0:0:
448,192,92515,1,0,0:0:0:0:
192,192,92590,128,0,92665:0:0:0:0:
64,192,92590,1,0,0:0:0:0:
320,192,92665,1,0,0:0:0:0:
192,192,92740,128,8,92815:0:0:0:0:
320,192,92815,1,0,0:0:0:0:
192,192,92890,1,0,0:0:0:0:
64,192,92890,128,0,92965:0:0:0:0:
448,192,92965,1,0,0:0:0:0:
192,192,93040,128,0,93115:0:0:0:0:
64,192,93040,1,0,0:0:0:0:
320,192,93115,1,0,0:0:0:0:
192,192,93190,128,0,93265:0:0:0:0:
320,192,93265,1,0,0:0:0:0:
448,192,93340,1,8,0:0:0:0:
64,192,93340,128,0,93415:0:0:0:0:
192,192,93640,1,0,0:0:0:0:
448,192,93640,1,0,0:0:0:0:
64,192,93715,1,0,0:0:0:0:
320,192,93715,1,0,0:0:0:0:
192,192,93790,1,0,0:0:0:0:
448,192,93790,1,0,0:0:0:0:
64,192,93940,1,8,0:0:0:0:
320,192,93940,1,0,0:0:0:0:
192,192,94015,1,0,0:0:0:0:
448,192,94015,1,0,0:0:0:0:
64,192,94090,1,0,0:0:0:0:
320,192,94090,1,0,0:0:0:0:
320,192,94240,1,0,0:0:0:0:
448,192,94240,1,0,0:0:0:0:
64,192,94315,1,0,0:0:0:0:
192,192,94315,1,0,0:0:0:0:
320,192,94390,1,0,0:0:0:0:
448,192,94390,1,0,0:0:0:0:
64,192,94540,1,8,0:0:0:0:
192,192,94540,1,0,0:0:0:0:
320,192,94615,1,0,0:0:0:0:
448,192,94615,1,0,0:0:0:0:
64,192,94690,1,0,0:0:0:0:
192,192,94690,1,0,0:0:0:0:
64,192,94840,1,0,0:0:0:0:
448,192,94840,1,0,0:0:0:0:
320,192,94890,1,0,0:0:0:0:
192,192,94940,1,0,0:0:0:0:
64,192,94990,1,0,0:0:0:0:
448,192,95040,1,0,0:0:0:0:
320,192,95090,1,0,0:0:0:0:
64,192,95140,1,8,0:0:0:0:
192,192,95140,1,0,0:0:0:0:
320,192,95190,1,0,0:0:0:0:
448,192,95240,1,0,0:0:0:0:
64,192,95290,1,0,0:0:0:0:
192,192,95340,1,0,0:0:0:0:
320,192,95390,1,0,0:0:0:0:
64,192,95440,1,0,0:0:0:0:
448,192,95440,128,0,95665:0:0:0:0:
320,192,95515,128,0,95590:0:0:0:0:
192,192,95590,128,0,95665:0:0:0:0:
64,192,95665,128,0,95890:0:0:0:0:
448,192,95740,128,0,95815:0:0:0:0:
320,192,95815,128,0,95890:0:0:0:0:
192,192,95890,128,0,95965:0:0:0:0:
64,192,95965,128,0,96040:0:0:0:0:
320,192,96040,1,4,0:0:0:0:
448,192,96040,1,0,0:0:0:0:
320,192,96190,1,0,0:0:0:0:
448,192,96190,1,0,0:0:0:0:
192,192,96227,1,0,0:0:0:0:
64,192,96265,1,0,0:0:0:0:
192,192,96340,1,8,0:0:0:0:
64,192,96415,1,0,0:0:0:0:
448,192,96415,1,0,0:0:0:0:
320,192,96452,1,0,0:0:0:0:
192,192,96490,1,0,0:0:0:0:
320,192,96640,1,0,0:0:0:0:
448,192,96640,1,0,0:0:0:0:
192,192,96677,1,0,0:0:0:0:
64,192,96715,1,0,0:0:0:0:
192,192,96790,1,0,0:0:0:0:
320,192,96865,1,0,0:0:0:0:
64,192,96940,1,8,0:0:0:0:
448,192,96940,128,0,97015:0:0:0:0:
320,192,97015,128,0,97090:0:0:0:0:
192,192,97090,128,0,97165:0:0:0:0:
64,192,97165,128,0,97240:0:0:0:0:
320,192,97240,1,0,0:0:0:0:
448,192,97240,1,0,0:0:0:0:
64,192,97390,1,0,0:0:0:0:
192,192,97390,1,0,0:0:0:0:
320,192,97427,1,0,0:0:0:0:
448,192,97465,1,0,0:0:0:0:
192,192,97540,1,8,0:0:0:0:
64,192,97615,1,0,0:0:0:0:
448,192,97615,1,0,0:0:0:0:
192,192,97652,1,0,0:0:0:0:
320,192,97690,1,0,0:0:0:0:
64,192,97840,1,0,0:0:0:0:
192,192,97840,1,0,0:0:0:0:
448,192,97877,1,0,0:0:0:0:
320,192,97915,1,0,0:0:0:0:
192,192,97990,1,0,0:0:0:0:
64,192,98065,1,0,0:0:0:0:
320,192,98140,128,8,98215:0:0:0:0:
448,192,98140,1,0,0:0:0:0:
192,192,98215,128,0,98290:0:0:0:0:
448,192,98290,128,0,98365:0:0:0:0:
320,192,98365,128,0,98440:0:0:0:0:
64,192,98440,1,0,0:0:0:0:
192,192,98440,1,0,0:0:0:0:
192,192,98590,1,0,0:0:0:0:
320,192,98590,1,0,0:0:0:0:
448,192,98627,1,0,0:0:0:0:
64,192,98665,1,0,0:0:0:0:
192,192,98740,1,8,0:0:0:0:
64,192,98815,1,0,0:0:0:0:
320,192,98815,1,0,0:0:0:0:
192,192,98852,1,0,0:0:0:0:
448,192,98890,1,0,0:0:0:0:
64,192,99040,1,0,0:0:0:0:
320,192,99040,1,0,0:0:0:0:
192,192,99077,1,0,0:0:0:0:
448,192,99115,1,0,0:0:0:0:
320,192,99190,1,0,0:0:0:0:
64,192,99265,1,0,0:0:0:0:
192,192,99340,1,8,0:0:0:0:
448,192,99340,128,0,99415:0:0:0:0:
320,192,99415,128,0,99490:0:0:0:0:
192,192,99490,128,0,99565:0:0:0:0:
64,192,99565,128,0,99640:0:0:0:0:
448,192,99640,128,0,99715:0:0:0:0:
64,192,99715,128,0,99790:0:0:0:0:
448,192,99790,128,0,99865:0:0:0:0:
192,192,99865,128,0,99940:0:0:0:0:
64,192,99940,1,8,0:0:0:0:
320,192,99940,1,0,0:0:0:0:
448,192,99940,128,0,100015:0:0:0:0:
192,192,100015,128,0,100090:0:0:0:0:
448,192,100090,128,0,100165:0:0:0:0:
320,192,100165,128,0,100240:0:0:0:0:
64,192,100240,128,0,100315:0:0:0:0:
192,192,100315,128,0,100390:0:0:0:0:
64,192,100390,128,0,100465:0:0:0:0:
320,192,100465,128,0,100540:0:0:0:0:
64,192,100540,128,8,100615:0:0:0:0:
192,192,100540,1,0,0:0:0:0:
448,192,100540,1,0,0:0:0:0:
320,192,100615,128,0,100690:0:0:0:0:
64,192,100690,128,0,100765:0:0:0:0:
448,192,100765,128,0,100840:0:0:0:0:
64,192,100840,128,0,100915:0:0:0:0:
192,192,100915,128,0,100990:0:0:0:0:
320,192,100990,128,0,101065:0:0:0:0:
192,192,101065,1,0,0:0:0:0:
448,192,101065,128,0,101140:0:0:0:0:
64,192,101140,128,8,101215:0:0:0:0:
320,192,101140,1,0,0:0:0:0:
192,192,101215,128,0,101290:0:0:0:0:
320,192,101290,128,0,101365:0:0:0:0:
192,192,101365,1,0,0:0:0:0:
448,192,101365,128,0,101440:0:0:0:0:
64,192,101440,128,0,101515:0:0:0:0:
320,192,101440,1,0,0:0:0:0:
192,192,101515,128,0,101590:0:0:0:0:
320,192,101590,128,0,101665:0:0:0:0:
192,192,101665,128,0,101740:0:0:0:0:
448,192,101740,128,8,101790:0:0:0:0:
320,192,101790,128,0,101840:0:0:0:0:
64,192,101840,128,0,101890:0:0:0:0:
448,192,101890,128,0,101940:0:0:0:0:
192,192,101940,128,0,101990:0:0:0:0:
64,192,101990,128,0,102040:0:0:0:0:
320,192,102040,128,0,102090:0:0:0:0:
448,192,102040,128,0,102090:0:0:0:0:
192,192,102115,1,0,0:0:0:0:
320,192,102190,128,0,102240:0:0:0:0:
448,192,102190,128,0,102240:0:0:0:0:
64,192,102265,1,0,0:0:0:0:
192,192,102340,128,8,102390:0:0:0:0:
448,192,102340,128,0,102390:0:0:0:0:
64,192,102415,1,0,0:0:0:0:
320,192,102490,128,0,102540:0:0:0:0:
448,192,102490,128,0,102540:0:0:0:0:
192,192,102565,1,0,0:0:0:0:
320,192,102640,128,0,102690:0:0:0:0:
448,192,102640,128,0,102690:0:0:0:0:
64,192,102715,1,0,0:0:0:0:
192,192,102790,128,0,102840:0:0:0:0:
448,192,102790,128,0,102840:0:0:0:0:
64,192,102865,1,0,0:0:0:0:
320,192,102940,128,8,102990:0:0:0:0:
448,192,102940,128,0,102990:0:0:0:0:
192,192,103015,1,0,0:0:0:0:
320,192,103090,128,0,103140:0:0:0:0:
448,192,103090,128,0,103140:0:0:0:0:
64,192,103240,128,4,103315:0:0:0:0:
192,192,103240,1,0,0:0:0:0:
448,192,103240,1,0,0:0:0:0:
320,192,103315,128,0,103390:0:0:0:0:
64,192,103390,128,0,103465:0:0:0:0:
192,192,103390,1,0,0:0:0:0:
448,192,103390,1,0,0:0:0:0:
320,192,103465,128,0,103540:0:0:0:0:
192,192,103540,128,8,103615:0:0:0:0:
64,192,103615,128,0,103690:0:0:0:0:
192,192,103690,128,0,103765:0:0:0:0:
64,192,103765,128,0,103840:0:0:0:0:
448,192,103840,128,0,103915:0:0:0:0:
192,192,103915,128,0,103990:0:0:0:0:
448,192,103990,128,0,104065:0:0:0:0:
192,192,104065,128,0,104140:0:0:0:0:
64,192,104140,1,8,0:0:0:0:
320,192,104140,1,0,0:0:0:0:
448,192,104140,1,0,0:0:0:0:
320,192,104240,1,0,0:0:0:0:
448,192,104240,1,0,0:0:0:0:
64,192,104340,1,0,0:0:0:0:
192,192,104340,1,0,0:0:0:0:
64,192,104440,1,4,0:0:0:0:
320,192,104440,1,0,0:0:0:0:
448,192,104440,128,0,104515:0:0:0:0:
192,192,104515,128,0,104590:0:0:0:0:
64,192,104590,1,0,0:0:0:0:
320,192,104590,1,0,0:0:0:0:
448,192,104590,128,0,104665:0:0:0:0:
192,192,104665,128,0,104740:0:0:0:0:
320,192,104740,128,8,104815:0:0:0:0:
448,192,104815,128,0,104890:0:0:0:0:
320,192,104890,128,0,104965:0:0:0:0:
448,192,104965,128,0,105040:0:0:0:0:
64,192,105040,128,0,105115:0:0:0:0:
320,192,105115,128,0,105190:0:0:0:0:
64,192,105190,128,0,105265:0:0:0:0:
320,192,105265,128,0,105340:0:0:0:0:
64,192,105340,1,8,0:0:0:0:
192,192,105340,1,0,0:0:0:0:
448,192,105377,1,0,0:0:0:0:
320,192,105415,1,0,0:0:0:0:
64,192,105490,1,0,0:0:0:0:
192,192,105490,1,0,0:0:0:0:
320,192,105565,1,0,0:0:0:0:
448,192,105565,1,0,0:0:0:0:
64,192,105640,128,4,105715:0:0:0:0:
192,192,105640,1,0,0:0:0:0:
320,192,105715,128,0,105790:0:0:0:0:
192,192,105790,1,0,0:0:0:0:
448,192,105790,128,0,105865:0:0:0:0:
320,192,105865,128,0,105940:0:0:0:0:
64,192,105940,128,8,106015:0:0:0:0:
320,192,106015,128,0,106090:0:0:0:0:
192,192,106090,1,0,0:0:0:0:
448,192,106090,128,0,106165:0:0:0:0:
320,192,106165,128,0,106240:0:0:0:0:
64,192,106240,128,0,106315:0:0:0:0:
320,192,106315,128,0,106390:0:0:0:0:
192,192,106390,128,0,106465:0:0:0:0:
64,192,106465,128,0,106540:0:0:0:0:
320,192,106540,128,8,106590:0:0:0:0:
448,192,106540,128,0,106590:0:0:0:0:
192,192,106590,128,0,106640:0:0:0:0:
64,192,106640,128,0,106690:0:0:0:0:
448,192,106690,128,0,106740:0:0:0:0:
320,192,106740,128,0,106790:0:0:0:0:
192,192,106790,128,0,106840:0:0:0:0:
320,192,106840,1,8,0:0:0:0:
448,192,106840,1,4,0:0:0:0:
64,192,106915,1,0,0:0:0:0:
192,192,106915,1,0,0:0:0:0:
320,192,106990,1,0,0:0:0:0:
448,192,106990,1,0,0:0:0:0:
192,192,107140,1,8,0:0:0:0:
320,192,107140,1,0,0:0:0:0:
64,192,107215,1,0,0:0:0:0:
448,192,107215,1,0,0:0:0:0:
192,192,107290,1,0,0:0:0:0:
320,192,107290,1,0,0:0:0:0:
64,192,107440,1,8,0:0:0:0:
192,192,107440,1,0,0:0:0:0:
320,192,107515,1,0,0:0:0:0:
448,192,107515,1,0,0:0:0:0:
64,192,107590,1,0,0:0:0:0:
192,192,107590,1,0,0:0:0:0:
192,192,107740,1,8,0:0:0:0:
320,192,107740,1,0,0:0:0:0:
64,192,107790,1,0,0:0:0:0:
448,192,107840,1,0,0:0:0:0:
192,192,107890,1,0,0:0:0:0:
320,192,107890,1,0,0:0:0:0:
64,192,107965,1,0,0:0:0:0:
192,192,108040,1,8,0:0:0:0:
448,192,108040,1,4,0:0:0:0:
320,192,108077,1,0,0:0:0:0:
64,192,108115,1,0,0:0:0:0:
192,192,108152,1,0,0:0:0:0:
320,192,108190,1,0,0:0:0:0:
448,192,108190,1,0,0:0:0:0:
64,192,108265,1,0,0:0:0:0:
192,192,108340,1,0,0:0:0:0:
320,192,108415,1,0,0:0:0:0:
64,192,108490,1,8,0:0:0:0:
448,192,108490,1,0,0:0:0:0:
192,192,108527,1,0,0:0:0:0:
320,192,108565,1,0,0:0:0:0:
64,192,108640,1,0,0:0:0:0:
448,192,108640,128,0,108715:0:0:0:0:
192,192,108715,128,0,108790:0:0:0:0:
320,192,108790,128,0,108865:0:0:0:0:
448,192,108790,1,0,0:0:0:0:
64,192,108865,128,0,108940:0:0:0:0:
192,192,108940,128,0,109015:0:0:0:0:
320,192,108940,1,0,0:0:0:0:
448,192,109015,128,0,109090:0:0:0:0:
64,192,109090,128,0,109165:0:0:0:0:
192,192,109090,1,0,0:0:0:0:
320,192,109165,1,0,0:0:0:0:
192,192,109240,1,8,0:0:0:0:
448,192,109240,1,4,0:0:0:0:
320,192,109277,1,0,0:0:0:0:
64,192,109315,1,0,0:0:0:0:
192,192,109352,1,0,0:0:0:0:
320,192,109390,1,0,0:0:0:0:
448,192,109390,1,0,0:0:0:0:
64,192,109465,1,0,0:0:0:0:
192,192,109540,1,0,0:0:0:0:
320,192,109615,1,0,0:0:0:0:
64,192,109690,1,8,0:0:0:0:
192,192,109690,1,0,0:0:0:0:
448,192,109727,1,0,0:0:0:0:
320,192,109765,1,0,0:0:0:0:
64,192,109840,128,0,109915:0:0:0:0:
192,192,109840,1,0,0:0:0:0:
320,192,109915,128,0,109990:0:0:0:0:
64,192,109990,1,0,0:0:0:0:
448,192,109990,128,0,110065:0:0:0:0:
192,192,110065,128,0,110140:0:0:0:0:
320,192,110140,128,0,110215:0:0:0:0:
448,192,110140,1,0,0:0:0:0:
64,192,110215,128,0,110290:0:0:0:0:
192,192,110290,128,0,110365:0:0:0:0:
320,192,110290,1,0,0:0:0:0:
448,192,110365,1,0,0:0:0:0:
64,192,110440,1,8,0:0:0:0:
192,192,110440,1,4,0:0:0:0:
64,192,110515,1,0,0:0:0:0:
192,192,110515,1,0,0:0:0:0:
320,192,110590,1,0,0:0:0:0:
448,192,110590,1,0,0:0:0:0:
320,192,110665,1,0,0:0:0:0:
448,192,110665,1,0,0:0:0:0:
64,192,110740,1,0,0:0:0:0:
192,192,110740,1,0,0:0:0:0:
64,192,110815,1,0,0:0:0:0:
192,192,110815,1,0,0:0:0:0:
320,192,110890,1,8,0:0:0:0:
448,192,110890,1,0,0:0:0:0:
320,192,110965,1,0,0:0:0:0:
448,192,110965,1,0,0:0:0:0:
64,192,111040,1,0,0:0:0:0:
192,192,111077,1,0,0:0:0:0:
448,192,111115,1,0,0:0:0:0:
64,192,111152,1,0,0:0:0:0:
192,192,111190,1,0,0:0:0:0:
448,192,111227,1,0,0:0:0:0:
64,192,111265,1,0,0:0:0:0:
192,192,111302,1,0,0:0:0:0:
448,192,111340,1,0,0:0:0:0:
320,192,111377,1,0,0:0:0:0:
64,192,111415,1,0,0:0:0:0:
448,192,111452,1,0,0:0:0:0:
320,192,111490,1,0,0:0:0:0:
64,192,111527,1,0,0:0:0:0:
448,192,111565,1,0,0:0:0:0:
320,192,111602,1,0,0:0:0:0:
64,192,111640,128,4,112840:0:0:0:0:
