osu file format v14

[General]
AudioFilename: audio.mp3
AudioLeadIn: 0
PreviewTime: 52655
Countdown: 0
SampleSet: Normal
StackLeniency: 0.7
Mode: 3
LetterboxInBreaks: 0
SpecialStyle: 0
WidescreenStoryboard: 1

[Editor]
Bookmarks: 106220
DistanceSpacing: 1
BeatDivisor: 4
GridSize: 4
TimelineZoom: 1.199999

[Metadata]
Title:Nyarlathotep
TitleUnicode:Nyarlathotep
Artist:nato
ArtistUnicode:nato
Creator:Arzenvald
Version:EASY Lv.6
Source:Pump It Up XX
Tags:펌프 잇 업 나토 니알라토텝 PIU 2019 20th anniversary edition original dance arcade double X twenty ANDAMIRO DoNotMess MEGAtive ExUsagi
BeatmapID:2243002
BeatmapSetID:923367

[Difficulty]
HPDrainRate:8
CircleSize:4
OverallDifficulty:8
ApproachRate:5
SliderMultiplier:1.4
SliderTickRate:1

[Events]
//Background and Video events
0,0,"BG.png",0,0
//Break Periods
//Storyboard Layer 0 (Background)
//Storyboard Layer 1 (Fail)
//Storyboard Layer 2 (Pass)
//Storyboard Layer 3 (Foreground)
//Storyboard Layer 4 (Overlay)
//Storyboard Sound Samples

[TimingPoints]
4840,300,4,3,1,70,1,0
14440,-100,4,2,1,70,0,0
33640,-100,4,1,1,70,0,0
40840,-100,4,2,1,70,0,0
43240,-100,4,1,1,70,0,0
50440,-100,4,2,1,70,0,0
52840,-100,4,3,1,70,0,0
61540,-100,4,2,1,70,0,0
62440,-100,4,3,1,70,0,0
84640,-100,4,2,1,70,0,0
85240,-100,4,2,0,70,0,0
85540,-100,4,2,1,70,0,0
86140,-100,4,1,1,70,0,0
87940,-100,4,1,1,70,0,0
95440,-100,4,3,1,70,0,0
96040,-100,4,1,1,70,0,0

[HitObjects]
192,192,14440,1,4,0:0:0:0:
320,192,14440,1,0,0:0:0:0:
64,192,15040,1,0,0:0:0:0:
448,192,15340,1,8,0:0:0:0:
64,192,15640,1,0,0:0:0:0:
320,192,15940,1,8,0:0:0:0:
192,192,16240,1,0,0:0:0:0:
448,192,16540,1,8,0:0:0:0:
64,192,16840,1,0,0:0:0:0:
320,192,17440,1,0,0:0:0:0:
192,192,17740,1,8,0:0:0:0:
320,192,18040,1,0,0:0:0:0:
192,192,18640,1,0,0:0:0:0:
320,192,18940,1,8,0:0:0:0:
192,192,19240,1,0,0:0:0:0:
448,192,19840,1,0,0:0:0:0:
64,192,20140,1,8,0:0:0:0:
448,192,20440,1,0,0:0:0:0:
192,192,20740,1,8,0:0:0:0:
320,192,21040,1,0,0:0:0:0:
64,192,21340,1,8,0:0:0:0:
448,192,21640,1,0,0:0:0:0:
192,192,22240,1,0,0:0:0:0:
320,192,22540,1,8,0:0:0:0:
192,192,22840,1,0,0:0:0:0:
448,192,23440,128,0,24040:0:0:0:0:
64,192,24040,1,4,0:0:0:0:
192,192,24040,1,0,0:0:0:0:
64,192,24640,1,0,0:0:0:0:
448,192,24940,1,8,0:0:0:0:
64,192,25240,1,0,0:0:0:0:
192,192,25540,1,8,0:0:0:0:
320,192,25840,1,0,0:0:0:0:
448,192,26140,1,8,0:0:0:0:
64,192,26440,1,0,0:0:0:0:
64,192,27040,1,0,0:0:0:0:
320,192,27340,1,8,0:0:0:0:
64,192,27640,1,0,0:0:0:0:
448,192,28240,1,0,0:0:0:0:
192,192,28540,1,8,0:0:0:0:
448,192,28840,1,0,0:0:0:0:
320,192,29440,1,0,0:0:0:0:
64,192,29740,1,8,0:0:0:0:
448,192,30040,1,8,0:0:0:0:
320,192,30340,1,8,0:0:0:0:
192,192,30640,1,8,0:0:0:0:
64,192,30940,1,8,0:0:0:0:
448,192,31240,1,0,0:0:0:0:
320,192,31540,1,8,0:0:0:0:
192,192,31840,1,0,0:0:0:0:
320,192,32140,1,8,0:0:0:0:
448,192,32440,1,0,0:0:0:0:
64,192,32740,128,0,33640:0:0:0:0:
448,192,33640,1,4,0:0:0:0:
192,192,33940,1,8,0:0:0:0:
448,192,34240,1,0,0:0:0:0:
192,192,34540,1,8,0:0:0:0:
448,192,34840,1,0,0:0:0:0:
64,192,35440,1,0,0:0:0:0:
320,192,35740,1,8,0:0:0:0:
448,192,36040,1,0,0:0:0:0:
64,192,36340,1,8,0:0:0:0:
448,192,36640,1,0,0:0:0:0:
64,192,36940,1,8,0:0:0:0:
448,192,37240,1,0,0:0:0:0:
192,192,37840,1,0,0:0:0:0:
448,192,38140,1,8,0:0:0:0:
320,192,38440,1,0,0:0:0:0:
64,192,38740,1,8,0:0:0:0:
320,192,39040,1,0,0:0:0:0:
64,192,39340,1,8,0:0:0:0:
320,192,39640,1,0,0:0:0:0:
192,192,40240,1,0,0:0:0:0:
320,192,40540,1,8,0:0:0:0:
64,192,40840,1,0,0:0:0:0:
320,192,41440,1,0,0:0:0:0:
192,192,42040,1,0,0:0:0:0:
64,192,42640,1,0,0:0:0:0:
448,192,43240,1,4,0:0:0:0:
320,192,43540,1,8,0:0:0:0:
448,192,43840,1,0,0:0:0:0:
320,192,44140,1,8,0:0:0:0:
448,192,44440,1,0,0:0:0:0:
64,192,45040,1,0,0:0:0:0:
192,192,45340,1,8,0:0:0:0:
448,192,45640,1,0,0:0:0:0:
64,192,45940,1,8,0:0:0:0:
448,192,46240,1,0,0:0:0:0:
64,192,46540,1,8,0:0:0:0:
448,192,46840,1,0,0:0:0:0:
320,192,47440,1,0,0:0:0:0:
448,192,47740,1,8,0:0:0:0:
192,192,48040,1,4,0:0:0:0:
64,192,48340,1,8,0:0:0:0:
192,192,48640,1,0,0:0:0:0:
64,192,48940,1,8,0:0:0:0:
192,192,49240,1,4,0:0:0:0:
320,192,49840,1,0,0:0:0:0:
448,192,50140,1,8,0:0:0:0:
64,192,50440,1,4,0:0:0:0:
448,192,51040,1,4,0:0:0:0:
192,192,51640,1,0,0:0:0:0:
448,192,52240,1,0,0:0:0:0:
192,192,52840,1,4,0:0:0:0:
320,192,52840,128,0,53740:0:0:0:0:
192,192,53740,1,4,0:0:0:0:
64,192,55390,1,4,0:0:0:0:
448,192,55390,1,0,0:0:0:0:
320,192,55915,1,4,0:0:0:0:
192,192,56215,1,4,0:0:0:0:
64,192,56890,1,4,0:0:0:0:
448,192,56890,1,0,0:0:0:0:
320,192,57340,1,4,0:0:0:0:
192,192,57640,1,4,0:0:0:0:
64,192,58090,1,4,0:0:0:0:
448,192,58090,128,0,58690:0:0:0:0:
64,192,58690,1,4,0:0:0:0:
448,192,59440,1,4,0:0:0:0:
64,192,59740,128,4,60340:0:0:0:0:
448,192,59740,1,0,0:0:0:0:
448,192,60340,1,0,0:0:0:0:
64,192,60940,1,0,0:0:0:0:
448,192,61240,1,0,0:0:0:0:
64,192,62440,1,4,0:0:0:0:
192,192,62440,1,0,0:0:0:0:
64,192,63040,1,0,0:0:0:0:
320,192,63340,1,0,0:0:0:0:
64,192,63640,1,0,0:0:0:0:
320,192,64240,128,0,64840:0:0:0:0:
64,192,64840,1,4,0:0:0:0:
448,192,64840,1,0,0:0:0:0:
448,192,65440,1,0,0:0:0:0:
192,192,65740,1,0,0:0:0:0:
448,192,66040,1,0,0:0:0:0:
192,192,66640,128,0,67240:0:0:0:0:
64,192,67240,1,4,0:0:0:0:
448,192,67240,1,0,0:0:0:0:
64,192,67840,1,0,0:0:0:0:
320,192,68140,1,0,0:0:0:0:
64,192,68440,1,4,0:0:0:0:
192,192,68440,1,0,0:0:0:0:
448,192,69040,1,0,0:0:0:0:
192,192,69340,1,0,0:0:0:0:
320,192,69640,1,4,0:0:0:0:
448,192,69640,1,0,0:0:0:0:
192,192,70240,1,4,0:0:0:0:
320,192,70240,1,0,0:0:0:0:
64,192,70840,1,4,0:0:0:0:
192,192,70840,1,0,0:0:0:0:
64,192,72040,1,4,0:0:0:0:
448,192,72340,1,0,0:0:0:0:
320,192,72640,1,0,0:0:0:0:
192,192,72940,1,0,0:0:0:0:
64,192,73240,1,0,0:0:0:0:
320,192,73540,1,0,0:0:0:0:
448,192,73840,128,0,74440:0:0:0:0:
64,192,74440,1,0,0:0:0:0:
192,192,74740,1,0,0:0:0:0:
320,192,75040,1,0,0:0:0:0:
448,192,75340,1,0,0:0:0:0:
320,192,75640,1,0,0:0:0:0:
192,192,75940,1,0,0:0:0:0:
64,192,76240,128,4,76840:0:0:0:0:
448,192,76840,1,4,0:0:0:0:
320,192,77140,1,0,0:0:0:0:
192,192,77440,1,0,0:0:0:0:
64,192,77740,1,0,0:0:0:0:
192,192,78040,1,4,0:0:0:0:
448,192,78340,1,0,0:0:0:0:
320,192,78640,128,0,79240:0:0:0:0:
64,192,79240,1,4,0:0:0:0:
192,192,79540,1,0,0:0:0:0:
448,192,79840,1,0,0:0:0:0:
320,192,80140,1,0,0:0:0:0:
64,192,80440,1,0,0:0:0:0:
192,192,80740,1,0,0:0:0:0:
320,192,81040,1,0,0:0:0:0:
448,192,81340,1,0,0:0:0:0:
192,192,81640,1,8,0:0:0:0:
448,192,84640,1,8,0:0:0:0:
64,192,84940,1,0,0:0:0:0:
448,192,85240,1,2,0:0:0:0:
192,192,85540,1,0,0:0:0:0:
64,192,86440,1,0,0:0:0:0:
320,192,86440,1,0,0:0:0:0:
320,192,87940,1,8,0:0:0:0:
192,192,88240,1,0,0:0:0:0:
64,192,88540,1,8,0:0:0:0:
448,192,88840,1,0,0:0:0:0:
320,192,89140,1,8,0:0:0:0:
192,192,89440,1,0,0:0:0:0:
320,192,89740,1,8,0:0:0:0:
192,192,90040,1,0,0:0:0:0:
64,192,90340,1,8,0:0:0:0:
320,192,90640,1,0,0:0:0:0:
448,192,90940,1,8,0:0:0:0:
64,192,91240,1,0,0:0:0:0:
192,192,91540,1,8,0:0:0:0:
320,192,91840,1,0,0:0:0:0:
448,192,92140,1,8,0:0:0:0:
192,192,92440,1,0,0:0:0:0:
320,192,92740,1,8,0:0:0:0:
192,192,93040,1,0,0:0:0:0:
320,192,93340,1,8,0:0:0:0:
448,192,93640,1,0,0:0:0:0:
320,192,93940,1,8,0:0:0:0:
192,192,94240,1,0,0:0:0:0:
64,192,94540,1,8,0:0:0:0:
192,192,94840,1,0,0:0:0:0:
448,192,95140,1,8,0:0:0:0:
64,192,95440,128,0,96040:0:0:0:0:
448,192,96040,128,4,96340:0:0:0:0:
320,192,96340,128,8,96640:0:0:0:0:
192,192,96640,128,0,96940:0:0:0:0:
64,192,97240,128,0,97540:0:0:0:0:
192,192,97540,128,8,97840:0:0:0:0:
320,192,97840,128,0,98140:0:0:0:0:
192,192,98440,128,0,98740:0:0:0:0:
320,192,98740,128,8,99040:0:0:0:0:
448,192,99040,128,0,99340:0:0:0:0:
64,192,99640,1,0,0:0:0:0:
192,192,99940,1,8,0:0:0:0:
320,192,100240,1,0,0:0:0:0:
448,192,100540,1,8,0:0:0:0:
64,192,100840,1,0,0:0:0:0:
64,192,101440,1,0,0:0:0:0:
448,192,101740,128,8,102040:0:0:0:0:
192,192,102040,1,0,0:0:0:0:
320,192,102640,1,0,0:0:0:0:
64,192,103240,1,4,0:0:0:0:
192,192,103240,1,0,0:0:0:0:
64,192,103840,1,0,0:0:0:0:
320,192,103840,1,8,0:0:0:0:
192,192,104440,1,4,0:0:0:0:
320,192,104440,1,0,0:0:0:0:
192,192,105040,1,8,0:0:0:0:
448,192,105040,1,0,0:0:0:0:
320,192,105640,1,4,0:0:0:0:
448,192,105640,1,0,0:0:0:0:
192,192,106240,1,8,0:0:0:0:
448,192,106240,1,0,0:0:0:0:
64,192,106840,1,12,0:0:0:0:
64,192,107140,1,8,0:0:0:0:
448,192,107440,1,8,0:0:0:0:
448,192,107740,1,8,0:0:0:0:
192,192,108040,128,12,108490:0:0:0:0:
64,192,108490,1,8,0:0:0:0:
320,192,109240,128,12,109690:0:0:0:0:
448,192,109690,1,8,0:0:0:0:
64,192,110440,128,8,111640:0:0:0:0:
448,192,110440,128,4,111640:0:0:0:0:
192,192,111640,1,4,0:0:0:0:
320,192,111640,1,0,0:0:0:0:
