osu file format v14

[General]
AudioFilename: audio.mp3
AudioLeadIn: 0
PreviewTime: 52655
Countdown: 0
SampleSet: Drum
StackLeniency: 0.7
Mode: 3
LetterboxInBreaks: 0
SpecialStyle: 0
WidescreenStoryboard: 1

[Editor]
DistanceSpacing: 1
BeatDivisor: 4
GridSize: 4
TimelineZoom: 2.5

[Metadata]
Title:Nyarlathotep
TitleUnicode:Nyarlathotep
Artist:nato
ArtistUnicode:nato
Creator:Arzenvald
Version:DnM's EXTRA Lv.26
Source:Pump It Up XX
Tags:펌프 잇 업 나토 니알라토텝 PIU 2019 20th anniversary edition original dance arcade double X twenty ANDAMIRO DoNotMess MEGAtive ExUsagi
BeatmapID:1946897
BeatmapSetID:923367

[Difficulty]
HPDrainRate:8.7
CircleSize:4
OverallDifficulty:8.7
ApproachRate:5
SliderMultiplier:1.4
SliderTickRate:1

[Events]
//Background and Video events
0,0,"BG.png",0,0
//Break Periods
//Storyboard Layer 0 (Background)
//Storyboard Layer 1 (Fail)
//Storyboard Layer 2 (Pass)
//Storyboard Layer 3 (Foreground)
//Storyboard Layer 4 (Overlay)
//Storyboard Sound Samples

[TimingPoints]
4840,300,4,3,1,70,1,0
14440,-100,4,2,1,70,0,0
33640,-100,4,1,1,70,0,0
40840,-100,4,2,1,70,0,0
43240,-100,4,1,1,70,0,0
50440,-100,4,2,1,70,0,0
52840,-100,4,3,1,70,0,0
61540,-100,4,2,1,70,0,0
62440,-100,4,3,1,70,0,0
84640,-100,4,2,1,70,0,0
85240,-100,4,2,0,70,0,0
85540,-100,4,2,1,70,0,0
86140,-100,4,1,1,70,0,0
87940,-100,4,1,1,70,0,0
95440,-100,4,3,1,70,0,0
96040,-100,4,1,1,70,0,0

[HitObjects]
64,192,4840,1,0,0:0:0:0:
192,192,4840,1,0,0:0:0:0:
448,192,5140,1,0,0:0:0:0:
192,192,5290,1,0,0:0:0:0:
320,192,5440,1,0,0:0:0:0:
192,192,5590,1,0,0:0:0:0:
448,192,5740,1,0,0:0:0:0:
192,192,6040,1,0,0:0:0:0:
448,192,6040,128,0,7240:0:0:0:0:
320,192,6340,1,0,0:0:0:0:
64,192,6490,1,0,0:0:0:0:
192,192,6640,1,0,0:0:0:0:
64,192,6790,1,0,0:0:0:0:
320,192,6940,1,0,0:0:0:0:
64,192,7240,1,0,0:0:0:0:
192,192,7540,1,0,0:0:0:0:
320,192,7690,1,0,0:0:0:0:
64,192,7840,1,0,0:0:0:0:
320,192,7990,1,0,0:0:0:0:
192,192,8140,1,0,0:0:0:0:
64,192,8440,1,0,0:0:0:0:
448,192,8440,128,0,9640:0:0:0:0:
320,192,8740,1,0,0:0:0:0:
64,192,8890,1,0,0:0:0:0:
192,192,9040,1,0,0:0:0:0:
64,192,9190,1,0,0:0:0:0:
320,192,9340,1,0,0:0:0:0:
64,192,9640,1,0,0:0:0:0:
320,192,9940,1,0,0:0:0:0:
192,192,10090,1,0,0:0:0:0:
448,192,10240,1,0,0:0:0:0:
192,192,10390,1,0,0:0:0:0:
320,192,10540,1,0,0:0:0:0:
64,192,10840,1,0,0:0:0:0:
448,192,10840,128,0,12040:0:0:0:0:
192,192,11140,1,0,0:0:0:0:
320,192,11290,1,0,0:0:0:0:
64,192,11440,1,0,0:0:0:0:
320,192,11590,1,0,0:0:0:0:
192,192,11740,1,0,0:0:0:0:
320,192,12040,1,0,0:0:0:0:
448,192,12340,1,0,0:0:0:0:
448,192,12490,1,0,0:0:0:0:
320,192,12640,1,0,0:0:0:0:
320,192,12790,1,0,0:0:0:0:
192,192,12940,1,0,0:0:0:0:
192,192,13090,1,0,0:0:0:0:
64,192,13165,1,0,0:0:0:0:
448,192,13240,128,0,14140:0:0:0:0:
64,192,14440,128,4,14740:0:0:0:0:
192,192,14440,128,0,14665:0:0:0:0:
320,192,14440,1,0,0:0:0:0:
448,192,14440,1,0,0:0:0:0:
192,192,14740,128,8,14890:0:0:0:0:
320,192,14740,1,0,0:0:0:0:
448,192,14740,1,0,0:0:0:0:
64,192,14815,128,0,14890:0:0:0:0:
320,192,14890,128,0,15040:0:0:0:0:
448,192,14890,1,0,0:0:0:0:
192,192,14965,128,0,15040:0:0:0:0:
64,192,15040,1,0,0:0:0:0:
448,192,15040,128,0,15190:0:0:0:0:
320,192,15115,128,0,15190:0:0:0:0:
64,192,15190,128,0,15340:0:0:0:0:
192,192,15190,1,0,0:0:0:0:
448,192,15265,128,0,15340:0:0:0:0:
192,192,15340,128,8,15490:0:0:0:0:
320,192,15340,1,0,0:0:0:0:
64,192,15415,128,0,15490:0:0:0:0:
320,192,15490,128,0,15640:0:0:0:0:
448,192,15490,1,0,0:0:0:0:
192,192,15565,128,0,15640:0:0:0:0:
64,192,15640,1,0,0:0:0:0:
448,192,15640,1,0,0:0:0:0:
192,192,15790,1,0,0:0:0:0:
320,192,15865,1,0,0:0:0:0:
64,192,15940,1,8,0:0:0:0:
192,192,15940,1,0,0:0:0:0:
448,192,15940,1,0,0:0:0:0:
320,192,16090,1,0,0:0:0:0:
448,192,16090,1,0,0:0:0:0:
64,192,16165,1,0,0:0:0:0:
192,192,16240,1,0,0:0:0:0:
320,192,16315,1,0,0:0:0:0:
64,192,16390,1,0,0:0:0:0:
448,192,16390,1,0,0:0:0:0:
320,192,16465,1,0,0:0:0:0:
64,192,16540,1,8,0:0:0:0:
192,192,16540,1,0,0:0:0:0:
448,192,16540,1,0,0:0:0:0:
320,192,16615,1,0,0:0:0:0:
64,192,16690,1,0,0:0:0:0:
448,192,16690,1,0,0:0:0:0:
192,192,16765,1,0,0:0:0:0:
320,192,16840,1,0,0:0:0:0:
448,192,16840,1,0,0:0:0:0:
192,192,16990,1,0,0:0:0:0:
320,192,17065,1,0,0:0:0:0:
64,192,17140,1,8,0:0:0:0:
192,192,17140,1,0,0:0:0:0:
448,192,17140,1,0,0:0:0:0:
320,192,17290,1,0,0:0:0:0:
448,192,17290,1,0,0:0:0:0:
64,192,17365,1,0,0:0:0:0:
192,192,17440,1,0,0:0:0:0:
64,192,17515,1,0,0:0:0:0:
320,192,17590,1,0,0:0:0:0:
448,192,17590,1,0,0:0:0:0:
192,192,17665,1,0,0:0:0:0:
64,192,17740,1,8,0:0:0:0:
320,192,17740,1,0,0:0:0:0:
448,192,17740,1,0,0:0:0:0:
192,192,17890,1,0,0:0:0:0:
320,192,17965,1,0,0:0:0:0:
64,192,18040,1,0,0:0:0:0:
192,192,18040,1,0,0:0:0:0:
448,192,18040,1,0,0:0:0:0:
320,192,18190,1,0,0:0:0:0:
192,192,18265,1,0,0:0:0:0:
64,192,18340,1,8,0:0:0:0:
320,192,18340,1,0,0:0:0:0:
448,192,18340,1,0,0:0:0:0:
64,192,18490,1,0,0:0:0:0:
192,192,18490,1,0,0:0:0:0:
448,192,18565,1,0,0:0:0:0:
320,192,18640,1,0,0:0:0:0:
448,192,18715,1,0,0:0:0:0:
64,192,18790,1,0,0:0:0:0:
192,192,18790,1,0,0:0:0:0:
320,192,18865,1,0,0:0:0:0:
64,192,18940,1,8,0:0:0:0:
320,192,18940,1,0,0:0:0:0:
448,192,18940,1,0,0:0:0:0:
192,192,19090,1,0,0:0:0:0:
448,192,19090,1,0,0:0:0:0:
320,192,19165,1,0,0:0:0:0:
64,192,19240,128,0,19540:0:0:0:0:
192,192,19240,128,0,19465:0:0:0:0:
448,192,19240,1,0,0:0:0:0:
192,192,19540,1,8,0:0:0:0:
320,192,19540,128,0,19690:0:0:0:0:
448,192,19540,1,0,0:0:0:0:
64,192,19615,128,0,19690:0:0:0:0:
192,192,19690,128,0,19840:0:0:0:0:
448,192,19690,1,0,0:0:0:0:
320,192,19765,128,0,19840:0:0:0:0:
64,192,19840,1,0,0:0:0:0:
448,192,19840,128,0,19990:0:0:0:0:
192,192,19915,128,0,19990:0:0:0:0:
64,192,19990,128,0,20140:0:0:0:0:
320,192,19990,1,0,0:0:0:0:
448,192,20065,128,0,20140:0:0:0:0:
192,192,20140,1,8,0:0:0:0:
320,192,20140,128,0,20290:0:0:0:0:
64,192,20215,128,0,20290:0:0:0:0:
192,192,20290,128,0,20440:0:0:0:0:
448,192,20290,1,0,0:0:0:0:
320,192,20365,128,0,20440:0:0:0:0:
64,192,20440,1,0,0:0:0:0:
448,192,20440,1,0,0:0:0:0:
320,192,20590,1,0,0:0:0:0:
192,192,20665,1,0,0:0:0:0:
64,192,20740,1,8,0:0:0:0:
320,192,20740,1,0,0:0:0:0:
448,192,20740,1,0,0:0:0:0:
64,192,20890,1,0,0:0:0:0:
192,192,20890,1,0,0:0:0:0:
448,192,20965,1,0,0:0:0:0:
192,192,21040,1,0,0:0:0:0:
320,192,21115,1,0,0:0:0:0:
64,192,21190,1,0,0:0:0:0:
192,192,21190,1,0,0:0:0:0:
448,192,21265,1,0,0:0:0:0:
64,192,21340,1,8,0:0:0:0:
192,192,21340,1,0,0:0:0:0:
320,192,21340,1,0,0:0:0:0:
320,192,21490,1,0,0:0:0:0:
448,192,21490,1,0,0:0:0:0:
192,192,21565,1,0,0:0:0:0:
64,192,21640,1,0,0:0:0:0:
320,192,21640,1,0,0:0:0:0:
448,192,21640,1,0,0:0:0:0:
192,192,21790,1,0,0:0:0:0:
320,192,21865,1,0,0:0:0:0:
64,192,21940,1,8,0:0:0:0:
192,192,21940,1,0,0:0:0:0:
448,192,21940,1,0,0:0:0:0:
320,192,22090,1,0,0:0:0:0:
448,192,22090,1,0,0:0:0:0:
64,192,22165,1,0,0:0:0:0:
320,192,22240,1,0,0:0:0:0:
192,192,22315,1,0,0:0:0:0:
320,192,22390,1,0,0:0:0:0:
448,192,22390,1,0,0:0:0:0:
64,192,22465,1,0,0:0:0:0:
192,192,22540,1,8,0:0:0:0:
320,192,22540,1,0,0:0:0:0:
448,192,22540,1,0,0:0:0:0:
64,192,22690,1,0,0:0:0:0:
192,192,22690,1,0,0:0:0:0:
320,192,22765,1,0,0:0:0:0:
64,192,22840,1,0,0:0:0:0:
192,192,22840,1,0,0:0:0:0:
448,192,22840,1,0,0:0:0:0:
320,192,22915,1,0,0:0:0:0:
64,192,22952,1,0,0:0:0:0:
192,192,22990,1,0,0:0:0:0:
448,192,23027,1,0,0:0:0:0:
320,192,23065,1,0,0:0:0:0:
64,192,23102,1,0,0:0:0:0:
192,192,23140,1,0,0:0:0:0:
448,192,23177,1,0,0:0:0:0:
320,192,23215,1,0,0:0:0:0:
64,192,23252,1,0,0:0:0:0:
192,192,23290,1,0,0:0:0:0:
448,192,23327,1,0,0:0:0:0:
320,192,23365,1,0,0:0:0:0:
64,192,23402,1,0,0:0:0:0:
192,192,23440,1,0,0:0:0:0:
448,192,23440,1,0,0:0:0:0:
64,192,23515,1,0,0:0:0:0:
320,192,23515,1,0,0:0:0:0:
192,192,23590,1,0,0:0:0:0:
448,192,23627,1,0,0:0:0:0:
320,192,23665,1,0,0:0:0:0:
64,192,23702,1,0,0:0:0:0:
192,192,23740,1,0,0:0:0:0:
448,192,23740,1,0,0:0:0:0:
320,192,23815,1,0,0:0:0:0:
64,192,23890,1,0,0:0:0:0:
448,192,23890,1,0,0:0:0:0:
192,192,23965,1,0,0:0:0:0:
320,192,23965,1,0,0:0:0:0:
64,192,24040,1,4,0:0:0:0:
320,192,24040,128,0,24265:0:0:0:0:
448,192,24040,128,0,24340:0:0:0:0:
64,192,24340,1,8,0:0:0:0:
192,192,24340,128,0,24490:0:0:0:0:
320,192,24340,1,0,0:0:0:0:
448,192,24415,128,0,24490:0:0:0:0:
64,192,24490,1,0,0:0:0:0:
320,192,24490,128,0,24640:0:0:0:0:
448,192,24565,128,0,24640:0:0:0:0:
64,192,24640,128,0,24790:0:0:0:0:
192,192,24640,1,0,0:0:0:0:
320,192,24715,128,0,24790:0:0:0:0:
192,192,24790,128,0,24940:0:0:0:0:
448,192,24790,1,0,0:0:0:0:
64,192,24865,128,0,24940:0:0:0:0:
320,192,24940,1,8,0:0:0:0:
448,192,24940,128,0,25090:0:0:0:0:
192,192,25015,128,0,25090:0:0:0:0:
64,192,25090,1,0,0:0:0:0:
320,192,25090,128,0,25240:0:0:0:0:
448,192,25165,128,0,25240:0:0:0:0:
64,192,25240,1,0,0:0:0:0:
192,192,25240,1,0,0:0:0:0:
320,192,25390,1,0,0:0:0:0:
192,192,25465,1,0,0:0:0:0:
64,192,25540,1,8,0:0:0:0:
320,192,25540,1,0,0:0:0:0:
448,192,25540,1,0,0:0:0:0:
192,192,25690,1,0,0:0:0:0:
448,192,25690,1,0,0:0:0:0:
320,192,25765,1,0,0:0:0:0:
64,192,25840,1,0,0:0:0:0:
192,192,25915,1,0,0:0:0:0:
320,192,25990,1,0,0:0:0:0:
448,192,25990,1,0,0:0:0:0:
192,192,26065,1,0,0:0:0:0:
64,192,26140,1,8,0:0:0:0:
320,192,26140,1,0,0:0:0:0:
448,192,26140,1,0,0:0:0:0:
192,192,26290,1,0,0:0:0:0:
448,192,26290,1,0,0:0:0:0:
320,192,26365,1,0,0:0:0:0:
64,192,26440,1,0,0:0:0:0:
192,192,26440,1,0,0:0:0:0:
448,192,26440,1,0,0:0:0:0:
320,192,26590,1,0,0:0:0:0:
192,192,26665,1,0,0:0:0:0:
64,192,26740,1,8,0:0:0:0:
320,192,26740,1,0,0:0:0:0:
448,192,26740,1,0,0:0:0:0:
64,192,26890,1,0,0:0:0:0:
192,192,26890,1,0,0:0:0:0:
448,192,26965,1,0,0:0:0:0:
192,192,27040,1,0,0:0:0:0:
320,192,27115,1,0,0:0:0:0:
192,192,27190,1,0,0:0:0:0:
448,192,27190,1,0,0:0:0:0:
64,192,27265,1,0,0:0:0:0:
192,192,27340,1,8,0:0:0:0:
320,192,27340,1,0,0:0:0:0:
448,192,27340,1,0,0:0:0:0:
64,192,27490,1,0,0:0:0:0:
448,192,27565,1,0,0:0:0:0:
64,192,27640,1,0,0:0:0:0:
192,192,27640,1,0,0:0:0:0:
320,192,27640,1,0,0:0:0:0:
192,192,27790,1,0,0:0:0:0:
320,192,27865,1,0,0:0:0:0:
64,192,27940,1,8,0:0:0:0:
192,192,27940,1,0,0:0:0:0:
448,192,27940,1,0,0:0:0:0:
64,192,28090,1,0,0:0:0:0:
320,192,28090,1,0,0:0:0:0:
448,192,28165,1,0,0:0:0:0:
192,192,28240,1,0,0:0:0:0:
64,192,28315,1,0,0:0:0:0:
320,192,28390,1,0,0:0:0:0:
448,192,28390,1,0,0:0:0:0:
192,192,28440,1,0,0:0:0:0:
320,192,28490,1,0,0:0:0:0:
64,192,28540,1,8,0:0:0:0:
192,192,28540,1,0,0:0:0:0:
448,192,28540,1,0,0:0:0:0:
320,192,28690,1,0,0:0:0:0:
448,192,28690,1,0,0:0:0:0:
64,192,28765,1,0,0:0:0:0:
192,192,28765,1,0,0:0:0:0:
320,192,28840,128,0,29065:0:0:0:0:
448,192,28840,128,0,29140:0:0:0:0:
64,192,29140,1,8,0:0:0:0:
192,192,29140,128,0,29290:0:0:0:0:
320,192,29140,1,0,0:0:0:0:
448,192,29215,128,0,29290:0:0:0:0:
64,192,29290,128,0,29440:0:0:0:0:
320,192,29290,1,0,0:0:0:0:
192,192,29365,128,0,29440:0:0:0:0:
320,192,29440,128,0,29590:0:0:0:0:
448,192,29440,1,0,0:0:0:0:
64,192,29515,128,0,29590:0:0:0:0:
192,192,29590,1,0,0:0:0:0:
448,192,29590,128,0,29740:0:0:0:0:
64,192,29665,128,0,29740:0:0:0:0:
192,192,29740,128,8,29890:0:0:0:0:
320,192,29740,1,0,0:0:0:0:
448,192,29815,128,0,29890:0:0:0:0:
64,192,29890,1,0,0:0:0:0:
320,192,29890,128,0,30040:0:0:0:0:
192,192,29965,128,0,30040:0:0:0:0:
64,192,30040,1,8,0:0:0:0:
448,192,30040,1,0,0:0:0:0:
192,192,30190,1,0,0:0:0:0:
448,192,30190,1,0,0:0:0:0:
64,192,30265,1,0,0:0:0:0:
192,192,30340,1,8,0:0:0:0:
320,192,30340,1,0,0:0:0:0:
448,192,30340,1,0,0:0:0:0:
64,192,30490,1,0,0:0:0:0:
320,192,30490,1,0,0:0:0:0:
448,192,30565,1,0,0:0:0:0:
64,192,30640,1,8,0:0:0:0:
192,192,30640,1,0,0:0:0:0:
320,192,30640,1,0,0:0:0:0:
192,192,30790,1,0,0:0:0:0:
448,192,30790,1,0,0:0:0:0:
320,192,30865,1,0,0:0:0:0:
64,192,30940,1,8,0:0:0:0:
192,192,30940,1,0,0:0:0:0:
448,192,30940,1,0,0:0:0:0:
64,192,31015,1,0,0:0:0:0:
192,192,31015,1,0,0:0:0:0:
320,192,31090,1,0,0:0:0:0:
448,192,31090,1,0,0:0:0:0:
64,192,31240,1,0,0:0:0:0:
192,192,31240,1,0,0:0:0:0:
448,192,31240,1,0,0:0:0:0:
320,192,31315,1,0,0:0:0:0:
64,192,31390,1,0,0:0:0:0:
192,192,31390,1,0,0:0:0:0:
320,192,31465,1,0,0:0:0:0:
64,192,31540,1,8,0:0:0:0:
192,192,31540,1,0,0:0:0:0:
448,192,31540,1,0,0:0:0:0:
320,192,31615,1,0,0:0:0:0:
64,192,31690,1,0,0:0:0:0:
448,192,31690,1,0,0:0:0:0:
192,192,31765,1,0,0:0:0:0:
320,192,31840,1,0,0:0:0:0:
448,192,31840,1,0,0:0:0:0:
192,192,31915,1,0,0:0:0:0:
320,192,31990,1,0,0:0:0:0:
448,192,31990,1,0,0:0:0:0:
192,192,32065,1,0,0:0:0:0:
64,192,32140,1,8,0:0:0:0:
320,192,32140,1,0,0:0:0:0:
448,192,32140,1,0,0:0:0:0:
192,192,32215,1,0,0:0:0:0:
64,192,32290,1,0,0:0:0:0:
448,192,32290,1,0,0:0:0:0:
192,192,32365,1,0,0:0:0:0:
64,192,32440,1,0,0:0:0:0:
320,192,32440,1,0,0:0:0:0:
448,192,32440,1,0,0:0:0:0:
64,192,32665,1,0,0:0:0:0:
192,192,32702,1,0,0:0:0:0:
320,192,32740,1,0,0:0:0:0:
448,192,32740,128,0,33640:0:0:0:0:
64,192,33640,1,4,0:0:0:0:
192,192,33640,1,0,0:0:0:0:
320,192,33640,1,0,0:0:0:0:
64,192,33715,1,0,0:0:0:0:
448,192,33715,1,0,0:0:0:0:
320,192,33790,1,0,0:0:0:0:
192,192,33865,1,0,0:0:0:0:
64,192,33940,1,8,0:0:0:0:
448,192,33940,1,0,0:0:0:0:
192,192,34015,1,0,0:0:0:0:
320,192,34015,1,0,0:0:0:0:
448,192,34090,1,0,0:0:0:0:
64,192,34165,1,0,0:0:0:0:
192,192,34165,1,0,0:0:0:0:
320,192,34240,1,0,0:0:0:0:
64,192,34315,1,0,0:0:0:0:
448,192,34315,1,0,0:0:0:0:
320,192,34390,1,0,0:0:0:0:
192,192,34465,1,0,0:0:0:0:
64,192,34540,1,8,0:0:0:0:
448,192,34540,1,0,0:0:0:0:
192,192,34615,1,0,0:0:0:0:
320,192,34615,1,0,0:0:0:0:
448,192,34690,1,0,0:0:0:0:
64,192,34765,1,0,0:0:0:0:
192,192,34765,1,0,0:0:0:0:
320,192,34840,1,0,0:0:0:0:
64,192,34915,1,0,0:0:0:0:
448,192,34915,1,0,0:0:0:0:
320,192,34990,1,0,0:0:0:0:
192,192,35065,1,0,0:0:0:0:
64,192,35140,1,8,0:0:0:0:
448,192,35140,1,0,0:0:0:0:
192,192,35215,1,0,0:0:0:0:
320,192,35215,1,0,0:0:0:0:
448,192,35290,1,0,0:0:0:0:
64,192,35365,1,0,0:0:0:0:
192,192,35365,1,0,0:0:0:0:
320,192,35440,128,0,35665:0:0:0:0:
448,192,35440,1,0,0:0:0:0:
64,192,35515,1,0,0:0:0:0:
448,192,35590,1,0,0:0:0:0:
64,192,35665,1,0,0:0:0:0:
192,192,35665,128,0,35890:0:0:0:0:
448,192,35740,1,8,0:0:0:0:
64,192,35815,1,0,0:0:0:0:
320,192,35890,128,0,36040:0:0:0:0:
448,192,35890,1,0,0:0:0:0:
64,192,35965,1,0,0:0:0:0:
192,192,36040,1,0,0:0:0:0:
448,192,36040,1,0,0:0:0:0:
64,192,36115,1,0,0:0:0:0:
320,192,36115,1,0,0:0:0:0:
192,192,36190,1,0,0:0:0:0:
448,192,36265,1,0,0:0:0:0:
64,192,36340,1,8,0:0:0:0:
320,192,36340,1,0,0:0:0:0:
192,192,36415,1,0,0:0:0:0:
448,192,36415,1,0,0:0:0:0:
320,192,36490,1,0,0:0:0:0:
64,192,36565,1,0,0:0:0:0:
192,192,36565,1,0,0:0:0:0:
448,192,36640,1,0,0:0:0:0:
64,192,36715,1,0,0:0:0:0:
320,192,36715,1,0,0:0:0:0:
192,192,36790,1,0,0:0:0:0:
448,192,36865,1,0,0:0:0:0:
64,192,36940,1,8,0:0:0:0:
320,192,36940,1,0,0:0:0:0:
192,192,37015,1,0,0:0:0:0:
448,192,37015,1,0,0:0:0:0:
320,192,37090,1,0,0:0:0:0:
64,192,37165,1,0,0:0:0:0:
192,192,37165,1,0,0:0:0:0:
448,192,37240,1,0,0:0:0:0:
64,192,37315,1,0,0:0:0:0:
320,192,37315,1,0,0:0:0:0:
192,192,37390,1,0,0:0:0:0:
448,192,37465,1,0,0:0:0:0:
64,192,37540,1,8,0:0:0:0:
320,192,37540,1,0,0:0:0:0:
192,192,37615,1,0,0:0:0:0:
448,192,37615,1,0,0:0:0:0:
320,192,37690,1,0,0:0:0:0:
64,192,37765,1,0,0:0:0:0:
192,192,37765,1,0,0:0:0:0:
320,192,37840,1,0,0:0:0:0:
448,192,37840,128,0,37990:0:0:0:0:
192,192,37915,1,0,0:0:0:0:
64,192,37990,128,0,38140:0:0:0:0:
320,192,37990,1,0,0:0:0:0:
192,192,38065,1,0,0:0:0:0:
320,192,38140,1,8,0:0:0:0:
448,192,38140,128,0,38290:0:0:0:0:
192,192,38215,1,0,0:0:0:0:
64,192,38290,128,0,38440:0:0:0:0:
320,192,38290,1,0,0:0:0:0:
192,192,38365,1,0,0:0:0:0:
320,192,38440,1,0,0:0:0:0:
448,192,38440,1,0,0:0:0:0:
64,192,38515,1,0,0:0:0:0:
192,192,38515,1,0,0:0:0:0:
320,192,38590,1,0,0:0:0:0:
192,192,38665,1,0,0:0:0:0:
64,192,38740,1,8,0:0:0:0:
448,192,38740,1,0,0:0:0:0:
192,192,38815,1,0,0:0:0:0:
320,192,38815,1,0,0:0:0:0:
448,192,38890,1,0,0:0:0:0:
64,192,38965,1,0,0:0:0:0:
192,192,38965,1,0,0:0:0:0:
320,192,39040,1,0,0:0:0:0:
64,192,39115,1,0,0:0:0:0:
448,192,39115,1,0,0:0:0:0:
320,192,39190,1,0,0:0:0:0:
192,192,39265,1,0,0:0:0:0:
64,192,39340,1,8,0:0:0:0:
448,192,39340,1,0,0:0:0:0:
192,192,39415,1,0,0:0:0:0:
320,192,39415,1,0,0:0:0:0:
448,192,39490,1,0,0:0:0:0:
64,192,39565,1,0,0:0:0:0:
192,192,39565,1,0,0:0:0:0:
320,192,39640,1,0,0:0:0:0:
64,192,39715,1,0,0:0:0:0:
448,192,39715,1,0,0:0:0:0:
320,192,39790,1,0,0:0:0:0:
192,192,39865,1,0,0:0:0:0:
64,192,39940,1,8,0:0:0:0:
448,192,39940,1,0,0:0:0:0:
192,192,40015,1,0,0:0:0:0:
320,192,40015,1,0,0:0:0:0:
448,192,40090,1,0,0:0:0:0:
64,192,40165,1,0,0:0:0:0:
192,192,40165,1,0,0:0:0:0:
320,192,40240,128,0,40465:0:0:0:0:
448,192,40240,1,0,0:0:0:0:
64,192,40315,1,0,0:0:0:0:
448,192,40390,1,0,0:0:0:0:
64,192,40465,1,0,0:0:0:0:
192,192,40465,128,0,40690:0:0:0:0:
448,192,40540,1,8,0:0:0:0:
64,192,40615,1,0,0:0:0:0:
320,192,40690,128,0,40840:0:0:0:0:
448,192,40690,1,0,0:0:0:0:
64,192,40765,1,0,0:0:0:0:
192,192,40840,1,0,0:0:0:0:
448,192,40840,1,0,0:0:0:0:
64,192,40990,1,0,0:0:0:0:
320,192,40990,1,0,0:0:0:0:
192,192,41065,1,0,0:0:0:0:
64,192,41140,1,0,0:0:0:0:
320,192,41140,1,0,0:0:0:0:
448,192,41140,1,0,0:0:0:0:
64,192,41290,1,0,0:0:0:0:
192,192,41290,1,0,0:0:0:0:
320,192,41365,1,0,0:0:0:0:
448,192,41365,1,0,0:0:0:0:
64,192,41440,1,0,0:0:0:0:
192,192,41440,1,0,0:0:0:0:
192,192,41590,1,0,0:0:0:0:
448,192,41590,1,0,0:0:0:0:
320,192,41665,1,0,0:0:0:0:
64,192,41740,1,0,0:0:0:0:
192,192,41740,1,0,0:0:0:0:
448,192,41740,1,0,0:0:0:0:
320,192,41890,1,0,0:0:0:0:
448,192,41890,1,0,0:0:0:0:
64,192,41965,1,0,0:0:0:0:
192,192,41965,1,0,0:0:0:0:
64,192,42040,1,0,0:0:0:0:
320,192,42040,1,0,0:0:0:0:
448,192,42040,1,0,0:0:0:0:
192,192,42115,1,0,0:0:0:0:
64,192,42190,128,0,42415:0:0:0:0:
320,192,42190,1,0,0:0:0:0:
448,192,42190,1,0,0:0:0:0:
192,192,42265,128,0,42415:0:0:0:0:
320,192,42340,128,0,42415:0:0:0:0:
448,192,42415,1,0,0:0:0:0:
192,192,42490,1,0,0:0:0:0:
320,192,42490,128,0,42640:0:0:0:0:
448,192,42490,128,0,42790:0:0:0:0:
64,192,42790,128,0,43165:0:0:0:0:
192,192,42790,128,0,42940:0:0:0:0:
320,192,42790,1,0,0:0:0:0:
64,192,43240,1,4,0:0:0:0:
192,192,43240,1,0,0:0:0:0:
448,192,43240,1,0,0:0:0:0:
64,192,43315,1,0,0:0:0:0:
320,192,43315,1,0,0:0:0:0:
192,192,43390,1,0,0:0:0:0:
448,192,43465,1,0,0:0:0:0:
64,192,43540,1,8,0:0:0:0:
320,192,43540,1,0,0:0:0:0:
192,192,43615,1,0,0:0:0:0:
448,192,43615,1,0,0:0:0:0:
320,192,43690,1,0,0:0:0:0:
64,192,43765,1,0,0:0:0:0:
192,192,43765,1,0,0:0:0:0:
448,192,43840,1,0,0:0:0:0:
64,192,43915,1,0,0:0:0:0:
320,192,43915,1,0,0:0:0:0:
192,192,43990,1,0,0:0:0:0:
448,192,44065,1,0,0:0:0:0:
64,192,44140,1,8,0:0:0:0:
320,192,44140,1,0,0:0:0:0:
192,192,44215,1,0,0:0:0:0:
448,192,44215,1,0,0:0:0:0:
320,192,44290,1,0,0:0:0:0:
64,192,44365,1,0,0:0:0:0:
192,192,44365,1,0,0:0:0:0:
448,192,44440,1,0,0:0:0:0:
64,192,44515,1,0,0:0:0:0:
320,192,44515,1,0,0:0:0:0:
192,192,44590,1,0,0:0:0:0:
448,192,44665,1,0,0:0:0:0:
64,192,44740,1,8,0:0:0:0:
320,192,44740,1,0,0:0:0:0:
192,192,44815,1,0,0:0:0:0:
448,192,44815,1,0,0:0:0:0:
320,192,44890,1,0,0:0:0:0:
64,192,44965,1,0,0:0:0:0:
192,192,44965,1,0,0:0:0:0:
320,192,45040,1,0,0:0:0:0:
448,192,45040,128,0,45265:0:0:0:0:
192,192,45115,1,0,0:0:0:0:
320,192,45190,1,0,0:0:0:0:
64,192,45265,128,0,45490:0:0:0:0:
192,192,45265,1,0,0:0:0:0:
320,192,45340,1,8,0:0:0:0:
192,192,45415,1,0,0:0:0:0:
320,192,45490,1,0,0:0:0:0:
448,192,45490,128,0,45640:0:0:0:0:
192,192,45565,1,0,0:0:0:0:
64,192,45640,1,0,0:0:0:0:
320,192,45640,1,0,0:0:0:0:
192,192,45715,1,0,0:0:0:0:
448,192,45715,1,0,0:0:0:0:
64,192,45790,1,0,0:0:0:0:
320,192,45865,1,0,0:0:0:0:
192,192,45940,1,8,0:0:0:0:
448,192,45940,1,0,0:0:0:0:
64,192,46015,1,0,0:0:0:0:
320,192,46015,1,0,0:0:0:0:
448,192,46090,1,0,0:0:0:0:
64,192,46165,1,0,0:0:0:0:
192,192,46165,1,0,0:0:0:0:
320,192,46240,1,0,0:0:0:0:
192,192,46315,1,0,0:0:0:0:
448,192,46315,1,0,0:0:0:0:
64,192,46390,1,0,0:0:0:0:
320,192,46465,1,0,0:0:0:0:
192,192,46540,1,8,0:0:0:0:
448,192,46540,1,0,0:0:0:0:
64,192,46615,1,0,0:0:0:0:
320,192,46615,1,0,0:0:0:0:
448,192,46690,1,0,0:0:0:0:
64,192,46765,1,0,0:0:0:0:
192,192,46765,1,0,0:0:0:0:
320,192,46840,1,0,0:0:0:0:
192,192,46915,1,0,0:0:0:0:
448,192,46915,1,0,0:0:0:0:
64,192,46990,1,0,0:0:0:0:
320,192,47065,1,0,0:0:0:0:
192,192,47140,1,8,0:0:0:0:
448,192,47140,1,0,0:0:0:0:
64,192,47215,1,0,0:0:0:0:
320,192,47215,1,0,0:0:0:0:
448,192,47290,1,0,0:0:0:0:
64,192,47365,1,0,0:0:0:0:
192,192,47365,1,0,0:0:0:0:
320,192,47440,128,0,47590:0:0:0:0:
448,192,47440,1,0,0:0:0:0:
64,192,47515,1,0,0:0:0:0:
192,192,47590,128,0,47740:0:0:0:0:
448,192,47590,1,0,0:0:0:0:
64,192,47665,1,0,0:0:0:0:
320,192,47740,128,8,47890:0:0:0:0:
448,192,47740,1,0,0:0:0:0:
64,192,47815,1,0,0:0:0:0:
192,192,47890,128,0,48040:0:0:0:0:
448,192,47890,1,0,0:0:0:0:
64,192,47965,1,0,0:0:0:0:
320,192,48040,1,4,0:0:0:0:
448,192,48040,1,0,0:0:0:0:
64,192,48115,1,0,0:0:0:0:
192,192,48190,1,0,0:0:0:0:
448,192,48190,1,0,0:0:0:0:
320,192,48265,1,0,0:0:0:0:
64,192,48340,1,8,0:0:0:0:
192,192,48340,1,0,0:0:0:0:
448,192,48340,1,0,0:0:0:0:
320,192,48415,1,0,0:0:0:0:
192,192,48490,1,0,0:0:0:0:
448,192,48490,1,0,0:0:0:0:
64,192,48565,1,0,0:0:0:0:
320,192,48565,1,0,0:0:0:0:
192,192,48640,1,0,0:0:0:0:
448,192,48640,1,0,0:0:0:0:
64,192,48715,1,0,0:0:0:0:
320,192,48790,1,0,0:0:0:0:
448,192,48790,1,0,0:0:0:0:
192,192,48865,1,0,0:0:0:0:
64,192,48940,1,8,0:0:0:0:
320,192,48940,1,0,0:0:0:0:
448,192,48940,1,0,0:0:0:0:
192,192,49015,1,0,0:0:0:0:
64,192,49090,1,0,0:0:0:0:
448,192,49090,1,0,0:0:0:0:
192,192,49165,1,0,0:0:0:0:
320,192,49165,1,0,0:0:0:0:
64,192,49240,1,4,0:0:0:0:
448,192,49240,1,0,0:0:0:0:
320,192,49315,1,0,0:0:0:0:
64,192,49390,1,0,0:0:0:0:
192,192,49390,1,0,0:0:0:0:
448,192,49465,1,0,0:0:0:0:
64,192,49540,1,8,0:0:0:0:
192,192,49540,1,0,0:0:0:0:
320,192,49540,1,0,0:0:0:0:
448,192,49615,1,0,0:0:0:0:
64,192,49690,1,0,0:0:0:0:
320,192,49690,1,0,0:0:0:0:
192,192,49765,1,0,0:0:0:0:
448,192,49765,1,0,0:0:0:0:
64,192,49840,1,0,0:0:0:0:
320,192,49840,128,0,50065:0:0:0:0:
192,192,49915,1,0,0:0:0:0:
64,192,49990,1,0,0:0:0:0:
448,192,49990,1,0,0:0:0:0:
192,192,50065,128,0,50290:0:0:0:0:
64,192,50140,1,8,0:0:0:0:
320,192,50140,1,0,0:0:0:0:
448,192,50215,1,0,0:0:0:0:
64,192,50290,1,0,0:0:0:0:
320,192,50290,128,0,50440:0:0:0:0:
192,192,50365,1,0,0:0:0:0:
64,192,50440,1,4,0:0:0:0:
448,192,50440,1,0,0:0:0:0:
192,192,50515,1,0,0:0:0:0:
320,192,50515,1,0,0:0:0:0:
64,192,50590,1,0,0:0:0:0:
448,192,50590,1,0,0:0:0:0:
192,192,50665,1,0,0:0:0:0:
320,192,50740,1,0,0:0:0:0:
448,192,50740,1,0,0:0:0:0:
64,192,50815,1,0,0:0:0:0:
192,192,50815,1,0,0:0:0:0:
320,192,50890,1,0,0:0:0:0:
448,192,50890,1,0,0:0:0:0:
192,192,50965,1,0,0:0:0:0:
64,192,51040,1,4,0:0:0:0:
448,192,51040,1,0,0:0:0:0:
192,192,51115,1,0,0:0:0:0:
320,192,51115,1,0,0:0:0:0:
64,192,51190,1,0,0:0:0:0:
448,192,51190,1,0,0:0:0:0:
320,192,51265,1,0,0:0:0:0:
64,192,51340,1,0,0:0:0:0:
192,192,51340,1,0,0:0:0:0:
320,192,51415,1,0,0:0:0:0:
448,192,51415,1,0,0:0:0:0:
64,192,51490,1,0,0:0:0:0:
192,192,51490,1,0,0:0:0:0:
320,192,51565,1,0,0:0:0:0:
64,192,51640,1,0,0:0:0:0:
448,192,51640,1,0,0:0:0:0:
192,192,51690,1,0,0:0:0:0:
320,192,51740,1,0,0:0:0:0:
192,192,51790,1,0,0:0:0:0:
448,192,51790,1,0,0:0:0:0:
64,192,51840,1,0,0:0:0:0:
320,192,51890,1,0,0:0:0:0:
64,192,51940,1,0,0:0:0:0:
448,192,51940,1,0,0:0:0:0:
192,192,51990,1,0,0:0:0:0:
448,192,52040,1,0,0:0:0:0:
64,192,52090,1,0,0:0:0:0:
320,192,52090,1,0,0:0:0:0:
192,192,52140,1,0,0:0:0:0:
320,192,52190,1,0,0:0:0:0:
64,192,52240,128,0,52390:0:0:0:0:
448,192,52240,128,0,52540:0:0:0:0:
192,192,52390,128,0,52765:0:0:0:0:
320,192,52390,128,0,52540:0:0:0:0:
64,192,52540,128,0,52765:0:0:0:0:
320,192,52690,128,0,52765:0:0:0:0:
448,192,52690,128,0,52765:0:0:0:0:
64,192,52840,128,4,53140:0:0:0:0:
192,192,52840,1,0,0:0:0:0:
320,192,52840,1,0,0:0:0:0:
448,192,52840,128,0,53140:0:0:0:0:
192,192,53140,128,0,53440:0:0:0:0:
320,192,53140,128,0,53440:0:0:0:0:
64,192,53440,1,0,0:0:0:0:
448,192,53440,1,0,0:0:0:0:
192,192,53477,1,0,0:0:0:0:
320,192,53515,1,0,0:0:0:0:
64,192,53552,1,0,0:0:0:0:
448,192,53552,1,0,0:0:0:0:
192,192,53590,1,0,0:0:0:0:
320,192,53627,1,0,0:0:0:0:
64,192,53665,1,0,0:0:0:0:
448,192,53665,1,0,0:0:0:0:
192,192,53702,1,0,0:0:0:0:
320,192,53740,128,4,54490:0:0:0:0:
448,192,53740,128,0,54490:0:0:0:0:
320,192,55240,1,0,0:0:0:0:
192,192,55277,1,0,0:0:0:0:
320,192,55315,1,0,0:0:0:0:
192,192,55352,1,0,0:0:0:0:
64,192,55390,128,4,55690:0:0:0:0:
320,192,55390,1,0,0:0:0:0:
448,192,55390,128,0,55690:0:0:0:0:
192,192,55915,128,4,56065:0:0:0:0:
320,192,55915,1,0,0:0:0:0:
448,192,55915,128,0,56065:0:0:0:0:
64,192,56215,128,4,56590:0:0:0:0:
192,192,56215,1,0,0:0:0:0:
320,192,56215,128,0,56590:0:0:0:0:
192,192,56590,128,0,56665:0:0:0:0:
448,192,56590,1,0,0:0:0:0:
64,192,56665,128,0,56740:0:0:0:0:
320,192,56740,128,0,56815:0:0:0:0:
448,192,56740,1,0,0:0:0:0:
192,192,56815,128,0,56890:0:0:0:0:
64,192,56890,128,4,57190:0:0:0:0:
320,192,56890,128,0,57040:0:0:0:0:
448,192,56890,128,0,57190:0:0:0:0:
192,192,57340,128,4,57490:0:0:0:0:
320,192,57340,1,0,0:0:0:0:
448,192,57340,128,0,57640:0:0:0:0:
64,192,57490,1,0,0:0:0:0:
64,192,57640,128,4,57940:0:0:0:0:
192,192,57640,1,0,0:0:0:0:
320,192,57640,128,0,57715:0:0:0:0:
192,192,57790,128,4,57940:0:0:0:0:
320,192,57790,1,0,0:0:0:0:
448,192,57790,128,0,58240:0:0:0:0:
64,192,58090,128,4,58540:0:0:0:0:
192,192,58090,128,0,58390:0:0:0:0:
320,192,58090,128,0,58240:0:0:0:0:
320,192,58615,1,0,0:0:0:0:
192,192,58652,1,0,0:0:0:0:
64,192,58690,1,4,0:0:0:0:
320,192,58690,128,0,58990:0:0:0:0:
448,192,58690,128,0,59140:0:0:0:0:
64,192,59290,1,0,0:0:0:0:
192,192,59290,1,0,0:0:0:0:
320,192,59365,1,0,0:0:0:0:
64,192,59440,128,4,59740:0:0:0:0:
192,192,59440,128,0,59590:0:0:0:0:
448,192,59440,1,0,0:0:0:0:
192,192,59740,1,4,0:0:0:0:
320,192,59740,128,0,59890:0:0:0:0:
448,192,59740,128,0,60040:0:0:0:0:
64,192,59890,1,0,0:0:0:0:
320,192,59965,1,0,0:0:0:0:
192,192,60040,1,0,0:0:0:0:
448,192,60115,1,0,0:0:0:0:
64,192,60190,1,0,0:0:0:0:
320,192,60265,1,0,0:0:0:0:
64,192,60340,128,0,60640:0:0:0:0:
192,192,60340,128,0,60490:0:0:0:0:
448,192,60415,1,0,0:0:0:0:
320,192,60490,1,0,0:0:0:0:
192,192,60565,1,0,0:0:0:0:
320,192,60640,1,0,0:0:0:0:
448,192,60640,1,0,0:0:0:0:
192,192,60715,1,0,0:0:0:0:
64,192,60790,1,0,0:0:0:0:
320,192,60940,1,0,0:0:0:0:
448,192,60940,1,0,0:0:0:0:
192,192,60977,1,0,0:0:0:0:
64,192,61015,1,0,0:0:0:0:
320,192,61090,1,0,0:0:0:0:
448,192,61090,1,0,0:0:0:0:
192,192,61165,1,0,0:0:0:0:
64,192,61240,128,0,61465:0:0:0:0:
320,192,61240,1,0,0:0:0:0:
448,192,61240,128,0,61465:0:0:0:0:
64,192,61540,1,2,0:0:0:0:
192,192,61540,1,0,0:0:0:0:
320,192,61540,1,0,0:0:0:0:
448,192,61540,1,0,0:0:0:0:
192,192,61765,1,0,0:0:0:0:
64,192,61840,1,0,0:0:0:0:
320,192,61915,1,0,0:0:0:0:
448,192,61915,1,0,0:0:0:0:
192,192,61990,1,0,0:0:0:0:
448,192,61990,1,0,0:0:0:0:
64,192,62065,1,0,0:0:0:0:
320,192,62140,1,0,0:0:0:0:
64,192,62215,1,0,0:0:0:0:
192,192,62215,1,0,0:0:0:0:
64,192,62290,1,0,0:0:0:0:
448,192,62290,1,0,0:0:0:0:
320,192,62365,1,0,0:0:0:0:
64,192,62440,1,4,0:0:0:0:
192,192,62440,1,0,0:0:0:0:
448,192,62440,128,0,62665:0:0:0:0:
320,192,62590,128,0,62665:0:0:0:0:
64,192,62740,128,0,63040:0:0:0:0:
448,192,62740,1,0,0:0:0:0:
320,192,63040,128,0,63265:0:0:0:0:
448,192,63040,1,0,0:0:0:0:
192,192,63190,128,0,63265:0:0:0:0:
64,192,63340,1,0,0:0:0:0:
320,192,63415,128,0,63565:0:0:0:0:
448,192,63490,128,0,63565:0:0:0:0:
64,192,63640,1,0,0:0:0:0:
448,192,63640,128,0,63715:0:0:0:0:
448,192,63790,1,0,0:0:0:0:
320,192,63840,1,0,0:0:0:0:
192,192,63890,1,0,0:0:0:0:
64,192,63940,128,0,64240:0:0:0:0:
448,192,63940,1,0,0:0:0:0:
320,192,64240,128,0,64465:0:0:0:0:
448,192,64240,1,0,0:0:0:0:
192,192,64390,128,0,64465:0:0:0:0:
64,192,64540,1,0,0:0:0:0:
320,192,64615,128,0,64765:0:0:0:0:
64,192,64690,1,0,0:0:0:0:
192,192,64690,1,0,0:0:0:0:
448,192,64690,128,0,64765:0:0:0:0:
64,192,64840,1,4,0:0:0:0:
320,192,64840,1,0,0:0:0:0:
448,192,64840,128,0,64915:0:0:0:0:
448,192,64990,1,0,0:0:0:0:
320,192,65040,1,0,0:0:0:0:
192,192,65090,1,0,0:0:0:0:
64,192,65140,128,0,65440:0:0:0:0:
448,192,65140,1,0,0:0:0:0:
320,192,65440,128,0,65665:0:0:0:0:
448,192,65440,1,0,0:0:0:0:
192,192,65590,128,0,65665:0:0:0:0:
64,192,65740,1,0,0:0:0:0:
320,192,65815,128,0,65965:0:0:0:0:
448,192,65890,128,0,65965:0:0:0:0:
64,192,66040,1,0,0:0:0:0:
448,192,66040,128,0,66115:0:0:0:0:
448,192,66190,1,0,0:0:0:0:
320,192,66240,1,0,0:0:0:0:
192,192,66290,1,0,0:0:0:0:
64,192,66340,128,0,66640:0:0:0:0:
448,192,66340,1,0,0:0:0:0:
320,192,66640,128,0,66865:0:0:0:0:
448,192,66640,1,0,0:0:0:0:
192,192,66790,128,0,66865:0:0:0:0:
64,192,66940,1,0,0:0:0:0:
320,192,67015,128,0,67165:0:0:0:0:
64,192,67090,1,0,0:0:0:0:
192,192,67090,1,0,0:0:0:0:
448,192,67090,128,0,67165:0:0:0:0:
64,192,67240,1,4,0:0:0:0:
192,192,67240,1,0,0:0:0:0:
448,192,67240,128,0,67315:0:0:0:0:
448,192,67390,128,0,67465:0:0:0:0:
64,192,67540,128,0,67840:0:0:0:0:
448,192,67540,1,0,0:0:0:0:
320,192,67840,128,0,68065:0:0:0:0:
448,192,67840,1,0,0:0:0:0:
64,192,67990,1,0,0:0:0:0:
192,192,67990,128,0,68065:0:0:0:0:
64,192,68140,1,0,0:0:0:0:
192,192,68140,1,0,0:0:0:0:
448,192,68140,128,0,68365:0:0:0:0:
64,192,68290,1,0,0:0:0:0:
320,192,68290,1,0,0:0:0:0:
64,192,68440,1,4,0:0:0:0:
192,192,68440,128,0,68665:0:0:0:0:
448,192,68440,1,0,0:0:0:0:
320,192,68590,128,0,68665:0:0:0:0:
64,192,68740,128,0,69040:0:0:0:0:
448,192,68740,1,0,0:0:0:0:
320,192,69040,1,0,0:0:0:0:
448,192,69040,1,0,0:0:0:0:
192,192,69077,1,0,0:0:0:0:
64,192,69115,1,0,0:0:0:0:
320,192,69152,1,0,0:0:0:0:
448,192,69190,1,0,0:0:0:0:
192,192,69227,1,0,0:0:0:0:
64,192,69265,1,0,0:0:0:0:
320,192,69302,1,0,0:0:0:0:
448,192,69340,1,0,0:0:0:0:
64,192,69377,1,0,0:0:0:0:
192,192,69415,1,0,0:0:0:0:
448,192,69452,1,0,0:0:0:0:
320,192,69490,1,0,0:0:0:0:
64,192,69527,1,0,0:0:0:0:
192,192,69565,1,0,0:0:0:0:
448,192,69602,1,0,0:0:0:0:
64,192,69640,128,4,69715:0:0:0:0:
320,192,69640,1,0,0:0:0:0:
64,192,69790,128,0,69940:0:0:0:0:
448,192,69790,1,0,0:0:0:0:
64,192,70090,128,0,70165:0:0:0:0:
448,192,70090,1,0,0:0:0:0:
64,192,70240,1,4,0:0:0:0:
192,192,70240,1,0,0:0:0:0:
448,192,70240,128,0,70440:0:0:0:0:
64,192,70440,1,0,0:0:0:0:
192,192,70540,1,0,0:0:0:0:
320,192,70540,128,0,70690:0:0:0:0:
64,192,70690,1,0,0:0:0:0:
448,192,70690,1,0,0:0:0:0:
64,192,70840,128,4,71665:0:0:0:0:
192,192,70840,1,0,0:0:0:0:
320,192,70840,1,0,0:0:0:0:
448,192,70840,128,0,71815:0:0:0:0:
320,192,70990,1,0,0:0:0:0:
192,192,71215,1,0,0:0:0:0:
320,192,71290,1,0,0:0:0:0:
192,192,71440,1,0,0:0:0:0:
192,192,71515,1,0,0:0:0:0:
320,192,71590,1,0,0:0:0:0:
320,192,71665,1,0,0:0:0:0:
64,192,71740,1,0,0:0:0:0:
64,192,71815,1,0,0:0:0:0:
448,192,71890,1,0,0:0:0:0:
448,192,71965,1,0,0:0:0:0:
64,192,72040,1,4,0:0:0:0:
192,192,72040,1,0,0:0:0:0:
320,192,72040,1,0,0:0:0:0:
64,192,72190,1,0,0:0:0:0:
192,192,72340,1,0,0:0:0:0:
320,192,72340,1,0,0:0:0:0:
448,192,72340,1,0,0:0:0:0:
192,192,72540,1,0,0:0:0:0:
448,192,72540,1,0,0:0:0:0:
64,192,72640,1,0,0:0:0:0:
320,192,72640,1,0,0:0:0:0:
448,192,72640,1,0,0:0:0:0:
320,192,72790,1,0,0:0:0:0:
64,192,72940,1,0,0:0:0:0:
192,192,72940,1,0,0:0:0:0:
448,192,72940,1,0,0:0:0:0:
320,192,73015,1,0,0:0:0:0:
192,192,73090,1,0,0:0:0:0:
64,192,73240,1,0,0:0:0:0:
320,192,73240,1,0,0:0:0:0:
448,192,73240,1,0,0:0:0:0:
192,192,73390,1,0,0:0:0:0:
320,192,73440,1,0,0:0:0:0:
64,192,73490,1,0,0:0:0:0:
192,192,73540,1,0,0:0:0:0:
320,192,73540,1,0,0:0:0:0:
448,192,73540,1,0,0:0:0:0:
64,192,73690,1,0,0:0:0:0:
192,192,73690,1,0,0:0:0:0:
448,192,73690,1,0,0:0:0:0:
64,192,73840,1,0,0:0:0:0:
320,192,73840,1,0,0:0:0:0:
448,192,73840,1,0,0:0:0:0:
192,192,73940,1,0,0:0:0:0:
320,192,73940,1,0,0:0:0:0:
192,192,74040,1,0,0:0:0:0:
448,192,74040,1,0,0:0:0:0:
64,192,74140,1,0,0:0:0:0:
320,192,74140,1,0,0:0:0:0:
448,192,74140,1,0,0:0:0:0:
64,192,74240,1,0,0:0:0:0:
192,192,74240,1,0,0:0:0:0:
320,192,74340,1,0,0:0:0:0:
448,192,74340,1,0,0:0:0:0:
64,192,74440,1,0,0:0:0:0:
192,192,74440,1,0,0:0:0:0:
448,192,74440,1,0,0:0:0:0:
64,192,74590,1,0,0:0:0:0:
192,192,74590,1,0,0:0:0:0:
448,192,74590,1,0,0:0:0:0:
192,192,74740,1,0,0:0:0:0:
320,192,74740,1,0,0:0:0:0:
448,192,74740,1,0,0:0:0:0:
64,192,74890,1,0,0:0:0:0:
192,192,75040,1,0,0:0:0:0:
320,192,75040,1,0,0:0:0:0:
448,192,75040,1,0,0:0:0:0:
64,192,75240,1,0,0:0:0:0:
320,192,75240,1,0,0:0:0:0:
64,192,75340,1,0,0:0:0:0:
192,192,75340,1,0,0:0:0:0:
448,192,75340,1,0,0:0:0:0:
64,192,75490,1,4,0:0:0:0:
320,192,75490,1,0,0:0:0:0:
448,192,75490,1,0,0:0:0:0:
192,192,75640,1,0,0:0:0:0:
320,192,75640,1,0,0:0:0:0:
448,192,75640,1,0,0:0:0:0:
64,192,75790,1,0,0:0:0:0:
320,192,75840,1,0,0:0:0:0:
192,192,75890,1,0,0:0:0:0:
64,192,75940,1,0,0:0:0:0:
320,192,75940,1,0,0:0:0:0:
448,192,75940,1,0,0:0:0:0:
192,192,76015,1,0,0:0:0:0:
320,192,76090,1,0,0:0:0:0:
64,192,76240,1,4,0:0:0:0:
192,192,76240,1,0,0:0:0:0:
448,192,76240,1,0,0:0:0:0:
448,192,76315,1,0,0:0:0:0:
64,192,76390,1,0,0:0:0:0:
320,192,76390,1,0,0:0:0:0:
64,192,76465,1,0,0:0:0:0:
320,192,76540,1,0,0:0:0:0:
448,192,76540,1,0,0:0:0:0:
320,192,76615,1,0,0:0:0:0:
192,192,76690,1,0,0:0:0:0:
192,192,76765,1,0,0:0:0:0:
64,192,76840,1,4,0:0:0:0:
320,192,76840,1,0,0:0:0:0:
448,192,76840,1,0,0:0:0:0:
192,192,76990,1,0,0:0:0:0:
64,192,77140,1,0,0:0:0:0:
320,192,77140,1,0,0:0:0:0:
448,192,77140,1,0,0:0:0:0:
192,192,77340,1,0,0:0:0:0:
320,192,77340,1,0,0:0:0:0:
64,192,77440,1,0,0:0:0:0:
192,192,77440,1,0,0:0:0:0:
448,192,77440,1,0,0:0:0:0:
64,192,77590,1,0,0:0:0:0:
64,192,77740,1,0,0:0:0:0:
192,192,77740,1,0,0:0:0:0:
448,192,77740,1,0,0:0:0:0:
320,192,77815,1,0,0:0:0:0:
192,192,77890,1,0,0:0:0:0:
64,192,78040,1,4,0:0:0:0:
320,192,78040,1,0,0:0:0:0:
448,192,78040,1,0,0:0:0:0:
192,192,78190,1,0,0:0:0:0:
320,192,78240,1,0,0:0:0:0:
64,192,78290,1,0,0:0:0:0:
192,192,78340,1,0,0:0:0:0:
320,192,78340,1,0,0:0:0:0:
448,192,78340,1,0,0:0:0:0:
64,192,78490,1,0,0:0:0:0:
192,192,78490,1,0,0:0:0:0:
448,192,78490,1,0,0:0:0:0:
64,192,78640,1,0,0:0:0:0:
320,192,78640,1,0,0:0:0:0:
448,192,78640,1,0,0:0:0:0:
192,192,78740,1,0,0:0:0:0:
448,192,78740,1,0,0:0:0:0:
64,192,78840,1,0,0:0:0:0:
320,192,78840,1,0,0:0:0:0:
64,192,78940,1,0,0:0:0:0:
192,192,78940,1,0,0:0:0:0:
448,192,78940,1,0,0:0:0:0:
192,192,79040,1,0,0:0:0:0:
320,192,79040,1,0,0:0:0:0:
64,192,79140,1,0,0:0:0:0:
448,192,79140,1,0,0:0:0:0:
64,192,79240,1,4,0:0:0:0:
192,192,79240,1,0,0:0:0:0:
320,192,79240,1,0,0:0:0:0:
448,192,79240,1,0,0:0:0:0:
192,192,79390,1,0,0:0:0:0:
320,192,79390,1,0,0:0:0:0:
448,192,79390,1,0,0:0:0:0:
64,192,79540,1,0,0:0:0:0:
192,192,79540,1,0,0:0:0:0:
448,192,79540,1,0,0:0:0:0:
320,192,79640,1,0,0:0:0:0:
448,192,79640,1,0,0:0:0:0:
64,192,79740,1,0,0:0:0:0:
192,192,79740,1,0,0:0:0:0:
64,192,79840,1,0,0:0:0:0:
320,192,79840,1,0,0:0:0:0:
448,192,79840,1,0,0:0:0:0:
192,192,79990,1,0,0:0:0:0:
320,192,79990,1,0,0:0:0:0:
64,192,80140,1,0,0:0:0:0:
320,192,80140,1,0,0:0:0:0:
448,192,80140,1,0,0:0:0:0:
192,192,80190,1,0,0:0:0:0:
448,192,80240,1,0,0:0:0:0:
64,192,80290,1,4,0:0:0:0:
320,192,80290,1,0,0:0:0:0:
64,192,80440,1,0,0:0:0:0:
192,192,80440,1,0,0:0:0:0:
448,192,80440,1,0,0:0:0:0:
320,192,80590,1,0,0:0:0:0:
192,192,80640,1,0,0:0:0:0:
448,192,80690,1,0,0:0:0:0:
64,192,80740,1,0,0:0:0:0:
192,192,80740,1,0,0:0:0:0:
320,192,80740,1,0,0:0:0:0:
448,192,80815,1,0,0:0:0:0:
64,192,80890,1,0,0:0:0:0:
320,192,80890,1,0,0:0:0:0:
64,192,81040,1,0,0:0:0:0:
192,192,81040,1,0,0:0:0:0:
448,192,81040,1,0,0:0:0:0:
320,192,81115,1,0,0:0:0:0:
64,192,81140,1,0,0:0:0:0:
448,192,81190,1,0,0:0:0:0:
64,192,81240,1,0,0:0:0:0:
320,192,81265,1,0,0:0:0:0:
192,192,81340,1,0,0:0:0:0:
448,192,81340,1,0,0:0:0:0:
64,192,81415,1,0,0:0:0:0:
448,192,81440,1,0,0:0:0:0:
192,192,81490,1,0,0:0:0:0:
448,192,81540,1,0,0:0:0:0:
64,192,81565,1,0,0:0:0:0:
192,192,81640,128,8,82390:0:0:0:0:
320,192,81640,128,0,82390:0:0:0:0:
448,192,81640,128,0,84640:0:0:0:0:
64,192,84640,1,8,0:0:0:0:
192,192,84640,1,0,0:0:0:0:
320,192,84640,1,0,0:0:0:0:
448,192,84715,1,8,0:0:0:0:
192,192,84790,1,8,0:0:0:0:
320,192,84790,1,0,0:0:0:0:
64,192,84865,1,0,0:0:0:0:
192,192,84940,1,0,0:0:0:0:
448,192,84940,1,0,0:0:0:0:
320,192,85015,1,0,0:0:0:0:
64,192,85090,1,0,0:0:0:0:
192,192,85090,1,0,0:0:0:0:
64,192,85240,1,2,0:0:0:0:
320,192,85240,1,2,0:0:0:0:
448,192,85240,1,0,0:0:0:0:
64,192,85540,1,0,0:0:0:0:
192,192,85540,1,0,0:0:0:0:
320,192,85540,1,0,0:0:0:0:
448,192,85540,1,0,0:0:0:0:
192,192,85765,1,0,0:0:0:0:
64,192,85840,1,0,0:0:0:0:
320,192,85840,1,0,0:0:0:0:
192,192,85915,1,0,0:0:0:0:
448,192,85915,1,0,0:0:0:0:
320,192,85990,1,0,0:0:0:0:
64,192,86065,1,0,0:0:0:0:
192,192,86140,1,0,0:0:0:0:
448,192,86140,1,0,0:0:0:0:
320,192,86215,1,0,0:0:0:0:
192,192,86252,1,0,0:0:0:0:
64,192,86290,1,0,0:0:0:0:
448,192,86290,1,0,0:0:0:0:
320,192,86327,1,0,0:0:0:0:
192,192,86365,1,0,0:0:0:0:
64,192,86440,128,0,87865:0:0:0:0:
320,192,86440,1,0,0:0:0:0:
448,192,86440,1,0,0:0:0:0:
192,192,87415,128,0,87790:0:0:0:0:
320,192,87465,128,0,87715:0:0:0:0:
448,192,87515,128,0,87665:0:0:0:0:
64,192,87940,1,8,0:0:0:0:
192,192,87940,1,0,0:0:0:0:
448,192,87940,1,0,0:0:0:0:
320,192,88015,1,0,0:0:0:0:
64,192,88090,1,0,0:0:0:0:
192,192,88090,1,0,0:0:0:0:
448,192,88165,1,0,0:0:0:0:
64,192,88240,1,0,0:0:0:0:
320,192,88240,1,0,0:0:0:0:
192,192,88315,1,0,0:0:0:0:
64,192,88390,1,0,0:0:0:0:
448,192,88390,1,0,0:0:0:0:
320,192,88465,1,0,0:0:0:0:
192,192,88540,1,8,0:0:0:0:
448,192,88540,1,0,0:0:0:0:
320,192,88615,1,0,0:0:0:0:
64,192,88690,1,0,0:0:0:0:
192,192,88690,1,0,0:0:0:0:
448,192,88765,1,0,0:0:0:0:
64,192,88840,1,0,0:0:0:0:
192,192,88840,1,0,0:0:0:0:
320,192,88840,1,0,0:0:0:0:
448,192,88915,1,0,0:0:0:0:
64,192,88990,1,0,0:0:0:0:
320,192,88990,1,0,0:0:0:0:
448,192,89065,1,0,0:0:0:0:
64,192,89140,1,8,0:0:0:0:
192,192,89140,1,0,0:0:0:0:
320,192,89215,1,0,0:0:0:0:
64,192,89290,1,0,0:0:0:0:
448,192,89290,1,0,0:0:0:0:
320,192,89365,1,0,0:0:0:0:
192,192,89440,1,0,0:0:0:0:
448,192,89440,1,0,0:0:0:0:
64,192,89515,1,0,0:0:0:0:
192,192,89590,1,0,0:0:0:0:
448,192,89590,1,0,0:0:0:0:
320,192,89665,1,0,0:0:0:0:
64,192,89740,1,8,0:0:0:0:
448,192,89740,1,0,0:0:0:0:
192,192,89815,1,0,0:0:0:0:
320,192,89890,1,0,0:0:0:0:
448,192,89890,1,0,0:0:0:0:
64,192,89965,1,0,0:0:0:0:
192,192,90040,1,0,0:0:0:0:
320,192,90040,1,0,0:0:0:0:
448,192,90040,1,0,0:0:0:0:
64,192,90115,1,0,0:0:0:0:
320,192,90190,1,0,0:0:0:0:
448,192,90190,1,0,0:0:0:0:
192,192,90265,1,0,0:0:0:0:
64,192,90340,1,8,0:0:0:0:
448,192,90340,1,0,0:0:0:0:
320,192,90415,1,0,0:0:0:0:
64,192,90490,1,0,0:0:0:0:
192,192,90490,1,0,0:0:0:0:
320,192,90565,1,0,0:0:0:0:
64,192,90640,1,0,0:0:0:0:
448,192,90640,1,0,0:0:0:0:
192,192,90715,1,0,0:0:0:0:
320,192,90790,1,0,0:0:0:0:
448,192,90790,1,0,0:0:0:0:
64,192,90865,1,0,0:0:0:0:
192,192,90940,1,8,0:0:0:0:
448,192,90940,1,0,0:0:0:0:
320,192,91015,1,0,0:0:0:0:
64,192,91090,1,0,0:0:0:0:
448,192,91090,1,0,0:0:0:0:
192,192,91165,1,0,0:0:0:0:
320,192,91165,1,0,0:0:0:0:
64,192,91240,1,0,0:0:0:0:
192,192,91240,1,0,0:0:0:0:
448,192,91240,1,0,0:0:0:0:
320,192,91315,1,0,0:0:0:0:
64,192,91390,1,0,0:0:0:0:
448,192,91390,1,0,0:0:0:0:
192,192,91465,1,0,0:0:0:0:
320,192,91540,1,8,0:0:0:0:
448,192,91540,1,0,0:0:0:0:
64,192,91615,1,0,0:0:0:0:
192,192,91690,1,0,0:0:0:0:
320,192,91690,1,0,0:0:0:0:
448,192,91765,1,0,0:0:0:0:
64,192,91840,1,0,0:0:0:0:
320,192,91840,1,0,0:0:0:0:
192,192,91915,1,0,0:0:0:0:
320,192,91990,1,0,0:0:0:0:
448,192,91990,1,0,0:0:0:0:
192,192,92065,1,0,0:0:0:0:
64,192,92140,1,8,0:0:0:0:
448,192,92140,1,0,0:0:0:0:
320,192,92190,1,0,0:0:0:0:
192,192,92240,1,0,0:0:0:0:
64,192,92290,1,0,0:0:0:0:
448,192,92290,1,0,0:0:0:0:
320,192,92340,1,0,0:0:0:0:
192,192,92390,1,0,0:0:0:0:
64,192,92440,1,0,0:0:0:0:
320,192,92440,1,0,0:0:0:0:
448,192,92440,1,0,0:0:0:0:
192,192,92515,1,0,0:0:0:0:
64,192,92590,1,0,0:0:0:0:
320,192,92590,1,0,0:0:0:0:
448,192,92665,1,0,0:0:0:0:
192,192,92740,1,8,0:0:0:0:
320,192,92740,1,0,0:0:0:0:
64,192,92815,1,0,0:0:0:0:
320,192,92890,1,0,0:0:0:0:
448,192,92890,1,0,0:0:0:0:
192,192,92965,1,0,0:0:0:0:
64,192,93040,1,0,0:0:0:0:
320,192,93040,1,0,0:0:0:0:
448,192,93115,1,0,0:0:0:0:
192,192,93190,1,0,0:0:0:0:
320,192,93190,1,0,0:0:0:0:
64,192,93265,1,0,0:0:0:0:
320,192,93340,1,8,0:0:0:0:
448,192,93340,1,0,0:0:0:0:
192,192,93415,1,0,0:0:0:0:
64,192,93490,1,0,0:0:0:0:
448,192,93490,1,0,0:0:0:0:
192,192,93565,1,0,0:0:0:0:
320,192,93640,1,0,0:0:0:0:
448,192,93640,1,0,0:0:0:0:
320,192,93715,1,0,0:0:0:0:
448,192,93715,1,0,0:0:0:0:
320,192,93790,1,0,0:0:0:0:
448,192,93790,1,0,0:0:0:0:
64,192,93940,1,8,0:0:0:0:
192,192,93940,1,0,0:0:0:0:
64,192,94015,1,0,0:0:0:0:
192,192,94015,1,0,0:0:0:0:
64,192,94090,1,0,0:0:0:0:
192,192,94090,1,0,0:0:0:0:
64,192,94240,1,0,0:0:0:0:
448,192,94240,1,0,0:0:0:0:
192,192,94315,1,0,0:0:0:0:
448,192,94315,1,0,0:0:0:0:
320,192,94390,1,0,0:0:0:0:
448,192,94390,1,0,0:0:0:0:
64,192,94540,1,8,0:0:0:0:
448,192,94540,1,0,0:0:0:0:
64,192,94615,1,0,0:0:0:0:
320,192,94615,1,0,0:0:0:0:
64,192,94690,1,0,0:0:0:0:
192,192,94690,1,0,0:0:0:0:
320,192,94840,1,0,0:0:0:0:
448,192,94840,1,0,0:0:0:0:
64,192,94915,1,0,0:0:0:0:
192,192,94915,1,0,0:0:0:0:
320,192,94990,1,0,0:0:0:0:
448,192,94990,1,0,0:0:0:0:
64,192,95065,1,0,0:0:0:0:
192,192,95065,1,0,0:0:0:0:
64,192,95140,1,8,0:0:0:0:
448,192,95140,1,0,0:0:0:0:
192,192,95215,1,0,0:0:0:0:
320,192,95215,1,0,0:0:0:0:
64,192,95290,1,0,0:0:0:0:
448,192,95290,1,0,0:0:0:0:
192,192,95365,1,0,0:0:0:0:
320,192,95365,1,0,0:0:0:0:
64,192,95440,128,0,95665:0:0:0:0:
320,192,95440,128,0,95590:0:0:0:0:
448,192,95440,128,0,95515:0:0:0:0:
192,192,95515,128,0,95740:0:0:0:0:
448,192,95590,128,0,95815:0:0:0:0:
320,192,95665,128,0,95890:0:0:0:0:
64,192,95740,128,0,95965:0:0:0:0:
192,192,95815,128,0,95965:0:0:0:0:
448,192,95890,128,0,95965:0:0:0:0:
320,192,95965,128,0,96040:0:0:0:0:
64,192,96040,1,4,0:0:0:0:
192,192,96040,1,0,0:0:0:0:
448,192,96040,1,0,0:0:0:0:
320,192,96190,1,0,0:0:0:0:
192,192,96227,1,0,0:0:0:0:
64,192,96265,1,0,0:0:0:0:
320,192,96340,1,8,0:0:0:0:
448,192,96340,1,0,0:0:0:0:
64,192,96415,1,0,0:0:0:0:
192,192,96452,1,0,0:0:0:0:
448,192,96490,1,0,0:0:0:0:
320,192,96565,1,0,0:0:0:0:
64,192,96640,1,0,0:0:0:0:
192,192,96640,1,0,0:0:0:0:
448,192,96677,1,0,0:0:0:0:
320,192,96715,1,0,0:0:0:0:
192,192,96790,1,0,0:0:0:0:
448,192,96865,1,0,0:0:0:0:
64,192,96940,1,8,0:0:0:0:
192,192,96940,1,0,0:0:0:0:
320,192,96940,1,0,0:0:0:0:
448,192,97015,1,0,0:0:0:0:
64,192,97090,1,0,0:0:0:0:
192,192,97165,1,0,0:0:0:0:
320,192,97240,1,0,0:0:0:0:
448,192,97240,1,0,0:0:0:0:
192,192,97315,1,0,0:0:0:0:
64,192,97390,1,0,0:0:0:0:
320,192,97427,1,0,0:0:0:0:
448,192,97465,1,0,0:0:0:0:
64,192,97540,1,8,0:0:0:0:
192,192,97540,1,0,0:0:0:0:
448,192,97615,1,0,0:0:0:0:
320,192,97652,1,0,0:0:0:0:
64,192,97690,1,0,0:0:0:0:
192,192,97765,1,0,0:0:0:0:
320,192,97840,1,0,0:0:0:0:
448,192,97840,1,0,0:0:0:0:
64,192,97877,1,0,0:0:0:0:
192,192,97915,1,0,0:0:0:0:
448,192,97990,1,0,0:0:0:0:
320,192,98065,1,0,0:0:0:0:
64,192,98140,1,8,0:0:0:0:
192,192,98140,1,0,0:0:0:0:
448,192,98140,1,0,0:0:0:0:
320,192,98215,1,0,0:0:0:0:
64,192,98290,1,0,0:0:0:0:
448,192,98290,1,0,0:0:0:0:
192,192,98365,1,0,0:0:0:0:
320,192,98440,1,0,0:0:0:0:
448,192,98440,1,0,0:0:0:0:
192,192,98515,1,0,0:0:0:0:
64,192,98590,1,0,0:0:0:0:
320,192,98627,1,0,0:0:0:0:
448,192,98665,1,0,0:0:0:0:
64,192,98740,1,8,0:0:0:0:
192,192,98740,1,0,0:0:0:0:
448,192,98815,1,0,0:0:0:0:
320,192,98852,1,0,0:0:0:0:
64,192,98890,1,0,0:0:0:0:
192,192,98965,1,0,0:0:0:0:
320,192,99040,1,0,0:0:0:0:
448,192,99040,1,0,0:0:0:0:
64,192,99077,1,0,0:0:0:0:
192,192,99115,1,0,0:0:0:0:
320,192,99190,1,0,0:0:0:0:
64,192,99265,1,0,0:0:0:0:
192,192,99340,1,8,0:0:0:0:
320,192,99340,1,0,0:0:0:0:
448,192,99340,1,0,0:0:0:0:
64,192,99415,1,0,0:0:0:0:
448,192,99490,1,0,0:0:0:0:
320,192,99565,1,0,0:0:0:0:
64,192,99640,1,0,0:0:0:0:
192,192,99640,1,0,0:0:0:0:
320,192,99715,1,0,0:0:0:0:
64,192,99790,1,0,0:0:0:0:
448,192,99790,1,0,0:0:0:0:
192,192,99865,1,0,0:0:0:0:
64,192,99940,1,8,0:0:0:0:
320,192,99940,1,0,0:0:0:0:
448,192,99940,1,0,0:0:0:0:
192,192,100015,1,0,0:0:0:0:
64,192,100090,1,0,0:0:0:0:
448,192,100090,1,0,0:0:0:0:
320,192,100165,1,0,0:0:0:0:
192,192,100240,1,0,0:0:0:0:
448,192,100240,1,0,0:0:0:0:
64,192,100315,1,0,0:0:0:0:
320,192,100390,1,0,0:0:0:0:
448,192,100390,1,0,0:0:0:0:
192,192,100465,1,0,0:0:0:0:
64,192,100540,1,8,0:0:0:0:
320,192,100540,1,0,0:0:0:0:
448,192,100540,1,0,0:0:0:0:
192,192,100615,1,0,0:0:0:0:
64,192,100690,1,0,0:0:0:0:
320,192,100690,1,0,0:0:0:0:
448,192,100765,1,0,0:0:0:0:
192,192,100840,1,0,0:0:0:0:
320,192,100840,1,0,0:0:0:0:
64,192,100915,1,0,0:0:0:0:
320,192,100990,1,0,0:0:0:0:
448,192,100990,1,0,0:0:0:0:
192,192,101065,1,0,0:0:0:0:
64,192,101140,1,8,0:0:0:0:
320,192,101140,1,0,0:0:0:0:
448,192,101140,1,0,0:0:0:0:
192,192,101215,1,0,0:0:0:0:
64,192,101290,1,0,0:0:0:0:
448,192,101290,1,0,0:0:0:0:
320,192,101365,1,0,0:0:0:0:
192,192,101440,1,0,0:0:0:0:
448,192,101440,1,0,0:0:0:0:
64,192,101515,1,0,0:0:0:0:
320,192,101590,1,0,0:0:0:0:
448,192,101590,1,0,0:0:0:0:
192,192,101665,1,0,0:0:0:0:
64,192,101740,1,8,0:0:0:0:
448,192,101740,1,0,0:0:0:0:
320,192,101790,1,0,0:0:0:0:
192,192,101840,1,0,0:0:0:0:
64,192,101890,1,0,0:0:0:0:
448,192,101890,1,0,0:0:0:0:
320,192,101940,1,0,0:0:0:0:
192,192,101990,1,0,0:0:0:0:
64,192,102040,1,0,0:0:0:0:
448,192,102040,1,0,0:0:0:0:
320,192,102077,1,0,0:0:0:0:
192,192,102115,1,0,0:0:0:0:
64,192,102190,1,0,0:0:0:0:
448,192,102190,1,0,0:0:0:0:
320,192,102265,1,0,0:0:0:0:
64,192,102340,1,8,0:0:0:0:
192,192,102340,1,0,0:0:0:0:
448,192,102340,1,0,0:0:0:0:
320,192,102415,1,0,0:0:0:0:
64,192,102490,1,0,0:0:0:0:
448,192,102490,1,0,0:0:0:0:
192,192,102527,1,0,0:0:0:0:
320,192,102565,1,0,0:0:0:0:
64,192,102640,1,0,0:0:0:0:
448,192,102640,1,0,0:0:0:0:
192,192,102715,1,0,0:0:0:0:
64,192,102790,1,0,0:0:0:0:
320,192,102790,1,0,0:0:0:0:
192,192,102865,1,0,0:0:0:0:
64,192,102940,1,8,0:0:0:0:
448,192,102940,1,0,0:0:0:0:
320,192,102977,1,0,0:0:0:0:
192,192,103015,1,0,0:0:0:0:
320,192,103090,1,0,0:0:0:0:
448,192,103090,1,0,0:0:0:0:
192,192,103165,1,0,0:0:0:0:
64,192,103240,1,4,0:0:0:0:
320,192,103240,1,0,0:0:0:0:
448,192,103240,1,0,0:0:0:0:
192,192,103315,1,0,0:0:0:0:
320,192,103390,1,0,0:0:0:0:
448,192,103390,1,0,0:0:0:0:
64,192,103465,1,0,0:0:0:0:
192,192,103540,1,8,0:0:0:0:
320,192,103540,1,0,0:0:0:0:
448,192,103540,1,0,0:0:0:0:
64,192,103615,1,0,0:0:0:0:
320,192,103690,1,0,0:0:0:0:
448,192,103690,1,0,0:0:0:0:
192,192,103765,1,0,0:0:0:0:
320,192,103840,1,0,0:0:0:0:
448,192,103840,1,0,0:0:0:0:
64,192,103915,1,0,0:0:0:0:
320,192,103990,1,0,0:0:0:0:
448,192,103990,1,0,0:0:0:0:
192,192,104065,1,0,0:0:0:0:
64,192,104140,1,8,0:0:0:0:
320,192,104140,1,0,0:0:0:0:
448,192,104140,1,0,0:0:0:0:
192,192,104240,1,0,0:0:0:0:
448,192,104240,1,0,0:0:0:0:
64,192,104340,1,0,0:0:0:0:
320,192,104340,1,0,0:0:0:0:
64,192,104440,1,4,0:0:0:0:
192,192,104440,1,0,0:0:0:0:
448,192,104440,1,0,0:0:0:0:
320,192,104515,1,0,0:0:0:0:
64,192,104590,1,0,0:0:0:0:
192,192,104590,1,0,0:0:0:0:
448,192,104665,1,0,0:0:0:0:
64,192,104740,1,8,0:0:0:0:
192,192,104740,1,0,0:0:0:0:
320,192,104740,1,0,0:0:0:0:
448,192,104815,1,0,0:0:0:0:
64,192,104890,1,0,0:0:0:0:
192,192,104890,1,0,0:0:0:0:
320,192,104965,1,0,0:0:0:0:
64,192,105040,1,0,0:0:0:0:
192,192,105040,1,0,0:0:0:0:
448,192,105115,1,0,0:0:0:0:
64,192,105190,1,0,0:0:0:0:
192,192,105190,1,0,0:0:0:0:
320,192,105265,1,0,0:0:0:0:
64,192,105340,1,8,0:0:0:0:
192,192,105340,1,0,0:0:0:0:
448,192,105340,1,0,0:0:0:0:
320,192,105415,1,0,0:0:0:0:
64,192,105490,1,0,0:0:0:0:
448,192,105490,1,0,0:0:0:0:
192,192,105565,1,0,0:0:0:0:
320,192,105565,1,0,0:0:0:0:
64,192,105640,1,4,0:0:0:0:
320,192,105640,1,0,0:0:0:0:
448,192,105640,1,0,0:0:0:0:
192,192,105715,1,0,0:0:0:0:
320,192,105790,1,0,0:0:0:0:
448,192,105790,1,0,0:0:0:0:
64,192,105865,1,0,0:0:0:0:
320,192,105940,1,8,0:0:0:0:
448,192,105940,1,0,0:0:0:0:
320,192,106015,1,0,0:0:0:0:
448,192,106015,1,0,0:0:0:0:
64,192,106090,1,0,0:0:0:0:
192,192,106090,1,0,0:0:0:0:
320,192,106165,1,0,0:0:0:0:
64,192,106240,1,0,0:0:0:0:
448,192,106240,1,0,0:0:0:0:
192,192,106315,1,0,0:0:0:0:
320,192,106390,1,0,0:0:0:0:
448,192,106390,1,0,0:0:0:0:
192,192,106440,1,0,0:0:0:0:
448,192,106490,1,0,0:0:0:0:
64,192,106540,1,8,0:0:0:0:
320,192,106540,1,0,0:0:0:0:
192,192,106590,1,0,0:0:0:0:
448,192,106640,1,0,0:0:0:0:
64,192,106690,1,0,0:0:0:0:
320,192,106690,1,0,0:0:0:0:
192,192,106740,1,0,0:0:0:0:
64,192,106790,1,0,0:0:0:0:
320,192,106840,1,8,0:0:0:0:
448,192,106840,1,4,0:0:0:0:
64,192,106915,1,0,0:0:0:0:
192,192,106915,1,0,0:0:0:0:
64,192,106990,1,0,0:0:0:0:
320,192,106990,1,0,0:0:0:0:
448,192,107065,1,0,0:0:0:0:
64,192,107140,1,8,0:0:0:0:
192,192,107140,1,0,0:0:0:0:
320,192,107215,1,0,0:0:0:0:
448,192,107215,1,0,0:0:0:0:
192,192,107290,1,0,0:0:0:0:
448,192,107290,1,0,0:0:0:0:
64,192,107365,1,0,0:0:0:0:
192,192,107440,1,8,0:0:0:0:
320,192,107440,1,0,0:0:0:0:
320,192,107515,1,0,0:0:0:0:
448,192,107515,1,0,0:0:0:0:
64,192,107590,1,0,0:0:0:0:
192,192,107590,1,0,0:0:0:0:
320,192,107665,1,0,0:0:0:0:
64,192,107740,1,8,0:0:0:0:
448,192,107740,1,0,0:0:0:0:
320,192,107790,1,0,0:0:0:0:
64,192,107840,1,0,0:0:0:0:
192,192,107840,1,0,0:0:0:0:
320,192,107890,1,0,0:0:0:0:
448,192,107890,1,0,0:0:0:0:
64,192,107965,1,0,0:0:0:0:
192,192,107965,1,0,0:0:0:0:
320,192,108040,1,8,0:0:0:0:
448,192,108040,1,4,0:0:0:0:
192,192,108077,1,0,0:0:0:0:
64,192,108115,1,0,0:0:0:0:
320,192,108152,1,0,0:0:0:0:
192,192,108190,1,0,0:0:0:0:
448,192,108190,1,0,0:0:0:0:
64,192,108265,1,0,0:0:0:0:
320,192,108340,1,0,0:0:0:0:
448,192,108340,1,0,0:0:0:0:
192,192,108415,1,0,0:0:0:0:
64,192,108490,1,8,0:0:0:0:
448,192,108490,1,0,0:0:0:0:
320,192,108527,1,0,0:0:0:0:
192,192,108565,1,0,0:0:0:0:
320,192,108640,1,0,0:0:0:0:
448,192,108640,1,0,0:0:0:0:
64,192,108715,1,0,0:0:0:0:
192,192,108715,1,0,0:0:0:0:
320,192,108790,1,0,0:0:0:0:
448,192,108790,1,0,0:0:0:0:
64,192,108865,1,0,0:0:0:0:
192,192,108940,1,0,0:0:0:0:
448,192,108940,1,0,0:0:0:0:
64,192,109015,1,0,0:0:0:0:
320,192,109015,1,0,0:0:0:0:
192,192,109090,1,0,0:0:0:0:
448,192,109090,1,0,0:0:0:0:
320,192,109165,1,0,0:0:0:0:
64,192,109240,1,8,0:0:0:0:
192,192,109240,1,4,0:0:0:0:
320,192,109290,1,0,0:0:0:0:
448,192,109290,1,0,0:0:0:0:
64,192,109340,1,0,0:0:0:0:
192,192,109390,1,0,0:0:0:0:
448,192,109390,1,0,0:0:0:0:
320,192,109440,1,0,0:0:0:0:
64,192,109490,1,0,0:0:0:0:
192,192,109490,1,0,0:0:0:0:
320,192,109540,1,0,0:0:0:0:
448,192,109540,1,0,0:0:0:0:
64,192,109615,1,0,0:0:0:0:
192,192,109690,1,8,0:0:0:0:
448,192,109690,1,0,0:0:0:0:
320,192,109727,1,0,0:0:0:0:
64,192,109765,1,0,0:0:0:0:
192,192,109840,1,0,0:0:0:0:
448,192,109840,1,0,0:0:0:0:
64,192,109915,1,0,0:0:0:0:
320,192,109915,1,0,0:0:0:0:
192,192,109990,1,0,0:0:0:0:
448,192,109990,1,0,0:0:0:0:
320,192,110065,1,0,0:0:0:0:
64,192,110140,1,0,0:0:0:0:
448,192,110140,1,0,0:0:0:0:
192,192,110215,1,0,0:0:0:0:
320,192,110215,1,0,0:0:0:0:
64,192,110290,1,0,0:0:0:0:
192,192,110365,1,0,0:0:0:0:
448,192,110365,1,0,0:0:0:0:
64,192,110440,1,8,0:0:0:0:
320,192,110440,1,4,0:0:0:0:
192,192,110515,1,0,0:0:0:0:
448,192,110515,1,0,0:0:0:0:
64,192,110590,1,0,0:0:0:0:
320,192,110590,1,0,0:0:0:0:
192,192,110665,1,0,0:0:0:0:
448,192,110665,1,0,0:0:0:0:
64,192,110740,1,0,0:0:0:0:
320,192,110740,1,0,0:0:0:0:
192,192,110815,1,0,0:0:0:0:
448,192,110815,1,0,0:0:0:0:
64,192,110890,1,8,0:0:0:0:
320,192,110890,1,0,0:0:0:0:
192,192,110965,1,0,0:0:0:0:
448,192,110965,1,0,0:0:0:0:
64,192,111040,1,0,0:0:0:0:
320,192,111040,1,0,0:0:0:0:
448,192,111077,1,0,0:0:0:0:
192,192,111115,1,0,0:0:0:0:
320,192,111152,1,0,0:0:0:0:
64,192,111190,1,0,0:0:0:0:
448,192,111190,1,0,0:0:0:0:
192,192,111265,1,0,0:0:0:0:
320,192,111265,1,0,0:0:0:0:
64,192,111340,1,0,0:0:0:0:
448,192,111340,1,0,0:0:0:0:
192,192,111377,1,0,0:0:0:0:
320,192,111415,1,0,0:0:0:0:
64,192,111452,1,0,0:0:0:0:
192,192,111490,1,0,0:0:0:0:
448,192,111490,1,0,0:0:0:0:
320,192,111527,1,0,0:0:0:0:
64,192,111565,1,0,0:0:0:0:
192,192,111602,1,0,0:0:0:0:
64,192,111640,128,4,112840:0:0:0:0:
320,192,111640,1,0,0:0:0:0:
448,192,111640,1,0,0:0:0:0:
