osu file format v14

[General]
AudioFilename: audio.mp3
AudioLeadIn: 0
PreviewTime: 22807
Countdown: 0
SampleSet: Normal
StackLeniency: 0.7
Mode: 3
LetterboxInBreaks: 0
SpecialStyle: 0
WidescreenStoryboard: 1

[Editor]
DistanceSpacing: 1.3
BeatDivisor: 4
GridSize: 4
TimelineZoom: 1.7

[Metadata]
Title:HEART RABBIT COASTER
TitleUnicode:하트 래빗 코스터
Artist:nato
ArtistUnicode:나토
Creator:AJIekceu
Version:Lv.5
Source:Pump It Up XX 20th Anniversary Edition
Tags:alexey piu andamiro dance arcade fxxh 펌프 업 zest:rave
BeatmapID:2137774
BeatmapSetID:1021594

[Difficulty]
HPDrainRate:7
CircleSize:4
OverallDifficulty:7
ApproachRate:5
SliderMultiplier:1.4
SliderTickRate:1

[Events]
//Background and Video events
0,0,"bg.png",0,0
Video,0,"[PUMP IT UP XX] Heart rabbit coaster BGA (2).mp4"
//Break Periods
//Storyboard Layer 0 (Background)
//Storyboard Layer 1 (Fail)
//Storyboard Layer 2 (Pass)
//Storyboard Layer 3 (Foreground)
//Storyboard Layer 4 (Overlay)
//Storyboard Sound Samples

[TimingPoints]
3645,300,4,1,0,5,1,0
22845,-100,4,1,0,5,0,1
42045,-100,4,1,0,5,0,0
67245,-100,4,1,0,5,0,1
93645,-100,4,1,0,5,0,0
96045,-100,4,1,0,5,0,1
105645,-100,4,1,0,5,0,0

[HitObjects]
192,192,3645,5,0,0:0:0:0:
320,192,3795,1,0,0:0:0:0:
64,192,3945,1,0,0:0:0:0:
320,192,4245,1,0,0:0:0:0:
64,192,4395,1,0,0:0:0:0:
448,192,4695,1,0,0:0:0:0:
192,192,4845,1,0,0:0:0:0:
448,192,5145,1,0,0:0:0:0:
192,192,5295,1,0,0:0:0:0:
64,192,5445,128,0,5745:0:0:0:0:
448,192,5745,128,0,6045:0:0:0:0:
320,192,6045,1,0,0:0:0:0:
192,192,6195,1,0,0:0:0:0:
448,192,6345,1,0,0:0:0:0:
192,192,6645,1,0,0:0:0:0:
448,192,6795,1,0,0:0:0:0:
64,192,7095,1,0,0:0:0:0:
320,192,7320,1,0,0:0:0:0:
64,192,7545,1,0,0:0:0:0:
320,192,7695,1,0,0:0:0:0:
448,192,7845,128,0,8145:0:0:0:0:
192,192,8145,128,0,8445:0:0:0:0:
320,192,8445,1,0,0:0:0:0:
192,192,8595,1,0,0:0:0:0:
448,192,8745,1,0,0:0:0:0:
64,192,9045,1,0,0:0:0:0:
320,192,9195,1,0,0:0:0:0:
448,192,9495,1,0,0:0:0:0:
192,192,9645,1,0,0:0:0:0:
320,192,9945,1,0,0:0:0:0:
64,192,10095,1,0,0:0:0:0:
192,192,10245,128,0,10545:0:0:0:0:
320,192,10545,128,0,10845:0:0:0:0:
64,192,10845,1,0,0:0:0:0:
192,192,11145,1,0,0:0:0:0:
448,192,11445,1,0,0:0:0:0:
320,192,11745,1,0,0:0:0:0:
64,192,12045,1,0,0:0:0:0:
448,192,12345,1,0,0:0:0:0:
192,192,12645,128,0,13245:0:0:0:0:
448,192,13245,1,0,0:0:0:0:
320,192,13395,1,0,0:0:0:0:
192,192,13545,1,0,0:0:0:0:
320,192,13845,1,0,0:0:0:0:
192,192,13995,1,0,0:0:0:0:
320,192,14295,1,0,0:0:0:0:
64,192,14445,1,0,0:0:0:0:
320,192,14745,1,0,0:0:0:0:
192,192,14895,1,0,0:0:0:0:
448,192,15045,128,0,15345:0:0:0:0:
320,192,15345,128,0,15645:0:0:0:0:
64,192,15645,1,0,0:0:0:0:
192,192,15795,1,0,0:0:0:0:
320,192,15945,1,0,0:0:0:0:
192,192,16245,1,0,0:0:0:0:
320,192,16395,1,0,0:0:0:0:
192,192,16695,1,0,0:0:0:0:
448,192,16845,1,0,0:0:0:0:
192,192,17145,1,0,0:0:0:0:
320,192,17295,1,0,0:0:0:0:
64,192,17445,128,0,17745:0:0:0:0:
192,192,17745,128,0,18045:0:0:0:0:
320,192,18045,1,0,0:0:0:0:
64,192,18195,1,0,0:0:0:0:
320,192,18345,1,0,0:0:0:0:
192,192,18645,1,0,0:0:0:0:
448,192,18795,1,0,0:0:0:0:
64,192,19095,1,0,0:0:0:0:
320,192,19245,1,0,0:0:0:0:
192,192,19545,1,0,0:0:0:0:
320,192,19695,1,0,0:0:0:0:
448,192,19845,128,0,20145:0:0:0:0:
64,192,20145,128,0,20445:0:0:0:0:
192,192,20445,1,0,0:0:0:0:
192,192,20745,1,0,0:0:0:0:
320,192,21045,1,0,0:0:0:0:
320,192,21345,1,0,0:0:0:0:
448,192,21645,1,0,0:0:0:0:
64,192,21645,1,0,0:0:0:0:
320,192,22245,128,0,22545:0:0:0:0:
192,192,22545,128,0,22845:0:0:0:0:
448,192,22845,1,0,0:0:0:0:
320,192,23145,1,0,0:0:0:0:
192,192,23445,1,0,0:0:0:0:
320,192,23745,1,0,0:0:0:0:
64,192,23895,1,0,0:0:0:0:
448,192,24195,1,0,0:0:0:0:
64,192,24345,1,0,0:0:0:0:
320,192,24495,1,0,0:0:0:0:
192,192,24645,1,0,0:0:0:0:
448,192,24945,1,0,0:0:0:0:
64,192,25245,1,0,0:0:0:0:
192,192,25545,1,0,0:0:0:0:
320,192,25845,1,0,0:0:0:0:
192,192,26145,1,0,0:0:0:0:
448,192,26295,1,0,0:0:0:0:
64,192,26595,1,0,0:0:0:0:
320,192,26745,1,0,0:0:0:0:
64,192,27045,1,0,0:0:0:0:
320,192,27195,1,0,0:0:0:0:
64,192,27345,1,0,0:0:0:0:
320,192,27495,1,0,0:0:0:0:
64,192,27645,1,0,0:0:0:0:
448,192,27945,1,0,0:0:0:0:
192,192,28245,1,0,0:0:0:0:
320,192,28545,1,0,0:0:0:0:
64,192,28695,1,0,0:0:0:0:
192,192,28995,1,0,0:0:0:0:
448,192,29145,1,0,0:0:0:0:
64,192,29295,1,0,0:0:0:0:
320,192,29445,1,0,0:0:0:0:
448,192,29745,1,0,0:0:0:0:
192,192,30045,1,0,0:0:0:0:
448,192,30345,1,0,0:0:0:0:
64,192,30645,1,0,0:0:0:0:
448,192,30945,1,0,0:0:0:0:
192,192,31095,1,0,0:0:0:0:
320,192,31245,1,0,0:0:0:0:
64,192,31545,1,0,0:0:0:0:
448,192,31845,1,0,0:0:0:0:
192,192,31995,1,0,0:0:0:0:
448,192,32145,1,0,0:0:0:0:
192,192,32295,1,0,0:0:0:0:
448,192,32445,1,0,0:0:0:0:
64,192,32745,1,0,0:0:0:0:
192,192,33045,1,0,0:0:0:0:
320,192,33345,1,0,0:0:0:0:
64,192,33495,1,0,0:0:0:0:
192,192,33795,1,0,0:0:0:0:
448,192,33945,1,0,0:0:0:0:
64,192,34095,1,0,0:0:0:0:
320,192,34245,1,0,0:0:0:0:
64,192,34545,1,0,0:0:0:0:
192,192,34845,1,0,0:0:0:0:
448,192,35145,1,0,0:0:0:0:
320,192,35445,1,0,0:0:0:0:
192,192,35745,1,0,0:0:0:0:
448,192,35895,1,0,0:0:0:0:
320,192,36195,1,0,0:0:0:0:
64,192,36345,1,0,0:0:0:0:
320,192,36645,1,0,0:0:0:0:
192,192,36795,1,0,0:0:0:0:
320,192,36945,1,0,0:0:0:0:
192,192,37095,1,0,0:0:0:0:
320,192,37245,1,0,0:0:0:0:
64,192,37545,1,0,0:0:0:0:
448,192,37845,1,0,0:0:0:0:
192,192,38145,1,0,0:0:0:0:
320,192,38295,1,0,0:0:0:0:
192,192,38595,1,0,0:0:0:0:
64,192,38745,1,0,0:0:0:0:
320,192,38895,1,0,0:0:0:0:
448,192,39045,1,0,0:0:0:0:
192,192,39345,1,0,0:0:0:0:
320,192,39645,128,0,39945:0:0:0:0:
64,192,39945,128,0,40245:0:0:0:0:
448,192,40245,128,0,40545:0:0:0:0:
192,192,40545,128,0,40845:0:0:0:0:
320,192,40845,128,0,41145:0:0:0:0:
448,192,41145,128,0,41445:0:0:0:0:
192,192,41445,128,0,41745:0:0:0:0:
64,192,41745,128,0,42045:0:0:0:0:
320,192,42045,128,0,43245:0:0:0:0:
64,192,43245,128,0,43995:0:0:0:0:
448,192,43245,1,0,0:0:0:0:
320,192,43995,128,0,45045:0:0:0:0:
192,192,45045,128,0,45345:0:0:0:0:
448,192,45345,128,0,45645:0:0:0:0:
320,192,45645,128,0,46395:0:0:0:0:
192,192,46395,128,0,47445:0:0:0:0:
448,192,47445,1,0,0:0:0:0:
64,192,48045,128,0,48795:0:0:0:0:
320,192,48795,128,0,49845:0:0:0:0:
448,192,49845,128,0,50145:0:0:0:0:
192,192,50145,128,0,50445:0:0:0:0:
320,192,50445,128,0,51195:0:0:0:0:
64,192,51195,128,0,52245:0:0:0:0:
320,192,52245,1,0,0:0:0:0:
192,192,52845,1,0,0:0:0:0:
192,192,53145,1,0,0:0:0:0:
320,192,53445,1,0,0:0:0:0:
320,192,53745,1,0,0:0:0:0:
64,192,54045,1,0,0:0:0:0:
64,192,54345,1,0,0:0:0:0:
448,192,54645,1,0,0:0:0:0:
448,192,54945,1,0,0:0:0:0:
192,192,55245,1,0,0:0:0:0:
320,192,55545,1,0,0:0:0:0:
192,192,55845,1,0,0:0:0:0:
448,192,56445,1,0,0:0:0:0:
64,192,56670,1,0,0:0:0:0:
448,192,56820,1,0,0:0:0:0:
64,192,56970,1,0,0:0:0:0:
448,192,57270,128,0,57645:0:0:0:0:
192,192,57645,128,0,58845:0:0:0:0:
448,192,58245,1,0,0:0:0:0:
320,192,58845,128,0,60045:0:0:0:0:
192,192,59445,128,0,60045:0:0:0:0:
64,192,60045,1,0,0:0:0:0:
64,192,60345,1,0,0:0:0:0:
448,192,60645,1,0,0:0:0:0:
64,192,60945,1,0,0:0:0:0:
192,192,61245,128,0,61845:0:0:0:0:
320,192,61845,128,0,62445:0:0:0:0:
448,192,62445,1,0,0:0:0:0:
192,192,63045,1,0,0:0:0:0:
320,192,63645,1,0,0:0:0:0:
64,192,64245,1,0,0:0:0:0:
448,192,64845,128,0,65445:0:0:0:0:
64,192,65445,128,0,66045:0:0:0:0:
320,192,66045,1,0,0:0:0:0:
192,192,67245,128,0,67545:0:0:0:0:
448,192,67545,1,0,0:0:0:0:
320,192,67845,1,0,0:0:0:0:
64,192,68145,128,0,68445:0:0:0:0:
320,192,68445,128,0,68745:0:0:0:0:
192,192,68745,128,0,69045:0:0:0:0:
448,192,69045,128,0,69345:0:0:0:0:
64,192,69345,128,0,69645:0:0:0:0:
320,192,69645,128,0,69945:0:0:0:0:
192,192,69945,1,0,0:0:0:0:
448,192,70245,1,0,0:0:0:0:
64,192,70545,1,0,0:0:0:0:
320,192,70845,1,0,0:0:0:0:
192,192,71145,1,0,0:0:0:0:
448,192,71445,128,0,71745:0:0:0:0:
64,192,71745,128,0,72045:0:0:0:0:
320,192,72045,1,0,0:0:0:0:
64,192,72345,1,0,0:0:0:0:
448,192,72645,1,0,0:0:0:0:
192,192,72945,128,0,73245:0:0:0:0:
320,192,73245,1,0,0:0:0:0:
64,192,73545,1,0,0:0:0:0:
448,192,73845,1,0,0:0:0:0:
320,192,74145,128,0,74445:0:0:0:0:
192,192,74445,128,0,75045:0:0:0:0:
448,192,74745,1,0,0:0:0:0:
320,192,75045,128,0,75645:0:0:0:0:
64,192,75345,1,0,0:0:0:0:
192,192,75645,128,0,75945:0:0:0:0:
448,192,75945,128,0,76245:0:0:0:0:
64,192,76245,128,0,76545:0:0:0:0:
320,192,76545,128,0,76845:0:0:0:0:
192,192,76845,128,0,77145:0:0:0:0:
64,192,77145,1,0,0:0:0:0:
320,192,77445,1,0,0:0:0:0:
448,192,77745,128,0,78045:0:0:0:0:
192,192,78045,128,0,78345:0:0:0:0:
320,192,78345,128,0,78645:0:0:0:0:
64,192,78645,128,0,78945:0:0:0:0:
192,192,78945,128,0,79245:0:0:0:0:
320,192,79245,128,0,79545:0:0:0:0:
448,192,79545,128,0,79845:0:0:0:0:
192,192,79845,128,0,80145:0:0:0:0:
320,192,80145,128,0,80445:0:0:0:0:
64,192,80445,1,0,0:0:0:0:
192,192,80745,1,0,0:0:0:0:
448,192,81045,1,0,0:0:0:0:
320,192,81345,1,0,0:0:0:0:
192,192,81645,128,0,81945:0:0:0:0:
448,192,81945,1,0,0:0:0:0:
320,192,82245,1,0,0:0:0:0:
64,192,82545,1,0,0:0:0:0:
320,192,82845,128,0,83145:0:0:0:0:
192,192,83145,1,0,0:0:0:0:
448,192,83445,1,0,0:0:0:0:
64,192,83745,1,0,0:0:0:0:
448,192,84045,128,0,84645:0:0:0:0:
192,192,84345,1,0,0:0:0:0:
64,192,84645,128,0,85245:0:0:0:0:
320,192,84945,1,0,0:0:0:0:
448,192,85245,128,0,85545:0:0:0:0:
320,192,85545,128,0,85845:0:0:0:0:
64,192,85845,128,0,86145:0:0:0:0:
192,192,86145,128,0,86445:0:0:0:0:
448,192,86445,1,0,0:0:0:0:
192,192,86745,1,0,0:0:0:0:
320,192,87045,1,0,0:0:0:0:
64,192,87345,1,0,0:0:0:0:
448,192,87495,1,0,0:0:0:0:
64,192,87795,1,0,0:0:0:0:
192,192,87945,1,0,0:0:0:0:
320,192,88095,1,0,0:0:0:0:
448,192,88245,1,0,0:0:0:0:
64,192,88545,1,0,0:0:0:0:
448,192,88845,1,0,0:0:0:0:
192,192,89145,1,0,0:0:0:0:
64,192,89445,1,0,0:0:0:0:
320,192,89745,1,0,0:0:0:0:
64,192,89895,1,0,0:0:0:0:
192,192,90195,1,0,0:0:0:0:
448,192,90345,1,0,0:0:0:0:
64,192,90495,1,0,0:0:0:0:
320,192,90645,1,0,0:0:0:0:
64,192,90945,1,0,0:0:0:0:
448,192,91245,1,0,0:0:0:0:
320,192,91545,1,0,0:0:0:0:
192,192,91845,1,0,0:0:0:0:
448,192,92145,1,0,0:0:0:0:
64,192,92295,1,0,0:0:0:0:
320,192,92595,1,0,0:0:0:0:
64,192,92745,1,0,0:0:0:0:
448,192,92895,1,0,0:0:0:0:
192,192,93045,1,0,0:0:0:0:
320,192,93345,1,0,0:0:0:0:
192,192,93645,128,0,94245:0:0:0:0:
320,192,94245,128,0,94845:0:0:0:0:
64,192,94845,128,0,95145:0:0:0:0:
448,192,95145,128,0,95520:0:0:0:0:
192,192,95445,1,0,0:0:0:0:
320,192,95595,1,0,0:0:0:0:
192,192,95745,1,0,0:0:0:0:
320,192,95895,1,0,0:0:0:0:
64,192,96045,1,0,0:0:0:0:
448,192,96345,1,0,0:0:0:0:
320,192,96645,1,0,0:0:0:0:
192,192,96945,1,0,0:0:0:0:
448,192,97095,1,0,0:0:0:0:
64,192,97395,1,0,0:0:0:0:
192,192,97545,1,0,0:0:0:0:
448,192,97695,1,0,0:0:0:0:
320,192,97845,1,0,0:0:0:0:
64,192,98145,1,0,0:0:0:0:
448,192,98445,1,0,0:0:0:0:
192,192,98745,1,0,0:0:0:0:
320,192,99045,1,0,0:0:0:0:
64,192,99345,1,0,0:0:0:0:
448,192,99495,1,0,0:0:0:0:
192,192,99795,1,0,0:0:0:0:
320,192,99945,1,0,0:0:0:0:
64,192,100245,1,0,0:0:0:0:
448,192,100395,1,0,0:0:0:0:
64,192,100545,1,0,0:0:0:0:
448,192,100695,1,0,0:0:0:0:
64,192,100845,128,0,101445:0:0:0:0:
320,192,101145,1,0,0:0:0:0:
448,192,101445,128,0,102045:0:0:0:0:
192,192,101745,1,0,0:0:0:0:
320,192,102045,128,0,102645:0:0:0:0:
64,192,102345,1,0,0:0:0:0:
192,192,102645,128,0,103245:0:0:0:0:
448,192,102945,1,0,0:0:0:0:
320,192,103245,128,0,103545:0:0:0:0:
64,192,103545,128,0,103845:0:0:0:0:
448,192,103845,128,0,104145:0:0:0:0:
192,192,104145,128,0,104445:0:0:0:0:
320,192,104445,128,0,105645:0:0:0:0:
64,192,104745,1,0,0:0:0:0:
448,192,105045,1,0,0:0:0:0:
64,192,105345,1,0,0:0:0:0:
192,192,105645,1,0,0:0:0:0:
