osu file format v14

[General]
AudioFilename: audio.ogg
AudioLeadIn: 0
PreviewTime: 9963
Countdown: 0
SampleSet: Soft
StackLeniency: 0.7
Mode: 3
LetterboxInBreaks: 0
SpecialStyle: 0
WidescreenStoryboard: 1

[Editor]
Bookmarks: 86,9346,9963,19841,29719,30954,32188,49475,59352,64291,69230,79108,88986,93925
DistanceSpacing: 0.9
BeatDivisor: 4
GridSize: 8
TimelineZoom: 1.9

[Metadata]
Title:#SWAGG ANTHEM!
TitleUnicode:#SWAGG ANTHEM!
Artist:natimernero!
ArtistUnicode:natimernero!
Creator:Relae
Version:HD!
Source:
Tags:DANZʏ DANZE electronic edm hyperpop italian hyper pop
BeatmapID:4209301
BeatmapSetID:2021203

[Difficulty]
HPDrainRate:7.6
CircleSize:4
OverallDifficulty:7.6
ApproachRate:5
SliderMultiplier:1.4
SliderTickRate:1

[Events]
//Background and Video events
0,0,"bg.jpg",0,0
//Break Periods
//Storyboard Layer 0 (Background)
//Storyboard Layer 1 (Fail)
//Storyboard Layer 2 (Pass)
//Storyboard Layer 3 (Foreground)
//Storyboard Layer 4 (Overlay)
//Storyboard Sound Samples
Sample,6413,0,"hihat.wav",35
Sample,8883,0,"hihat.wav",35
Sample,11352,0,"hihat.wav",35
Sample,1475,0,"hihat.wav",35
Sample,3944,0,"hihat.wav",35
Sample,47468,0,"drum1.wav",70
Sample,47777,0,"whistle1.wav",70

[TimingPoints]
86,308.681672025723,4,2,1,40,1,0

[HitObjects]
320,192,86,1,0,0:0:0:35:hihat.wav
448,192,86,1,0,0:0:0:0:
64,192,240,1,0,0:0:0:35:hihat.wav
192,192,317,1,0,0:0:0:0:
320,192,394,1,0,0:0:0:35:hihat.wav
64,192,549,1,0,0:0:0:35:hihat.wav
448,192,703,128,0,857:0:0:0:35:hihat.wav
192,192,780,1,0,0:0:0:0:
64,192,857,128,0,1012:0:0:0:35:hihat.wav
320,192,934,1,0,0:0:0:35:hihat.wav
448,192,1012,1,0,0:0:0:35:hihat.wav
192,192,1166,1,0,0:0:0:50:snare1.wav
320,192,1320,1,0,0:0:0:35:hihat.wav
448,192,1397,1,0,0:0:0:0:
64,192,1475,1,0,0:0:0:50:snare1.wav
192,192,1552,1,0,0:0:0:35:hihat.wav
320,192,1629,1,0,0:0:0:35:hihat.wav
64,192,1783,1,0,0:0:0:35:hihat.wav
448,192,1938,1,0,0:0:0:35:hihat.wav
320,192,2015,1,0,0:0:0:0:
192,192,2092,1,0,0:0:0:35:hihat.wav
64,192,2169,1,0,0:0:0:0:
448,192,2246,1,0,0:0:0:35:hihat.wav
192,192,2401,128,0,2555:0:0:0:35:hihat.wav
320,192,2555,1,0,0:0:0:35:hihat.wav
64,192,2709,1,0,0:0:0:35:hihat.wav
192,192,2786,1,0,0:0:0:0:
320,192,2864,1,0,0:0:0:35:hihat.wav
448,192,3018,1,0,0:0:0:35:hihat.wav
192,192,3172,1,0,0:0:0:35:hihat.wav
320,192,3327,1,0,0:0:0:35:hihat.wav
64,192,3481,1,0,0:0:0:35:hihat.wav
192,192,3635,1,0,0:0:0:50:snare1.wav
320,192,3790,128,0,3944:0:0:0:35:hihat.wav
448,192,3867,1,0,0:0:0:35:hihat.wav
192,192,3944,128,0,4098:0:0:0:50:snare1.wav
64,192,4021,1,0,0:0:0:35:hihat.wav
448,192,4098,1,0,0:0:0:35:hihat.wav
64,192,4253,1,0,0:0:0:35:hihat.wav
192,192,4407,1,0,0:0:0:35:hihat.wav
448,192,4561,1,0,0:0:0:35:hihat.wav
320,192,4639,1,0,0:0:0:0:
192,192,4716,1,0,0:0:0:35:hihat.wav
64,192,4870,1,0,0:0:0:35:hihat.wav
320,192,5024,1,0,0:0:0:35:hihat.wav
448,192,5024,1,0,0:0:0:0:
64,192,5179,1,0,0:0:0:35:hihat.wav
192,192,5256,1,0,0:0:0:0:
320,192,5333,1,0,0:0:0:35:hihat.wav
448,192,5487,1,0,0:0:0:35:hihat.wav
64,192,5642,128,0,5796:0:0:0:35:hihat.wav
192,192,5719,1,0,0:0:0:0:
448,192,5796,128,0,5950:0:0:0:35:hihat.wav
320,192,5873,1,0,0:0:0:0:
192,192,5950,1,0,0:0:0:35:hihat.wav
64,192,6105,1,0,0:0:0:50:snare1.wav
448,192,6105,1,0,0:0:0:0:
320,192,6259,1,0,0:0:0:35:hihat.wav
192,192,6336,1,0,0:0:0:0:
64,192,6413,1,0,0:0:0:50:snare1.wav
448,192,6413,1,0,0:0:0:0:
320,192,6491,1,0,0:0:0:0:
192,192,6568,1,0,0:0:0:35:hihat.wav
64,192,6722,1,0,0:0:0:35:hihat.wav
448,192,6799,1,0,0:0:0:0:
192,192,6954,1,0,0:0:0:0:
320,192,7031,1,0,0:0:0:35:hihat.wav
448,192,7108,1,0,0:0:0:0:
64,192,7185,1,0,0:0:0:35:hihat.wav
192,192,7340,128,0,7494:0:0:0:35:hihat.wav
320,192,7494,1,0,0:0:0:35:hihat.wav
64,192,7648,1,0,0:0:0:35:hihat.wav
448,192,7725,1,0,0:0:0:0:
192,192,7803,1,0,0:0:0:35:hihat.wav
320,192,7957,1,0,0:0:0:35:hihat.wav
448,192,8111,1,0,0:0:0:35:hihat.wav
64,192,8266,1,0,0:0:0:35:hihat.wav
192,192,8420,1,0,0:0:0:35:hihat.wav
320,192,8574,1,0,0:0:0:50:snare1.wav
64,192,8729,128,0,8883:0:0:0:35:hihat.wav
192,192,8806,1,0,0:0:0:35:hihat.wav
448,192,8883,128,0,9037:0:0:0:50:snare1.wav
320,192,8960,1,0,0:0:0:35:hihat.wav
192,192,9037,1,0,0:0:0:35:hihat.wav
64,192,9192,1,0,0:0:0:35:hihat.wav
192,192,9655,1,0,0:0:0:0:
64,192,9809,1,0,0:0:0:0:
320,192,9963,1,0,0:0:0:70:kick.wav
448,192,9963,1,0,0:0:0:0:
64,192,10040,1,0,0:0:0:0:
192,192,10118,1,0,0:0:0:35:hihat.wav
64,192,10195,1,0,0:0:0:0:
320,192,10272,1,0,0:0:0:35:hihat.wav
192,192,10426,1,0,0:0:0:35:hihat.wav
320,192,10581,1,0,0:0:0:70:clap.wav
448,192,10581,128,0,10735:0:0:0:0:
64,192,10735,1,0,0:0:0:35:hihat.wav
192,192,10812,1,0,0:0:0:35:hihat.wav
320,192,10889,1,0,0:0:0:70:kick.wav
448,192,10889,1,0,0:0:0:35:hihat.wav
64,192,11044,1,0,0:0:0:50:snare1.wav
448,192,11198,1,0,0:0:0:35:hihat.wav
320,192,11275,1,0,0:0:0:35:hihat.wav
192,192,11352,1,0,0:0:0:50:snare1.wav
64,192,11430,1,0,0:0:0:35:hihat.wav
320,192,11507,1,0,0:0:0:70:kick.wav
448,192,11507,1,0,0:0:0:0:
192,192,11661,1,0,0:0:0:35:hihat.wav
64,192,11738,1,0,0:0:0:35:hihat.wav
320,192,11815,1,0,0:0:0:70:clap.wav
448,192,11815,1,0,0:0:0:0:
64,192,11970,1,0,0:0:0:70:kick.wav
192,192,11970,1,0,0:0:0:0:
320,192,12047,1,0,0:0:0:70:kick.wav
448,192,12124,1,0,0:0:0:70:kick.wav
64,192,12278,1,0,0:0:0:70:kick.wav
192,192,12278,1,0,0:0:0:0:
320,192,12433,1,0,0:0:0:70:kick.wav
448,192,12433,1,0,0:0:0:0:
64,192,12587,1,0,0:0:0:35:hihat.wav
192,192,12664,1,0,0:0:0:0:
320,192,12741,1,0,0:0:0:35:hihat.wav
64,192,12896,1,0,0:0:0:70:kick.wav
448,192,12896,1,0,0:0:0:0:
192,192,13050,1,0,0:0:0:70:clap.wav
320,192,13050,1,0,0:0:0:0:
448,192,13204,1,0,0:0:0:35:hihat.wav
64,192,13359,1,0,0:0:0:70:kick.wav
192,192,13359,1,0,0:0:0:0:
320,192,13513,1,0,0:0:0:50:snare1.wav
448,192,13667,1,0,0:0:0:35:hihat.wav
64,192,13745,1,0,0:0:0:35:hihat.wav
192,192,13822,1,0,0:0:0:50:snare1.wav
320,192,13899,1,0,0:0:0:35:hihat.wav
64,192,13976,1,0,0:0:0:70:kick.wav
448,192,13976,1,0,0:0:0:35:hihat.wav
192,192,14131,1,0,0:0:0:35:hihat.wav
320,192,14285,1,0,0:0:0:70:clap.wav
448,192,14285,1,0,0:0:0:0:
64,192,14439,1,0,0:0:0:35:hihat.wav
320,192,14594,1,0,0:0:0:70:kick.wav
448,192,14594,1,0,0:0:0:0:
192,192,14671,1,0,0:0:0:70:kick.wav
64,192,14748,1,0,0:0:0:70:kick.wav
448,192,14825,1,0,0:0:0:70:kick.wav
192,192,14902,1,0,0:0:0:70:kick.wav
320,192,14902,1,0,0:0:0:0:
64,192,15057,1,0,0:0:0:0:
192,192,15134,1,0,0:0:0:0:
320,192,15211,1,0,0:0:0:35:hihat.wav
448,192,15365,1,0,0:0:0:35:hihat.wav
64,192,15520,1,0,0:0:0:70:clap.wav
192,192,15520,128,0,15674:0:0:0:0:
448,192,15674,1,0,0:0:0:35:hihat.wav
320,192,15751,1,0,0:0:0:35:hihat.wav
64,192,15828,1,0,0:0:0:70:kick.wav
192,192,15828,1,0,0:0:0:0:
448,192,15983,1,0,0:0:0:50:snare1.wav
64,192,16137,1,0,0:0:0:35:hihat.wav
192,192,16214,1,0,0:0:0:35:hihat.wav
320,192,16291,1,0,0:0:0:50:snare1.wav
448,192,16368,1,0,0:0:0:35:hihat.wav
64,192,16446,1,0,0:0:0:70:kick.wav
192,192,16446,1,0,0:0:0:0:
320,192,16600,1,0,0:0:0:35:hihat.wav
64,192,16754,1,0,0:0:0:70:clap.wav
448,192,16754,1,0,0:0:0:0:
192,192,16909,1,0,0:0:0:70:kick.wav
320,192,16909,1,0,0:0:0:0:
64,192,16986,1,0,0:0:0:70:kick.wav
448,192,17063,1,0,0:0:0:70:kick.wav
64,192,17217,1,0,0:0:0:70:kick.wav
192,192,17217,1,0,0:0:0:0:
320,192,17372,1,0,0:0:0:70:kick.wav
448,192,17372,1,0,0:0:0:0:
64,192,17526,1,0,0:0:0:35:hihat.wav
192,192,17603,1,0,0:0:0:0:
320,192,17680,1,0,0:0:0:35:hihat.wav
64,192,17835,1,0,0:0:0:70:kick.wav
192,192,17835,1,0,0:0:0:0:
320,192,17989,1,0,0:0:0:70:clap.wav
448,192,17989,1,0,0:0:0:0:
192,192,18143,1,0,0:0:0:35:hihat.wav
64,192,18298,1,0,0:0:0:70:kick.wav
448,192,18298,1,0,0:0:0:0:
320,192,18452,1,0,0:0:0:50:snare1.wav
64,192,18606,128,0,18761:0:0:0:70:upkick1.wav
448,192,18606,128,0,18761:0:0:0:0:
192,192,18761,1,0,0:0:0:0:
320,192,18761,1,0,0:0:0:0:
64,192,18915,128,0,19069:0:0:0:70:upkick1.wav
448,192,18915,128,0,19069:0:0:0:0:
192,192,19069,1,0,0:0:0:0:
320,192,19069,1,0,0:0:0:0:
64,192,19224,128,0,19378:0:0:0:70:upkick1.wav
448,192,19224,128,0,19378:0:0:0:0:
192,192,19378,1,0,0:0:0:0:
320,192,19378,1,0,0:0:0:0:
64,192,19532,1,0,0:0:0:0:
448,192,19687,1,0,0:0:0:0:
64,192,19841,1,0,0:0:0:70:kick.wav
192,192,19841,1,0,0:0:0:0:
320,192,19995,1,0,0:0:0:35:hihat.wav
192,192,20073,1,0,0:0:0:0:
64,192,20150,1,0,0:0:0:35:hihat.wav
448,192,20304,1,0,0:0:0:35:hihat.wav
64,192,20458,128,0,20613:0:0:0:70:clap.wav
192,192,20458,1,0,0:0:0:0:
448,192,20613,1,0,0:0:0:35:hihat.wav
320,192,20690,1,0,0:0:0:35:hihat.wav
64,192,20767,1,0,0:0:0:70:kick.wav
192,192,20767,1,0,0:0:0:0:
448,192,20922,1,0,0:0:0:50:snare1.wav
64,192,21076,1,0,0:0:0:35:hihat.wav
192,192,21153,1,0,0:0:0:35:hihat.wav
320,192,21230,1,0,0:0:0:50:snare1.wav
448,192,21307,1,0,0:0:0:35:hihat.wav
64,192,21385,1,0,0:0:0:70:kick.wav
192,192,21385,1,0,0:0:0:0:
320,192,21539,1,0,0:0:0:35:hihat.wav
448,192,21616,1,0,0:0:0:35:hihat.wav
64,192,21693,1,0,0:0:0:70:clap.wav
192,192,21693,1,0,0:0:0:0:
320,192,21848,1,0,0:0:0:70:kick.wav
448,192,21848,1,0,0:0:0:0:
192,192,21925,1,0,0:0:0:70:kick.wav
64,192,22002,1,0,0:0:0:70:kick.wav
320,192,22156,1,0,0:0:0:70:kick.wav
448,192,22156,1,0,0:0:0:0:
64,192,22311,1,0,0:0:0:70:kick.wav
192,192,22311,1,0,0:0:0:0:
448,192,22465,1,0,0:0:0:35:hihat.wav
320,192,22542,1,0,0:0:0:0:
192,192,22619,1,0,0:0:0:35:hihat.wav
64,192,22774,1,0,0:0:0:70:kick.wav
448,192,22774,1,0,0:0:0:0:
192,192,22928,1,0,0:0:0:70:clap.wav
320,192,22928,1,0,0:0:0:0:
64,192,23082,1,0,0:0:0:35:hihat.wav
320,192,23237,1,0,0:0:0:70:kick.wav
448,192,23237,1,0,0:0:0:0:
192,192,23391,1,0,0:0:0:50:snare1.wav
64,192,23545,1,0,0:0:0:35:hihat.wav
448,192,23622,1,0,0:0:0:35:hihat.wav
320,192,23700,1,0,0:0:0:50:snare1.wav
192,192,23777,1,0,0:0:0:35:hihat.wav
64,192,23854,1,0,0:0:0:70:kick.wav
448,192,23854,1,0,0:0:0:35:hihat.wav
320,192,24008,1,0,0:0:0:35:hihat.wav
64,192,24163,1,0,0:0:0:70:clap.wav
192,192,24163,1,0,0:0:0:0:
448,192,24317,1,0,0:0:0:35:hihat.wav
320,192,24394,1,0,0:0:0:0:
320,192,24780,1,0,0:0:0:70:kick.wav
448,192,24780,1,0,0:0:0:0:
64,192,24857,1,0,0:0:0:0:
192,192,24934,1,0,0:0:0:0:
64,192,25012,1,0,0:0:0:0:
320,192,25089,1,0,0:0:0:35:hihat.wav
64,192,25243,1,0,0:0:0:35:hihat.wav
320,192,25397,128,0,25552:0:0:0:70:clap.wav
448,192,25397,1,0,0:0:0:0:
64,192,25552,1,0,0:0:0:35:hihat.wav
192,192,25629,1,0,0:0:0:35:hihat.wav
320,192,25706,1,0,0:0:0:70:kick.wav
448,192,25706,1,0,0:0:0:0:
64,192,25860,1,0,0:0:0:50:snare1.wav
448,192,26015,1,0,0:0:0:35:hihat.wav
320,192,26092,1,0,0:0:0:35:hihat.wav
192,192,26169,1,0,0:0:0:50:snare1.wav
64,192,26246,1,0,0:0:0:35:hihat.wav
320,192,26323,1,0,0:0:0:70:kick.wav
448,192,26323,1,0,0:0:0:0:
192,192,26478,1,0,0:0:0:35:hihat.wav
320,192,26632,1,0,0:0:0:70:clap.wav
448,192,26632,1,0,0:0:0:0:
64,192,26786,1,0,0:0:0:70:kick.wav
192,192,26786,1,0,0:0:0:0:
320,192,26864,1,0,0:0:0:70:kick.wav
448,192,26941,1,0,0:0:0:70:kick.wav
64,192,27095,1,0,0:0:0:70:kick.wav
192,192,27095,1,0,0:0:0:0:
320,192,27249,1,0,0:0:0:70:kick.wav
448,192,27249,1,0,0:0:0:0:
192,192,27327,1,0,0:0:0:0:
64,192,27404,1,0,0:0:0:0:
448,192,27481,1,0,0:0:0:0:
320,192,27558,1,0,0:0:0:0:
192,192,27713,1,0,0:0:0:0:
64,192,27867,1,0,0:0:0:0:
448,192,28021,1,0,0:0:0:0:
192,192,28176,1,0,0:0:0:0:
320,192,28330,1,0,0:0:0:0:
64,192,28484,1,0,0:0:0:0:
192,192,28561,1,0,0:0:0:0:
320,192,28639,1,0,0:0:0:0:
448,192,28716,1,0,0:0:0:0:
64,192,28793,1,0,0:0:0:70:kick.wav
192,192,28793,1,0,0:0:0:0:
320,192,28947,1,0,0:0:0:0:
64,192,29102,1,0,0:0:0:70:kick.wav
448,192,29102,1,0,0:0:0:0:
320,192,29179,1,0,0:0:0:0:
192,192,29256,1,0,0:0:0:0:
64,192,29410,1,0,0:0:0:70:kick.wav
448,192,29410,1,0,0:0:0:0:
320,192,29487,1,0,0:0:0:70:kick.wav
192,192,29565,1,0,0:0:0:70:kick.wav
64,192,29642,1,0,0:0:0:70:kick.wav
320,192,29719,1,0,0:0:0:70:kick.wav
448,192,29719,1,0,0:0:0:0:
192,192,29873,1,0,0:0:0:35:hihat.wav
64,192,30028,1,0,0:0:0:35:hihat.wav
448,192,30182,1,0,0:0:0:35:hihat.wav
64,192,30336,1,0,0:0:0:70:clap.wav
320,192,30336,1,0,0:0:0:0:
320,192,30645,1,0,0:0:0:70:kick.wav
448,192,30645,1,0,0:0:0:0:
64,192,30722,1,0,0:0:0:0:
192,192,30799,1,0,0:0:0:50:snare1.wav
448,192,30954,1,0,0:0:0:35:hihat.wav
64,192,31108,1,0,0:0:0:0:
448,192,31262,1,0,0:0:0:0:
192,192,31417,1,0,0:0:0:0:
320,192,31571,1,0,0:0:0:0:
320,192,32188,1,0,0:0:0:70:kick.wav
448,192,32188,1,0,0:0:0:0:
64,192,32343,1,0,0:0:0:35:hihat.wav
192,192,32420,1,0,0:0:0:0:
320,192,32497,1,0,0:0:0:35:hihat.wav
64,192,32651,1,0,0:0:0:70:kick.wav
448,192,32651,1,0,0:0:0:0:
192,192,32806,1,0,0:0:0:70:clap.wav
320,192,32806,1,0,0:0:0:0:
448,192,32960,1,0,0:0:0:35:hihat.wav
64,192,33114,1,0,0:0:0:70:kick.wav
192,192,33114,1,0,0:0:0:0:
320,192,33269,1,0,0:0:0:50:snare1.wav
448,192,33423,1,0,0:0:0:35:hihat.wav
64,192,33500,1,0,0:0:0:35:hihat.wav
192,192,33577,1,0,0:0:0:50:snare1.wav
320,192,33655,1,0,0:0:0:35:hihat.wav
64,192,33732,1,0,0:0:0:70:kick.wav
448,192,33732,1,0,0:0:0:35:hihat.wav
192,192,33886,1,0,0:0:0:35:hihat.wav
320,192,34040,1,0,0:0:0:70:clap.wav
448,192,34040,1,0,0:0:0:0:
64,192,34195,1,0,0:0:0:35:hihat.wav
320,192,34349,1,0,0:0:0:70:kick.wav
448,192,34349,1,0,0:0:0:0:
64,192,34426,1,0,0:0:0:70:kick.wav
192,192,34504,1,0,0:0:0:70:kick.wav
320,192,34581,1,0,0:0:0:70:kick.wav
64,192,34658,1,0,0:0:0:70:kick.wav
448,192,34658,1,0,0:0:0:0:
448,192,34812,1,0,0:0:0:35:hihat.wav
320,192,34889,1,0,0:0:0:0:
192,192,34967,1,0,0:0:0:35:hihat.wav
64,192,35121,1,0,0:0:0:35:hihat.wav
192,192,35275,128,0,35430:0:0:0:70:clap.wav
320,192,35275,1,0,0:0:0:0:
448,192,35430,1,0,0:0:0:35:hihat.wav
320,192,35507,1,0,0:0:0:35:hihat.wav
64,192,35584,1,0,0:0:0:70:kick.wav
192,192,35584,1,0,0:0:0:0:
448,192,35738,1,0,0:0:0:50:snare1.wav
64,192,35893,1,0,0:0:0:35:hihat.wav
192,192,35970,1,0,0:0:0:35:hihat.wav
320,192,36047,1,0,0:0:0:50:snare1.wav
448,192,36124,1,0,0:0:0:35:hihat.wav
64,192,36201,1,0,0:0:0:70:kick.wav
192,192,36201,1,0,0:0:0:0:
448,192,36356,1,0,0:0:0:35:hihat.wav
64,192,36510,1,0,0:0:0:70:clap.wav
192,192,36510,1,0,0:0:0:0:
320,192,36664,1,0,0:0:0:70:kick.wav
448,192,36664,1,0,0:0:0:0:
64,192,36741,1,0,0:0:0:70:kick.wav
192,192,36819,1,0,0:0:0:70:kick.wav
320,192,36973,1,0,0:0:0:70:kick.wav
448,192,36973,1,0,0:0:0:0:
64,192,37127,1,0,0:0:0:70:kick.wav
192,192,37127,1,0,0:0:0:0:
448,192,37282,1,0,0:0:0:35:hihat.wav
192,192,37359,1,0,0:0:0:0:
320,192,37436,1,0,0:0:0:35:hihat.wav
64,192,37590,1,0,0:0:0:70:kick.wav
192,192,37590,1,0,0:0:0:0:
320,192,37745,1,0,0:0:0:70:clap.wav
448,192,37745,1,0,0:0:0:0:
192,192,37899,1,0,0:0:0:35:hihat.wav
64,192,38053,1,0,0:0:0:70:kick.wav
448,192,38053,1,0,0:0:0:0:
320,192,38208,1,0,0:0:0:50:snare1.wav
64,192,38362,128,0,38516:0:0:0:70:upkick1.wav
448,192,38362,128,0,38516:0:0:0:0:
192,192,38516,1,0,0:0:0:0:
320,192,38516,1,0,0:0:0:0:
64,192,38671,128,0,38876:0:0:0:70:upkick1.wav
448,192,38671,128,0,38876:0:0:0:0:
192,192,38876,1,0,0:0:0:0:
320,192,38876,1,0,0:0:0:0:
64,192,39031,1,0,0:0:0:0:
448,192,39134,1,0,0:0:0:0:
320,192,39211,1,0,0:0:0:0:
192,192,39288,1,0,0:0:0:0:
64,192,39597,1,0,0:0:0:70:kick.wav
192,192,39597,1,0,0:0:0:0:
448,192,39674,1,0,0:0:0:0:
320,192,39751,1,0,0:0:0:35:hihat.wav
448,192,39828,1,0,0:0:0:0:
64,192,39905,1,0,0:0:0:35:hihat.wav
448,192,40060,1,0,0:0:0:35:hihat.wav
64,192,40214,128,0,40368:0:0:0:70:clap.wav
192,192,40214,1,0,0:0:0:0:
448,192,40368,1,0,0:0:0:35:hihat.wav
320,192,40446,1,0,0:0:0:35:hihat.wav
64,192,40523,1,0,0:0:0:70:kick.wav
192,192,40523,1,0,0:0:0:0:
448,192,40677,1,0,0:0:0:50:snare1.wav
64,192,40831,1,0,0:0:0:35:hihat.wav
192,192,40909,1,0,0:0:0:35:hihat.wav
320,192,40986,1,0,0:0:0:50:snare1.wav
448,192,41063,1,0,0:0:0:35:hihat.wav
64,192,41140,1,0,0:0:0:70:kick.wav
192,192,41140,1,0,0:0:0:0:
320,192,41295,1,0,0:0:0:35:hihat.wav
448,192,41372,1,0,0:0:0:35:hihat.wav
64,192,41449,1,0,0:0:0:70:clap.wav
192,192,41449,1,0,0:0:0:0:
320,192,41603,1,0,0:0:0:70:kick.wav
448,192,41603,1,0,0:0:0:0:
192,192,41680,1,0,0:0:0:70:kick.wav
64,192,41758,1,0,0:0:0:70:kick.wav
320,192,41912,1,0,0:0:0:70:kick.wav
448,192,41912,1,0,0:0:0:0:
64,192,42066,1,0,0:0:0:70:kick.wav
192,192,42066,1,0,0:0:0:0:
448,192,42221,1,0,0:0:0:35:hihat.wav
320,192,42298,1,0,0:0:0:0:
192,192,42375,1,0,0:0:0:35:hihat.wav
64,192,42529,1,0,0:0:0:70:kick.wav
448,192,42529,1,0,0:0:0:0:
192,192,42684,1,0,0:0:0:70:clap.wav
320,192,42684,1,0,0:0:0:0:
64,192,42838,1,0,0:0:0:35:hihat.wav
320,192,42992,1,0,0:0:0:70:kick.wav
448,192,42992,1,0,0:0:0:0:
192,192,43147,1,0,0:0:0:50:snare1.wav
64,192,43301,1,0,0:0:0:35:hihat.wav
448,192,43378,1,0,0:0:0:35:hihat.wav
320,192,43455,1,0,0:0:0:50:snare1.wav
192,192,43532,1,0,0:0:0:35:hihat.wav
64,192,43610,1,0,0:0:0:70:kick.wav
448,192,43610,1,0,0:0:0:35:hihat.wav
320,192,43764,1,0,0:0:0:35:hihat.wav
64,192,43918,1,0,0:0:0:70:kick.wav
192,192,43918,1,0,0:0:0:70:clap.wav
448,192,44073,1,0,0:0:0:0:
320,192,44150,1,0,0:0:0:0:
320,192,44536,1,0,0:0:0:70:kick.wav
448,192,44536,1,0,0:0:0:0:
192,192,44690,1,0,0:0:0:35:hihat.wav
64,192,44767,1,0,0:0:0:0:
192,192,44844,1,0,0:0:0:35:hihat.wav
64,192,44999,1,0,0:0:0:35:hihat.wav
320,192,45153,128,0,45307:0:0:0:70:clap.wav
448,192,45153,1,0,0:0:0:0:
64,192,45307,1,0,0:0:0:35:hihat.wav
192,192,45385,1,0,0:0:0:35:hihat.wav
320,192,45462,1,0,0:0:0:70:kick.wav
448,192,45462,1,0,0:0:0:0:
64,192,45616,1,0,0:0:0:50:snare1.wav
448,192,45770,1,0,0:0:0:35:hihat.wav
320,192,45848,1,0,0:0:0:35:hihat.wav
192,192,45925,1,0,0:0:0:50:snare1.wav
64,192,46002,1,0,0:0:0:35:hihat.wav
320,192,46079,1,0,0:0:0:70:kick.wav
448,192,46079,1,0,0:0:0:0:
192,192,46233,1,0,0:0:0:35:hihat.wav
320,192,46388,1,0,0:0:0:70:clap.wav
448,192,46388,1,0,0:0:0:0:
64,192,46542,1,0,0:0:0:70:kick.wav
192,192,46542,1,0,0:0:0:0:
448,192,46619,1,0,0:0:0:70:kick.wav
320,192,46696,1,0,0:0:0:70:kick.wav
64,192,46851,1,0,0:0:0:70:kick.wav
192,192,46851,1,0,0:0:0:0:
320,192,47005,1,0,0:0:0:70:drum2.wav
64,192,47159,1,0,0:0:0:70:drum2.wav
448,192,47159,1,0,0:0:0:70:drum1.wav
192,192,47314,1,0,0:0:0:70:clap.wav
448,192,47468,1,0,0:0:0:70:drum2.wav
320,192,47545,1,0,0:0:0:0:
64,192,47622,1,0,0:0:0:70:drum2.wav
192,192,47622,1,0,0:0:0:0:
448,192,47777,1,0,0:0:0:70:clap.wav
64,192,47931,1,0,0:0:0:70:whistle1.wav
320,192,48008,1,0,0:0:0:70:whistle1.wav
192,192,48085,1,0,0:0:0:70:whistle1.wav
448,192,48163,1,0,0:0:0:70:whistle1.wav
320,192,48240,1,0,0:0:0:70:whistle1.wav
64,192,48317,1,0,0:0:0:70:whistle1.wav
192,192,48394,1,0,0:0:0:70:whistle1.wav
320,192,48471,1,0,0:0:0:70:whistle1.wav
64,192,48549,1,0,0:0:0:70:kick.wav
448,192,48549,1,0,0:0:0:0:
192,192,48703,1,0,0:0:0:0:
448,192,48857,1,0,0:0:0:70:kick.wav
192,192,49012,1,0,0:0:0:0:
64,192,49166,1,0,0:0:0:70:kick.wav
448,192,49166,1,0,0:0:0:0:
320,192,49243,1,0,0:0:0:70:kick.wav
192,192,49320,1,0,0:0:0:70:kick.wav
64,192,49397,1,0,0:0:0:70:kick.wav
320,192,49475,1,0,0:0:0:0:
448,192,49475,1,0,0:0:0:0:
64,192,49783,1,0,0:0:0:0:
448,192,49938,1,0,0:0:0:0:
64,192,50092,1,0,0:0:0:0:
448,192,50246,1,0,0:0:0:0:
64,192,50401,1,0,0:0:0:0:
448,192,50555,1,0,0:0:0:0:
192,192,50709,1,0,0:0:0:0:
320,192,50864,1,0,0:0:0:0:
192,192,51018,1,0,0:0:0:0:
320,192,51172,1,0,0:0:0:0:
192,192,51327,1,0,0:0:0:0:
320,192,51481,1,0,0:0:0:0:
192,192,51635,1,0,0:0:0:0:
320,192,51790,1,0,0:0:0:0:
448,192,51944,1,0,0:0:0:0:
192,192,52098,1,0,0:0:0:0:
448,192,52253,1,0,0:0:0:0:
192,192,52407,1,0,0:0:0:0:
448,192,52561,1,0,0:0:0:0:
192,192,52716,1,0,0:0:0:0:
448,192,52870,1,0,0:0:0:0:
192,192,53024,1,0,0:0:0:0:
320,192,53179,1,0,0:0:0:0:
64,192,53333,1,0,0:0:0:0:
320,192,53487,1,0,0:0:0:0:
64,192,53642,1,0,0:0:0:0:
320,192,53796,1,0,0:0:0:0:
448,192,53950,1,0,0:0:0:0:
320,192,54105,1,0,0:0:0:0:
448,192,54259,1,0,0:0:0:0:
192,192,54413,1,0,0:0:0:0:
64,192,54568,1,0,0:0:0:0:
192,192,54722,1,0,0:0:0:0:
64,192,54876,1,0,0:0:0:0:
448,192,55031,1,0,0:0:0:0:
192,192,55185,1,0,0:0:0:0:
448,192,55340,1,0,0:0:0:0:
192,192,55494,1,0,0:0:0:0:
320,192,55648,1,0,0:0:0:0:
64,192,55803,1,0,0:0:0:0:
320,192,55957,1,0,0:0:0:0:
64,192,56111,1,0,0:0:0:0:
192,192,56266,1,0,0:0:0:0:
320,192,56420,1,0,0:0:0:0:
192,192,56574,1,0,0:0:0:0:
320,192,56729,1,0,0:0:0:0:
64,192,56883,1,0,0:0:0:0:
448,192,57037,1,0,0:0:0:0:
64,192,57192,1,0,0:0:0:0:
448,192,57346,1,0,0:0:0:0:
192,192,57500,1,0,0:0:0:0:
320,192,57655,1,0,0:0:0:0:
192,192,57809,1,0,0:0:0:0:
320,192,57963,1,0,0:0:0:0:
64,192,58118,1,0,0:0:0:0:
192,192,58272,1,0,0:0:0:0:
64,192,58426,1,0,0:0:0:0:
192,192,58581,1,0,0:0:0:0:
448,192,58735,1,0,0:0:0:0:
320,192,58889,1,0,0:0:0:0:
448,192,59044,1,0,0:0:0:0:
320,192,59198,1,0,0:0:0:0:
64,192,59352,1,0,0:0:0:70:kick.wav
192,192,59352,1,0,0:0:0:0:
448,192,59507,1,0,0:0:0:0:
320,192,59661,1,0,0:0:0:0:
192,192,59815,1,0,0:0:0:0:
320,192,59970,1,0,0:0:0:70:kick.wav
448,192,59970,1,0,0:0:0:0:
64,192,60124,1,0,0:0:0:0:
192,192,60278,1,0,0:0:0:0:
320,192,60433,1,0,0:0:0:0:
64,192,60587,1,0,0:0:0:70:kick.wav
192,192,60587,1,0,0:0:0:0:
448,192,60741,1,0,0:0:0:0:
320,192,60896,1,0,0:0:0:0:
192,192,61050,1,0,0:0:0:0:
320,192,61204,1,0,0:0:0:70:kick.wav
448,192,61204,1,0,0:0:0:0:
64,192,61359,1,0,0:0:0:0:
192,192,61513,1,0,0:0:0:0:
448,192,61667,1,0,0:0:0:0:
64,192,61822,1,0,0:0:0:70:kick.wav
192,192,61822,1,0,0:0:0:0:
320,192,61976,1,0,0:0:0:0:
64,192,62131,1,0,0:0:0:0:
320,192,62285,1,0,0:0:0:0:
64,192,62439,1,0,0:0:0:70:kick.wav
192,192,62439,1,0,0:0:0:0:
448,192,62594,1,0,0:0:0:0:
192,192,62748,1,0,0:0:0:0:
64,192,62902,1,0,0:0:0:0:
320,192,63057,1,0,0:0:0:70:kick.wav
448,192,63057,1,0,0:0:0:0:
192,192,63211,1,0,0:0:0:0:
448,192,63365,1,0,0:0:0:0:
192,192,63520,1,0,0:0:0:0:
320,192,63674,1,0,0:0:0:70:kick.wav
448,192,63674,1,0,0:0:0:0:
64,192,63828,1,0,0:0:0:0:
320,192,63983,1,0,0:0:0:0:
448,192,64137,1,0,0:0:0:0:
64,192,64291,1,0,0:0:0:70:kick.wav
192,192,64291,1,0,0:0:0:0:
320,192,64446,1,0,0:0:0:0:
192,192,64600,1,0,0:0:0:0:
64,192,64754,1,0,0:0:0:70:kick.wav
448,192,64754,1,0,0:0:0:0:
320,192,64909,1,0,0:0:0:0:
192,192,65063,1,0,0:0:0:0:
320,192,65217,1,0,0:0:0:70:kick.wav
448,192,65217,1,0,0:0:0:0:
192,192,65372,1,0,0:0:0:0:
64,192,65526,1,0,0:0:0:70:kick.wav
320,192,65526,1,0,0:0:0:0:
448,192,65680,1,0,0:0:0:0:
192,192,65835,1,0,0:0:0:0:
320,192,65989,1,0,0:0:0:70:kick.wav
448,192,65989,1,0,0:0:0:0:
64,192,66143,1,0,0:0:0:0:
320,192,66298,1,0,0:0:0:0:
64,192,66452,1,0,0:0:0:70:kick.wav
192,192,66452,1,0,0:0:0:0:
320,192,66606,1,0,0:0:0:0:
64,192,66761,1,0,0:0:0:70:kick.wav
192,192,66761,1,0,0:0:0:0:
448,192,66915,1,0,0:0:0:0:
192,192,67069,1,0,0:0:0:70:kick.wav
320,192,67069,1,0,0:0:0:0:
64,192,67224,1,0,0:0:0:0:
320,192,67378,1,0,0:0:0:70:kick.wav
448,192,67378,1,0,0:0:0:0:
192,192,67532,1,0,0:0:0:0:
64,192,67687,1,0,0:0:0:70:kick.wav
448,192,67687,1,0,0:0:0:0:
320,192,67841,1,0,0:0:0:0:
64,192,67995,1,0,0:0:0:70:kick.wav
192,192,67995,1,0,0:0:0:0:
448,192,68073,1,0,0:0:0:70:kick.wav
320,192,68150,1,0,0:0:0:70:kick.wav
192,192,68227,1,0,0:0:0:70:kick.wav
64,192,68304,1,0,0:0:0:70:kick.wav
448,192,68381,1,0,0:0:0:70:kick.wav
320,192,68458,1,0,0:0:0:70:kick.wav
192,192,68536,1,0,0:0:0:70:kick.wav
64,192,68613,1,0,0:0:0:70:kick.wav
448,192,68690,1,0,0:0:0:70:kick.wav
320,192,68767,1,0,0:0:0:70:kick.wav
192,192,68844,1,0,0:0:0:70:kick.wav
64,192,68922,1,0,0:0:0:0:
448,192,69076,1,0,0:0:0:0:
64,192,69230,1,0,0:0:0:90:upkick2.wav
192,192,69230,1,0,0:0:0:0:
320,192,69307,1,0,0:0:0:0:
448,192,69385,1,0,0:0:0:35:hihat.wav
64,192,69462,1,0,0:0:0:0:
192,192,69539,1,0,0:0:0:35:hihat.wav
320,192,69616,1,0,0:0:0:0:
448,192,69693,1,0,0:0:0:35:hihat.wav
64,192,69848,1,0,0:0:0:50:snare2.wav
192,192,69848,1,0,0:0:0:0:
448,192,70002,1,0,0:0:0:35:hihat.wav
192,192,70156,1,0,0:0:0:35:hihat.wav
64,192,70311,1,0,0:0:0:50:snare1.wav
320,192,70388,1,0,0:0:0:35:hihat.wav
192,192,70465,1,0,0:0:0:35:hihat.wav
448,192,70619,1,0,0:0:0:50:snare1.wav
64,192,70774,1,0,0:0:0:90:upkick2.wav
192,192,70774,1,0,0:0:0:0:
320,192,70928,1,0,0:0:0:35:hihat.wav
64,192,71082,1,0,0:0:0:50:snare2.wav
192,192,71082,1,0,0:0:0:0:
320,192,71237,1,0,0:0:0:90:upkick2.wav
448,192,71237,1,0,0:0:0:0:
192,192,71314,1,0,0:0:0:0:
64,192,71391,1,0,0:0:0:35:hihat.wav
448,192,71468,1,0,0:0:0:0:
320,192,71545,1,0,0:0:0:35:hihat.wav
64,192,71700,1,0,0:0:0:90:upkick2.wav
192,192,71700,1,0,0:0:0:0:
448,192,71777,1,0,0:0:0:0:
320,192,71854,1,0,0:0:0:35:hihat.wav
192,192,71931,1,0,0:0:0:0:
64,192,72008,1,0,0:0:0:35:hihat.wav
448,192,72085,1,0,0:0:0:0:
320,192,72163,1,0,0:0:0:35:hihat.wav
64,192,72317,1,0,0:0:0:50:snare2.wav
448,192,72317,1,0,0:0:0:0:
320,192,72471,1,0,0:0:0:35:hihat.wav
192,192,72626,1,0,0:0:0:35:hihat.wav
320,192,72780,1,0,0:0:0:50:snare1.wav
320,192,72934,1,0,0:0:0:35:hihat.wav
64,192,73089,1,0,0:0:0:50:snare1.wav
192,192,73089,1,0,0:0:0:0:
320,192,73243,1,0,0:0:0:90:upkick2.wav
448,192,73243,1,0,0:0:0:0:
192,192,73397,1,0,0:0:0:35:hihat.wav
320,192,73552,1,0,0:0:0:90:upkick2.wav
448,192,73552,1,0,0:0:0:50:snare2.wav
64,192,73706,1,0,0:0:0:90:upkick2.wav
192,192,73706,1,0,0:0:0:0:
320,192,73783,1,0,0:0:0:0:
448,192,73860,1,0,0:0:0:35:hihat.wav
64,192,73938,1,0,0:0:0:0:
192,192,74015,1,0,0:0:0:35:hihat.wav
320,192,74169,1,0,0:0:0:90:upkick2.wav
448,192,74169,1,0,0:0:0:0:
192,192,74246,1,0,0:0:0:0:
64,192,74323,1,0,0:0:0:35:hihat.wav
448,192,74401,1,0,0:0:0:0:
320,192,74478,1,0,0:0:0:35:hihat.wav
64,192,74555,1,0,0:0:0:0:
192,192,74632,1,0,0:0:0:35:hihat.wav
320,192,74786,1,0,0:0:0:50:snare2.wav
448,192,74786,1,0,0:0:0:0:
192,192,74941,1,0,0:0:0:35:hihat.wav
64,192,75095,1,0,0:0:0:35:hihat.wav
448,192,75249,1,0,0:0:0:50:snare1.wav
320,192,75327,1,0,0:0:0:35:hihat.wav
192,192,75404,1,0,0:0:0:35:hihat.wav
64,192,75558,1,0,0:0:0:50:snare1.wav
320,192,75713,1,0,0:0:0:90:upkick2.wav
448,192,75713,1,0,0:0:0:0:
192,192,75867,1,0,0:0:0:35:hihat.wav
320,192,76021,1,0,0:0:0:50:snare2.wav
448,192,76021,1,0,0:0:0:0:
64,192,76176,1,0,0:0:0:90:upkick2.wav
192,192,76176,1,0,0:0:0:0:
320,192,76253,1,0,0:0:0:0:
448,192,76330,1,0,0:0:0:35:hihat.wav
64,192,76407,1,0,0:0:0:0:
192,192,76484,1,0,0:0:0:35:hihat.wav
320,192,76639,1,0,0:0:0:90:upkick2.wav
448,192,76639,1,0,0:0:0:0:
64,192,76716,1,0,0:0:0:0:
192,192,76793,1,0,0:0:0:35:hihat.wav
320,192,76870,1,0,0:0:0:0:
448,192,76947,1,0,0:0:0:35:hihat.wav
64,192,77024,1,0,0:0:0:0:
192,192,77102,1,0,0:0:0:35:hihat.wav
64,192,77256,1,0,0:0:0:50:snare2.wav
448,192,77256,1,0,0:0:0:0:
192,192,77410,1,0,0:0:0:35:hihat.wav
320,192,77565,1,0,0:0:0:35:hihat.wav
320,192,77719,1,0,0:0:0:50:snare1.wav
64,192,77873,1,0,0:0:0:35:hihat.wav
320,192,78028,1,0,0:0:0:50:snare1.wav
64,192,78182,1,0,0:0:0:90:upkick2.wav
192,192,78182,1,0,0:0:0:0:
320,192,78336,1,0,0:0:0:35:hihat.wav
64,192,78491,1,0,0:0:0:50:snare2.wav
192,192,78491,1,0,0:0:0:0:
320,192,78645,1,0,0:0:0:90:upkick2.wav
448,192,78645,1,0,0:0:0:0:
192,192,78722,1,0,0:0:0:0:
64,192,78799,1,0,0:0:0:35:hihat.wav
448,192,78876,1,0,0:0:0:0:
320,192,78954,1,0,0:0:0:35:hihat.wav
64,192,79108,1,0,0:0:0:90:upkick2.wav
192,192,79108,1,0,0:0:0:0:
320,192,79185,1,0,0:0:0:0:
448,192,79262,1,0,0:0:0:35:hihat.wav
64,192,79340,1,0,0:0:0:0:
192,192,79417,1,0,0:0:0:35:hihat.wav
320,192,79494,1,0,0:0:0:0:
448,192,79571,1,0,0:0:0:35:hihat.wav
64,192,79725,128,0,79880:0:0:0:50:snare2.wav
192,192,79725,1,0,0:0:0:0:
448,192,79880,128,0,80034:0:0:0:35:hihat.wav
192,192,80034,1,0,0:0:0:35:hihat.wav
64,192,80188,1,0,0:0:0:50:snare1.wav
320,192,80266,1,0,0:0:0:35:hihat.wav
192,192,80343,1,0,0:0:0:35:hihat.wav
448,192,80497,1,0,0:0:0:50:snare1.wav
64,192,80651,1,0,0:0:0:90:upkick2.wav
192,192,80651,1,0,0:0:0:0:
320,192,80806,1,0,0:0:0:35:hihat.wav
64,192,80960,1,0,0:0:0:50:snare2.wav
192,192,80960,1,0,0:0:0:0:
320,192,81114,1,0,0:0:0:90:upkick2.wav
448,192,81114,1,0,0:0:0:0:
192,192,81192,1,0,0:0:0:0:
64,192,81269,1,0,0:0:0:35:hihat.wav
448,192,81346,1,0,0:0:0:0:
320,192,81423,1,0,0:0:0:35:hihat.wav
64,192,81577,1,0,0:0:0:90:upkick2.wav
192,192,81577,1,0,0:0:0:0:
448,192,81655,1,0,0:0:0:0:
320,192,81732,1,0,0:0:0:35:hihat.wav
192,192,81809,1,0,0:0:0:0:
64,192,81886,1,0,0:0:0:35:hihat.wav
448,192,81963,1,0,0:0:0:0:
320,192,82040,1,0,0:0:0:35:hihat.wav
64,192,82195,1,0,0:0:0:50:snare2.wav
448,192,82195,1,0,0:0:0:0:
320,192,82349,1,0,0:0:0:35:hihat.wav
192,192,82504,1,0,0:0:0:35:hihat.wav
320,192,82658,1,0,0:0:0:50:snare1.wav
448,192,82812,128,0,82967:0:0:0:35:hihat.wav
192,192,82967,128,0,83121:0:0:0:50:snare1.wav
320,192,83121,1,0,0:0:0:90:upkick2.wav
448,192,83121,1,0,0:0:0:0:
192,192,83275,1,0,0:0:0:35:hihat.wav
320,192,83430,1,0,0:0:0:90:upkick2.wav
448,192,83430,1,0,0:0:0:50:snare2.wav
64,192,83584,1,0,0:0:0:90:upkick2.wav
192,192,83584,1,0,0:0:0:0:
320,192,83661,1,0,0:0:0:0:
448,192,83738,1,0,0:0:0:35:hihat.wav
64,192,83815,1,0,0:0:0:0:
192,192,83893,1,0,0:0:0:35:hihat.wav
320,192,84047,1,0,0:0:0:90:upkick2.wav
448,192,84047,1,0,0:0:0:0:
192,192,84124,1,0,0:0:0:0:
64,192,84201,1,0,0:0:0:35:hihat.wav
448,192,84278,1,0,0:0:0:0:
320,192,84356,1,0,0:0:0:35:hihat.wav
64,192,84433,1,0,0:0:0:0:
192,192,84510,1,0,0:0:0:35:hihat.wav
320,192,84664,1,0,0:0:0:50:snare2.wav
448,192,84664,128,0,84819:0:0:0:0:
192,192,84819,128,0,84973:0:0:0:35:hihat.wav
64,192,84973,1,0,0:0:0:35:hihat.wav
448,192,85127,1,0,0:0:0:50:snare1.wav
320,192,85204,1,0,0:0:0:35:hihat.wav
192,192,85282,1,0,0:0:0:35:hihat.wav
64,192,85436,1,0,0:0:0:50:snare1.wav
320,192,85590,1,0,0:0:0:90:upkick2.wav
448,192,85590,1,0,0:0:0:0:
192,192,85745,1,0,0:0:0:35:hihat.wav
320,192,85899,1,0,0:0:0:50:snare2.wav
448,192,85899,1,0,0:0:0:0:
64,192,86053,1,0,0:0:0:90:upkick2.wav
192,192,86053,1,0,0:0:0:0:
320,192,86131,1,0,0:0:0:0:
448,192,86208,1,0,0:0:0:35:hihat.wav
64,192,86285,1,0,0:0:0:0:
192,192,86362,1,0,0:0:0:35:hihat.wav
320,192,86516,1,0,0:0:0:90:upkick2.wav
448,192,86516,1,0,0:0:0:0:
64,192,86594,1,0,0:0:0:0:
192,192,86671,1,0,0:0:0:35:hihat.wav
320,192,86748,1,0,0:0:0:0:
448,192,86825,1,0,0:0:0:35:hihat.wav
64,192,86902,1,0,0:0:0:0:
192,192,86979,1,0,0:0:0:35:hihat.wav
64,192,87134,1,0,0:0:0:50:snare2.wav
448,192,87134,1,0,0:0:0:0:
192,192,87288,1,0,0:0:0:35:hihat.wav
320,192,87442,1,0,0:0:0:35:hihat.wav
192,192,87597,1,0,0:0:0:50:snare1.wav
448,192,87751,128,0,87905:0:0:0:35:hihat.wav
320,192,87905,128,0,88060:0:0:0:50:snare1.wav
64,192,88060,1,0,0:0:0:90:upkick2.wav
192,192,88060,1,0,0:0:0:0:
320,192,88214,1,0,0:0:0:35:hihat.wav
64,192,88368,1,0,0:0:0:50:snare2.wav
192,192,88368,1,0,0:0:0:0:
320,192,88523,1,0,0:0:0:90:upkick2.wav
448,192,88523,1,0,0:0:0:0:
192,192,88600,1,0,0:0:0:0:
64,192,88677,1,0,0:0:0:35:hihat.wav
448,192,88754,1,0,0:0:0:0:
320,192,88831,1,0,0:0:0:35:hihat.wav
64,192,88986,1,0,0:0:0:0:
448,192,89140,1,0,0:0:0:0:
320,192,89217,1,0,0:0:0:0:
192,192,89295,1,0,0:0:0:0:
448,192,89449,1,0,0:0:0:0:
64,192,89603,128,0,89758:0:0:0:0:
192,192,89680,1,0,0:0:0:0:
320,192,89758,128,0,89912:0:0:0:0:
448,192,89835,1,0,0:0:0:0:
64,192,89912,1,0,0:0:0:0:
448,192,90066,1,0,0:0:0:0:
64,192,90221,1,0,0:0:0:0:
192,192,90298,1,0,0:0:0:0:
320,192,90375,1,0,0:0:0:0:
448,192,90452,1,0,0:0:0:0:
64,192,90529,1,0,0:0:0:0:
448,192,90684,1,0,0:0:0:0:
192,192,90761,1,0,0:0:0:0:
192,192,90915,1,0,0:0:0:0:
64,192,91069,1,0,0:0:0:0:
448,192,91147,1,0,0:0:0:0:
320,192,91301,1,0,0:0:0:0:
192,192,91378,1,0,0:0:0:0:
64,192,91455,1,0,0:0:0:0:
448,192,91610,1,0,0:0:0:0:
320,192,91687,1,0,0:0:0:0:
192,192,91764,1,0,0:0:0:0:
448,192,91918,1,0,0:0:0:0:
64,192,92073,1,0,0:0:0:0:
320,192,92227,1,0,0:0:0:0:
192,192,92381,1,0,0:0:0:0:
448,192,92536,1,0,0:0:0:0:
192,192,92690,128,0,92844:0:0:0:0:
64,192,92767,1,0,0:0:0:0:
448,192,92844,128,0,92999:0:0:0:0:
320,192,92922,1,0,0:0:0:0:
64,192,92999,1,0,0:0:0:0:
192,192,93153,1,0,0:0:0:0:
64,192,93307,1,0,0:0:0:0:
448,192,93462,1,0,0:0:0:0:
320,192,93539,1,0,0:0:0:0:
192,192,93616,1,0,0:0:0:0:
448,192,93770,1,0,0:0:0:0:
