osu file format v14

[General]
AudioFilename: audio.ogg
AudioLeadIn: 0
PreviewTime: 9963
Countdown: 0
SampleSet: Soft
StackLeniency: 0.7
Mode: 3
LetterboxInBreaks: 0
SpecialStyle: 0
WidescreenStoryboard: 0

[Editor]
Bookmarks: 86,9346,9963,19841,29719,30954,32188,49475,59352,64291,69230,79108,88986,93925
DistanceSpacing: 0.9
BeatDivisor: 6
GridSize: 8
TimelineZoom: 5.399997

[Metadata]
Title:#SWAGG ANTHEM!
TitleUnicode:#SWAGG ANTHEM!
Artist:natimernero!
ArtistUnicode:natimernero!
Creator:Relae
Version:CHAT, OPZIONI, BLOCCO!
Source:
Tags:DANZʏ DANZE electronic edm hyperpop italian hyper pop
BeatmapID:4209299
BeatmapSetID:2021203

[Difficulty]
HPDrainRate:8.3
CircleSize:4
OverallDifficulty:8
ApproachRate:5
SliderMultiplier:1.4
SliderTickRate:1

[Events]
//Background and Video events
0,0,"bg.jpg",0,0
//Break Periods
//Storyboard Layer 0 (Background)
//Storyboard Layer 1 (Fail)
//Storyboard Layer 2 (Pass)
//Storyboard Layer 3 (Foreground)
//Storyboard Layer 4 (Overlay)
//Storyboard Sound Samples
Sample,6413,0,"hihat.wav",35
Sample,8883,0,"hihat.wav",35
Sample,11352,0,"hihat.wav",35

[TimingPoints]
86,308.681672025723,4,2,1,40,1,0

[HitObjects]
64,192,86,5,0,0:0:0:35:hihat.wav
448,192,86,1,0,0:0:0:0:
192,192,240,1,0,0:0:0:35:hihat.wav
320,192,317,1,0,0:0:0:0:
192,192,394,1,0,0:0:0:35:hihat.wav
320,192,549,1,0,0:0:0:35:hihat.wav
448,192,703,1,0,0:0:0:35:hihat.wav
320,192,741,1,0,0:0:0:0:
192,192,780,1,0,0:0:0:0:
64,192,819,1,0,0:0:0:0:
448,192,857,1,0,0:0:0:35:hihat.wav
320,192,896,1,0,0:0:0:35:hihat.wav
192,192,934,1,0,0:0:0:35:hihat.wav
64,192,973,1,0,0:0:0:35:hihat.wav
448,192,1012,1,0,0:0:0:35:hihat.wav
320,192,1166,1,0,0:0:0:50:snare1.wav
448,192,1166,1,0,0:0:0:0:
64,192,1243,1,0,0:0:0:35:hihat.wav
192,192,1320,1,0,0:0:0:35:hihat.wav
320,192,1372,1,0,0:0:0:0:
448,192,1423,1,0,0:0:0:0:
64,192,1475,1,0,0:0:0:50:snare1.wav
192,192,1475,1,0,0:0:0:35:hihat.wav
320,192,1552,1,0,0:0:0:35:hihat.wav
448,192,1629,1,0,0:0:0:35:hihat.wav
192,192,1783,1,0,0:0:0:35:hihat.wav
192,192,1860,1,0,0:0:0:35:hihat.wav
448,192,1938,1,0,0:0:0:35:hihat.wav
64,192,2015,1,0,0:0:0:0:
192,192,2092,1,0,0:0:0:35:hihat.wav
64,192,2169,1,0,0:0:0:0:
320,192,2246,128,0,2323:0:0:0:35:hihat.wav
448,192,2323,128,0,2401:0:0:0:35:hihat.wav
192,192,2401,128,0,2478:0:0:0:35:hihat.wav
320,192,2478,1,0,0:0:0:35:hihat.wav
64,192,2555,128,0,2632:0:0:0:35:hihat.wav
320,192,2709,128,0,2786:0:0:0:35:hihat.wav
192,192,2786,1,0,0:0:0:0:
64,192,2864,1,0,0:0:0:35:hihat.wav
320,192,3018,1,0,0:0:0:35:hihat.wav
192,192,3172,1,0,0:0:0:35:hihat.wav
448,192,3327,1,0,0:0:0:35:hihat.wav
320,192,3365,1,0,0:0:0:35:hihat.wav
192,192,3404,1,0,0:0:0:35:hihat.wav
64,192,3442,1,0,0:0:0:35:hihat.wav
448,192,3481,1,0,0:0:0:35:hihat.wav
64,192,3635,1,0,0:0:0:50:snare1.wav
192,192,3635,1,0,0:0:0:0:
320,192,3713,1,0,0:0:0:35:hihat.wav
448,192,3790,1,0,0:0:0:35:hihat.wav
64,192,3828,1,0,0:0:0:35:hihat.wav
192,192,3867,1,0,0:0:0:35:hihat.wav
320,192,3905,1,0,0:0:0:35:hihat.wav
64,192,3944,1,0,0:0:0:50:snare1.wav
448,192,3944,1,0,0:0:0:35:hihat.wav
192,192,3983,1,0,0:0:0:35:hihat.wav
320,192,4021,1,0,0:0:0:35:hihat.wav
448,192,4060,1,0,0:0:0:0:
64,192,4098,1,0,0:0:0:35:hihat.wav
192,192,4253,1,0,0:0:0:35:hihat.wav
320,192,4330,1,0,0:0:0:35:hihat.wav
64,192,4407,1,0,0:0:0:35:hihat.wav
320,192,4561,1,0,0:0:0:35:hihat.wav
192,192,4639,1,0,0:0:0:0:
448,192,4716,128,0,4793:0:0:0:35:hihat.wav
64,192,4793,128,0,4870:0:0:0:35:hihat.wav
320,192,4870,128,0,4947:0:0:0:35:hihat.wav
192,192,4947,128,0,5024:0:0:0:35:hihat.wav
448,192,5024,128,0,5282:0:0:0:35:hihat.wav
320,192,5127,1,0,0:0:0:0:
64,192,5179,1,0,0:0:0:35:hihat.wav
192,192,5230,1,0,0:0:0:0:
64,192,5282,1,0,0:0:0:0:
320,192,5333,1,0,0:0:0:35:hihat.wav
192,192,5385,1,0,0:0:0:0:
448,192,5436,1,0,0:0:0:0:
320,192,5487,1,0,0:0:0:35:hihat.wav
64,192,5539,1,0,0:0:0:0:
192,192,5590,1,0,0:0:0:0:
448,192,5642,1,0,0:0:0:35:hihat.wav
320,192,5693,1,0,0:0:0:0:
64,192,5745,1,0,0:0:0:0:
448,192,5796,1,0,0:0:0:35:hihat.wav
192,192,5848,1,0,0:0:0:0:
64,192,5899,1,0,0:0:0:0:
320,192,5950,1,0,0:0:0:35:hihat.wav
448,192,6002,1,0,0:0:0:0:
192,192,6053,1,0,0:0:0:0:
64,192,6105,1,0,0:0:0:50:snare1.wav
320,192,6156,1,0,0:0:0:0:
192,192,6208,1,0,0:0:0:0:
448,192,6259,1,0,0:0:0:35:hihat.wav
320,192,6311,1,0,0:0:0:0:
64,192,6362,1,0,0:0:0:0:
192,192,6413,1,0,0:0:0:50:snare1.wav
448,192,6465,1,0,0:0:0:0:
64,192,6516,1,0,0:0:0:0:
320,192,6568,1,0,0:0:0:35:hihat.wav
192,192,6619,1,0,0:0:0:0:
448,192,6671,1,0,0:0:0:0:
64,192,6722,1,0,0:0:0:35:hihat.wav
192,192,6774,1,0,0:0:0:0:
320,192,6825,1,0,0:0:0:0:
448,192,6876,1,0,0:0:0:35:hihat.wav
64,192,6928,1,0,0:0:0:0:
192,192,6979,1,0,0:0:0:0:
320,192,7031,1,0,0:0:0:35:hihat.wav
64,192,7082,1,0,0:0:0:0:
448,192,7134,1,0,0:0:0:0:
192,192,7185,1,0,0:0:0:35:hihat.wav
64,192,7262,1,0,0:0:0:35:hihat.wav
320,192,7340,1,0,0:0:0:35:hihat.wav
320,192,7417,1,0,0:0:0:35:hihat.wav
192,192,7494,128,0,7571:0:0:0:35:hihat.wav
448,192,7610,128,0,7957:0:0:0:0:
64,192,7648,1,0,0:0:0:35:hihat.wav
320,192,7725,1,0,0:0:0:0:
192,192,7803,128,0,7880:0:0:0:35:hihat.wav
64,192,7957,1,0,0:0:0:35:hihat.wav
192,192,8111,128,0,8188:0:0:0:35:hihat.wav
64,192,8266,1,0,0:0:0:35:hihat.wav
192,192,8304,1,0,0:0:0:35:hihat.wav
320,192,8343,1,0,0:0:0:35:hihat.wav
448,192,8381,1,0,0:0:0:35:hihat.wav
64,192,8420,128,0,8497:0:0:0:35:hihat.wav
448,192,8497,128,0,8574:0:0:0:0:
64,192,8574,1,0,0:0:0:50:snare1.wav
192,192,8574,128,0,8651:0:0:0:0:
320,192,8651,128,0,8729:0:0:0:35:hihat.wav
64,192,8729,1,0,0:0:0:35:hihat.wav
192,192,8767,1,0,0:0:0:35:hihat.wav
320,192,8806,1,0,0:0:0:35:hihat.wav
448,192,8844,1,0,0:0:0:35:hihat.wav
64,192,8883,1,0,0:0:0:50:snare1.wav
192,192,8922,1,0,0:0:0:35:hihat.wav
320,192,8960,1,0,0:0:0:35:hihat.wav
448,192,8999,1,0,0:0:0:0:
64,192,9037,128,0,9114:0:0:0:35:hihat.wav
320,192,9192,128,0,9269:0:0:0:35:hihat.wav
448,192,9269,1,0,0:0:0:35:hihat.wav
64,192,9655,128,0,9732:0:0:0:0:
320,192,9809,128,0,9886:0:0:0:0:
64,192,9963,1,0,0:0:0:70:kick.wav
448,192,9963,1,0,0:0:0:0:
320,192,10040,1,0,0:0:0:0:
320,192,10118,128,0,10156:0:0:0:35:hihat.wav
64,192,10195,128,0,10233:0:0:0:0:
64,192,10272,128,0,10311:0:0:0:35:hihat.wav
192,192,10426,128,0,10465:0:0:0:35:hihat.wav
64,192,10581,1,0,0:0:0:70:clap.wav
320,192,10581,1,0,0:0:0:0:
448,192,10581,1,0,0:0:0:0:
192,192,10658,1,0,0:0:0:0:
64,192,10696,1,0,0:0:0:0:
448,192,10735,1,0,0:0:0:35:hihat.wav
320,192,10774,1,0,0:0:0:35:hihat.wav
192,192,10812,1,0,0:0:0:35:hihat.wav
64,192,10851,1,0,0:0:0:35:hihat.wav
320,192,10889,1,0,0:0:0:70:kick.wav
448,192,10889,128,0,10928:0:0:0:35:hihat.wav
320,192,11044,128,0,11082:0:0:0:50:snare1.wav
64,192,11198,128,0,11237:0:0:0:35:hihat.wav
192,192,11237,1,0,0:0:0:35:hihat.wav
448,192,11275,128,0,11314:0:0:0:35:hihat.wav
320,192,11314,1,0,0:0:0:35:hihat.wav
64,192,11352,128,0,11391:0:0:0:50:snare1.wav
192,192,11391,1,0,0:0:0:35:hihat.wav
448,192,11430,128,0,11468:0:0:0:35:hihat.wav
320,192,11468,1,0,0:0:0:0:
64,192,11507,128,0,11545:0:0:0:70:kick.wav
192,192,11507,1,0,0:0:0:0:
448,192,11661,128,0,11700:0:0:0:35:hihat.wav
320,192,11738,128,0,11777:0:0:0:35:hihat.wav
64,192,11815,1,0,0:0:0:70:clap.wav
192,192,11815,1,0,0:0:0:0:
448,192,11815,1,0,0:0:0:0:
320,192,11893,128,0,11931:0:0:0:0:
64,192,11970,1,0,0:0:0:70:kick.wav
192,192,11970,1,0,0:0:0:0:
320,192,12047,1,0,0:0:0:70:kick.wav
448,192,12047,1,0,0:0:0:0:
64,192,12124,1,0,0:0:0:70:kick.wav
192,192,12124,128,0,12163:0:0:0:0:
320,192,12278,128,0,12317:0:0:0:70:kick.wav
448,192,12278,1,0,0:0:0:0:
192,192,12356,1,0,0:0:0:35:hihat.wav
64,192,12433,1,0,0:0:0:70:kick.wav
448,192,12433,1,0,0:0:0:0:
192,192,12587,128,0,12626:0:0:0:35:hihat.wav
320,192,12664,128,0,12703:0:0:0:0:
64,192,12741,128,0,12780:0:0:0:35:hihat.wav
320,192,12896,128,0,12934:0:0:0:70:kick.wav
448,192,12896,1,0,0:0:0:0:
64,192,13050,1,0,0:0:0:70:clap.wav
192,192,13050,128,0,13089:0:0:0:0:
448,192,13050,1,0,0:0:0:0:
448,192,13204,128,0,13243:0:0:0:35:hihat.wav
64,192,13243,1,0,0:0:0:35:hihat.wav
192,192,13282,1,0,0:0:0:35:hihat.wav
320,192,13320,1,0,0:0:0:35:hihat.wav
64,192,13359,128,0,13397:0:0:0:70:kick.wav
448,192,13359,1,0,0:0:0:0:
192,192,13513,128,0,13552:0:0:0:50:snare1.wav
448,192,13667,1,0,0:0:0:35:hihat.wav
320,192,13706,1,0,0:0:0:35:hihat.wav
192,192,13745,1,0,0:0:0:35:hihat.wav
64,192,13783,1,0,0:0:0:35:hihat.wav
448,192,13822,1,0,0:0:0:50:snare1.wav
320,192,13860,1,0,0:0:0:35:hihat.wav
192,192,13899,1,0,0:0:0:35:hihat.wav
64,192,13938,1,0,0:0:0:0:
320,192,13976,1,0,0:0:0:70:kick.wav
448,192,13976,128,0,14015:0:0:0:35:hihat.wav
320,192,14131,128,0,14169:0:0:0:35:hihat.wav
64,192,14208,1,0,0:0:0:35:hihat.wav
192,192,14246,1,0,0:0:0:0:
320,192,14285,1,0,0:0:0:70:clap.wav
448,192,14285,128,0,14323:0:0:0:0:
192,192,14439,128,0,14478:0:0:0:35:hihat.wav
448,192,14516,128,0,14555:0:0:0:0:
64,192,14594,128,0,14671:0:0:0:70:kick.wav
192,192,14594,1,0,0:0:0:0:
320,192,14671,1,0,0:0:0:70:kick.wav
448,192,14671,128,0,14748:0:0:0:0:
64,192,14748,128,0,14851:0:0:0:70:kick.wav
192,192,14748,128,0,14851:0:0:0:0:
320,192,14825,128,0,14902:0:0:0:70:kick.wav
448,192,14825,128,0,14902:0:0:0:0:
64,192,14902,1,0,0:0:0:70:kick.wav
192,192,14902,1,0,0:0:0:0:
320,192,14979,1,0,0:0:0:0:
320,192,15057,128,0,15095:0:0:0:0:
192,192,15134,128,0,15172:0:0:0:0:
320,192,15211,1,0,0:0:0:35:hihat.wav
64,192,15327,128,0,15365:0:0:0:0:
448,192,15365,128,0,15404:0:0:0:35:hihat.wav
64,192,15520,1,0,0:0:0:70:clap.wav
320,192,15520,1,0,0:0:0:0:
448,192,15520,1,0,0:0:0:0:
192,192,15597,1,0,0:0:0:0:
320,192,15635,1,0,0:0:0:0:
448,192,15674,1,0,0:0:0:35:hihat.wav
64,192,15713,1,0,0:0:0:35:hihat.wav
192,192,15751,1,0,0:0:0:35:hihat.wav
320,192,15790,1,0,0:0:0:35:hihat.wav
64,192,15828,128,0,15867:0:0:0:70:kick.wav
448,192,15828,1,0,0:0:0:0:
192,192,15983,1,0,0:0:0:50:snare1.wav
64,192,16060,1,0,0:0:0:35:hihat.wav
320,192,16137,128,0,16176:0:0:0:35:hihat.wav
448,192,16176,1,0,0:0:0:35:hihat.wav
64,192,16214,128,0,16253:0:0:0:35:hihat.wav
192,192,16253,1,0,0:0:0:35:hihat.wav
448,192,16291,128,0,16330:0:0:0:50:snare1.wav
320,192,16330,1,0,0:0:0:35:hihat.wav
192,192,16368,128,0,16407:0:0:0:35:hihat.wav
64,192,16407,1,0,0:0:0:0:
320,192,16446,128,0,16484:0:0:0:70:kick.wav
448,192,16446,1,0,0:0:0:0:
64,192,16600,128,0,16639:0:0:0:35:hihat.wav
320,192,16677,128,0,16716:0:0:0:35:hihat.wav
64,192,16754,1,0,0:0:0:70:clap.wav
192,192,16754,1,0,0:0:0:0:
448,192,16754,1,0,0:0:0:0:
320,192,16831,128,0,16870:0:0:0:0:
64,192,16909,1,0,0:0:0:70:kick.wav
192,192,16909,1,0,0:0:0:0:
320,192,16986,128,0,17024:0:0:0:70:kick.wav
448,192,16986,1,0,0:0:0:0:
64,192,17063,128,0,17102:0:0:0:70:kick.wav
192,192,17063,1,0,0:0:0:0:
320,192,17217,1,0,0:0:0:70:kick.wav
448,192,17217,128,0,17256:0:0:0:0:
64,192,17372,1,0,0:0:0:70:kick.wav
448,192,17372,1,0,0:0:0:0:
320,192,17526,128,0,17565:0:0:0:35:hihat.wav
192,192,17603,128,0,17642:0:0:0:0:
448,192,17680,128,0,17719:0:0:0:35:hihat.wav
64,192,17835,128,0,17873:0:0:0:70:kick.wav
192,192,17835,1,0,0:0:0:0:
64,192,17989,1,0,0:0:0:70:clap.wav
320,192,17989,128,0,18028:0:0:0:0:
448,192,17989,1,0,0:0:0:0:
192,192,18143,128,0,18182:0:0:0:35:hihat.wav
64,192,18298,1,0,0:0:0:70:kick.wav
448,192,18298,128,0,18336:0:0:0:0:
192,192,18452,128,0,18491:0:0:0:50:snare1.wav
320,192,18529,128,0,18568:0:0:0:35:hihat.wav
64,192,18606,1,0,0:0:0:70:upkick1.wav
192,192,18606,1,0,0:0:0:0:
448,192,18606,1,0,0:0:0:0:
64,192,18709,128,0,18864:0:0:0:0:
192,192,18709,128,0,18864:0:0:0:0:
448,192,18709,128,0,18864:0:0:0:0:
64,192,18915,1,0,0:0:0:70:upkick1.wav
320,192,18915,1,0,0:0:0:0:
448,192,18915,1,0,0:0:0:0:
64,192,19018,128,0,19172:0:0:0:0:
320,192,19018,128,0,19172:0:0:0:0:
448,192,19018,128,0,19172:0:0:0:0:
64,192,19224,1,0,0:0:0:70:upkick1.wav
192,192,19224,1,0,0:0:0:0:
448,192,19224,1,0,0:0:0:0:
64,192,19327,128,0,19481:0:0:0:0:
192,192,19327,128,0,19481:0:0:0:0:
448,192,19327,128,0,19481:0:0:0:0:
320,192,19532,128,0,19571:0:0:0:0:
192,192,19687,128,0,19725:0:0:0:0:
64,192,19841,128,0,19880:0:0:0:70:kick.wav
448,192,19841,1,0,0:0:0:0:
192,192,19995,128,0,20034:0:0:0:35:hihat.wav
320,192,20073,128,0,20111:0:0:0:0:
192,192,20150,128,0,20188:0:0:0:35:hihat.wav
320,192,20304,128,0,20343:0:0:0:35:hihat.wav
64,192,20458,1,0,0:0:0:70:clap.wav
192,192,20458,1,0,0:0:0:0:
448,192,20458,1,0,0:0:0:0:
320,192,20536,1,0,0:0:0:0:
448,192,20574,1,0,0:0:0:0:
64,192,20613,1,0,0:0:0:35:hihat.wav
192,192,20651,1,0,0:0:0:35:hihat.wav
320,192,20690,1,0,0:0:0:35:hihat.wav
448,192,20729,1,0,0:0:0:35:hihat.wav
64,192,20767,128,0,20806:0:0:0:70:kick.wav
192,192,20767,1,0,0:0:0:0:
192,192,20922,128,0,20960:0:0:0:50:snare1.wav
448,192,21076,128,0,21114:0:0:0:35:hihat.wav
320,192,21114,1,0,0:0:0:35:hihat.wav
64,192,21153,128,0,21192:0:0:0:35:hihat.wav
192,192,21192,1,0,0:0:0:35:hihat.wav
448,192,21230,128,0,21269:0:0:0:50:snare1.wav
320,192,21269,1,0,0:0:0:35:hihat.wav
64,192,21307,128,0,21346:0:0:0:35:hihat.wav
192,192,21346,1,0,0:0:0:0:
320,192,21385,1,0,0:0:0:70:kick.wav
448,192,21385,128,0,21423:0:0:0:0:
64,192,21539,128,0,21577:0:0:0:35:hihat.wav
192,192,21616,128,0,21655:0:0:0:35:hihat.wav
64,192,21693,1,0,0:0:0:70:clap.wav
320,192,21693,1,0,0:0:0:0:
448,192,21693,1,0,0:0:0:0:
192,192,21770,128,0,21809:0:0:0:0:
320,192,21848,1,0,0:0:0:70:kick.wav
448,192,21848,1,0,0:0:0:0:
64,192,21925,1,0,0:0:0:70:kick.wav
192,192,21925,1,0,0:0:0:0:
320,192,22002,1,0,0:0:0:70:kick.wav
448,192,22002,128,0,22079:0:0:0:0:
64,192,22156,1,0,0:0:0:70:kick.wav
192,192,22156,128,0,22233:0:0:0:0:
448,192,22233,128,0,22311:0:0:0:35:hihat.wav
64,192,22311,128,0,22349:0:0:0:70:kick.wav
192,192,22311,1,0,0:0:0:0:
320,192,22465,128,0,22504:0:0:0:35:hihat.wav
192,192,22542,128,0,22581:0:0:0:0:
448,192,22619,128,0,22658:0:0:0:35:hihat.wav
64,192,22774,1,0,0:0:0:70:kick.wav
192,192,22774,128,0,22812:0:0:0:0:
64,192,22928,1,0,0:0:0:70:clap.wav
320,192,22928,128,0,22967:0:0:0:0:
448,192,22928,1,0,0:0:0:0:
64,192,23082,128,0,23121:0:0:0:35:hihat.wav
448,192,23121,1,0,0:0:0:35:hihat.wav
320,192,23159,1,0,0:0:0:35:hihat.wav
192,192,23198,1,0,0:0:0:35:hihat.wav
64,192,23237,1,0,0:0:0:70:kick.wav
448,192,23237,128,0,23275:0:0:0:0:
320,192,23391,128,0,23430:0:0:0:50:snare1.wav
64,192,23545,1,0,0:0:0:35:hihat.wav
192,192,23584,1,0,0:0:0:35:hihat.wav
320,192,23622,1,0,0:0:0:35:hihat.wav
448,192,23661,1,0,0:0:0:35:hihat.wav
64,192,23700,1,0,0:0:0:50:snare1.wav
192,192,23738,1,0,0:0:0:35:hihat.wav
320,192,23777,1,0,0:0:0:35:hihat.wav
448,192,23815,1,0,0:0:0:0:
64,192,23854,128,0,23893:0:0:0:70:kick.wav
192,192,23854,1,0,0:0:0:35:hihat.wav
192,192,24008,128,0,24047:0:0:0:35:hihat.wav
448,192,24085,1,0,0:0:0:35:hihat.wav
320,192,24124,1,0,0:0:0:0:
64,192,24163,128,0,24201:0:0:0:70:clap.wav
192,192,24163,1,0,0:0:0:0:
320,192,24317,128,0,24356:0:0:0:35:hihat.wav
64,192,24394,128,0,24433:0:0:0:0:
320,192,24780,1,0,0:0:0:70:kick.wav
448,192,24780,1,0,0:0:0:0:
192,192,24857,1,0,0:0:0:0:
64,192,24934,128,0,24973:0:0:0:0:
320,192,25012,128,0,25050:0:0:0:0:
192,192,25089,128,0,25127:0:0:0:35:hihat.wav
448,192,25243,128,0,25282:0:0:0:35:hihat.wav
64,192,25397,1,0,0:0:0:70:clap.wav
192,192,25397,1,0,0:0:0:0:
448,192,25397,1,0,0:0:0:0:
320,192,25475,1,0,0:0:0:0:
192,192,25513,1,0,0:0:0:0:
64,192,25552,1,0,0:0:0:35:hihat.wav
448,192,25590,1,0,0:0:0:35:hihat.wav
320,192,25629,1,0,0:0:0:35:hihat.wav
192,192,25667,1,0,0:0:0:35:hihat.wav
64,192,25706,1,0,0:0:0:70:kick.wav
448,192,25706,128,0,25745:0:0:0:0:
320,192,25860,1,0,0:0:0:50:snare1.wav
448,192,25938,1,0,0:0:0:35:hihat.wav
192,192,26015,128,0,26053:0:0:0:35:hihat.wav
64,192,26053,1,0,0:0:0:35:hihat.wav
448,192,26092,128,0,26131:0:0:0:35:hihat.wav
320,192,26131,1,0,0:0:0:35:hihat.wav
64,192,26169,128,0,26208:0:0:0:50:snare1.wav
192,192,26208,1,0,0:0:0:35:hihat.wav
320,192,26246,128,0,26285:0:0:0:35:hihat.wav
448,192,26285,1,0,0:0:0:0:
64,192,26323,1,0,0:0:0:70:kick.wav
192,192,26323,128,0,26362:0:0:0:0:
64,192,26478,128,0,26516:0:0:0:35:hihat.wav
320,192,26555,128,0,26594:0:0:0:35:hihat.wav
64,192,26632,1,0,0:0:0:70:clap.wav
192,192,26632,1,0,0:0:0:0:
448,192,26632,1,0,0:0:0:0:
320,192,26709,128,0,26748:0:0:0:0:
64,192,26786,1,0,0:0:0:70:kick.wav
448,192,26786,1,0,0:0:0:0:
192,192,26864,128,0,26902:0:0:0:70:kick.wav
320,192,26864,1,0,0:0:0:0:
64,192,26941,1,0,0:0:0:70:kick.wav
448,192,26941,128,0,26979:0:0:0:0:
320,192,27018,1,0,0:0:0:35:hihat.wav
64,192,27095,128,0,27134:0:0:0:70:kick.wav
192,192,27095,1,0,0:0:0:0:
320,192,27172,1,0,0:0:0:35:hihat.wav
192,192,27249,128,0,27288:0:0:0:70:kick.wav
448,192,27249,128,0,27327:0:0:0:0:
64,192,27327,128,0,27404:0:0:0:0:
320,192,27404,128,0,27442:0:0:0:0:
448,192,27404,128,0,27481:0:0:0:0:
64,192,27481,128,0,27558:0:0:0:0:
192,192,27481,128,0,27520:0:0:0:0:
320,192,27558,128,0,27597:0:0:0:0:
448,192,27713,128,0,27751:0:0:0:0:
192,192,27867,128,0,27905:0:0:0:0:
320,192,28021,128,0,28060:0:0:0:0:
192,192,28176,128,0,28214:0:0:0:0:
64,192,28330,128,0,28368:0:0:0:0:
192,192,28407,128,0,28446:0:0:0:0:
448,192,28484,1,0,0:0:0:0:
320,192,28523,1,0,0:0:0:0:
192,192,28561,1,0,0:0:0:0:
64,192,28600,1,0,0:0:0:0:
448,192,28639,1,0,0:0:0:0:
320,192,28677,1,0,0:0:0:0:
192,192,28716,1,0,0:0:0:0:
64,192,28754,1,0,0:0:0:0:
320,192,28793,1,0,0:0:0:70:kick.wav
448,192,28793,128,0,28831:0:0:0:0:
320,192,28947,128,0,28986:0:0:0:0:
320,192,29102,128,0,29179:0:0:0:70:kick.wav
192,192,29102,1,0,0:0:0:0:
64,192,29179,128,0,29256:0:0:0:0:
448,192,29256,128,0,29333:0:0:0:0:
320,192,29333,128,0,29372:0:0:0:0:
64,192,29410,1,0,0:0:0:70:kick.wav
192,192,29410,128,0,29487:0:0:0:0:
320,192,29487,128,0,29565:0:0:0:70:kick.wav
448,192,29487,1,0,0:0:0:0:
64,192,29565,128,0,29680:0:0:0:70:kick.wav
192,192,29565,128,0,29680:0:0:0:0:
320,192,29642,128,0,29719:0:0:0:70:kick.wav
448,192,29642,128,0,29719:0:0:0:0:
64,192,29719,1,0,0:0:0:70:kick.wav
192,192,29719,1,0,0:0:0:0:
448,192,29873,1,0,0:0:0:35:hihat.wav
320,192,29950,1,0,0:0:0:0:
448,192,30028,1,0,0:0:0:35:hihat.wav
192,192,30182,1,0,0:0:0:35:hihat.wav
64,192,30336,1,0,0:0:0:70:clap.wav
320,192,30336,1,0,0:0:0:0:
448,192,30336,1,0,0:0:0:0:
64,192,30491,1,0,0:0:0:35:hihat.wav
192,192,30529,1,0,0:0:0:35:hihat.wav
320,192,30568,1,0,0:0:0:35:hihat.wav
448,192,30606,1,0,0:0:0:35:hihat.wav
64,192,30645,128,0,30722:0:0:0:70:kick.wav
192,192,30645,1,0,0:0:0:0:
320,192,30722,128,0,30799:0:0:0:0:
64,192,30799,128,0,30876:0:0:0:50:snare1.wav
192,192,30954,128,0,31108:0:0:0:35:hihat.wav
448,192,31108,128,0,31262:0:0:0:0:
64,192,31262,128,0,31417:0:0:0:0:
320,192,31417,128,0,31571:0:0:0:0:
192,192,31571,128,0,31803:0:0:0:0:
64,192,32188,128,0,32227:0:0:0:70:kick.wav
192,192,32188,1,0,0:0:0:0:
448,192,32343,128,0,32381:0:0:0:35:hihat.wav
192,192,32420,128,0,32458:0:0:0:0:
448,192,32497,128,0,32536:0:0:0:35:hihat.wav
64,192,32651,128,0,32690:0:0:0:70:kick.wav
320,192,32651,1,0,0:0:0:0:
192,192,32806,1,0,0:0:0:70:clap.wav
320,192,32806,128,0,32844:0:0:0:0:
448,192,32806,1,0,0:0:0:0:
64,192,32960,128,0,32999:0:0:0:35:hihat.wav
192,192,33037,1,0,0:0:0:35:hihat.wav
320,192,33076,1,0,0:0:0:35:hihat.wav
64,192,33114,1,0,0:0:0:70:kick.wav
448,192,33114,1,0,0:0:0:0:
192,192,33269,128,0,33307:0:0:0:50:snare1.wav
448,192,33346,1,0,0:0:0:35:hihat.wav
192,192,33423,1,0,0:0:0:35:hihat.wav
64,192,33462,1,0,0:0:0:35:hihat.wav
448,192,33500,1,0,0:0:0:35:hihat.wav
320,192,33539,1,0,0:0:0:35:hihat.wav
192,192,33577,1,0,0:0:0:50:snare1.wav
64,192,33616,1,0,0:0:0:35:hihat.wav
448,192,33655,1,0,0:0:0:35:hihat.wav
320,192,33693,1,0,0:0:0:0:
64,192,33732,128,0,33770:0:0:0:70:kick.wav
192,192,33732,1,0,0:0:0:35:hihat.wav
192,192,33886,128,0,33925:0:0:0:35:hihat.wav
320,192,33963,1,0,0:0:0:35:hihat.wav
64,192,34040,128,0,34079:0:0:0:70:clap.wav
192,192,34040,1,0,0:0:0:0:
448,192,34040,1,0,0:0:0:0:
192,192,34195,128,0,34233:0:0:0:35:hihat.wav
320,192,34272,128,0,34311:0:0:0:0:
64,192,34349,128,0,34388:0:0:0:70:kick.wav
192,192,34349,1,0,0:0:0:0:
320,192,34426,1,0,0:0:0:70:kick.wav
448,192,34426,1,0,0:0:0:0:
64,192,34504,128,0,34619:0:0:0:70:kick.wav
192,192,34504,128,0,34619:0:0:0:0:
320,192,34581,128,0,34658:0:0:0:70:kick.wav
448,192,34581,128,0,34658:0:0:0:0:
64,192,34658,1,0,0:0:0:70:kick.wav
192,192,34658,1,0,0:0:0:0:
192,192,34812,128,0,34851:0:0:0:35:hihat.wav
320,192,34889,128,0,34928:0:0:0:0:
64,192,34967,128,0,35005:0:0:0:35:hihat.wav
448,192,35121,128,0,35159:0:0:0:35:hihat.wav
64,192,35198,1,0,0:0:0:0:
192,192,35275,1,0,0:0:0:70:clap.wav
320,192,35275,1,0,0:0:0:0:
448,192,35275,1,0,0:0:0:0:
64,192,35352,1,0,0:0:0:0:
192,192,35391,1,0,0:0:0:0:
320,192,35430,1,0,0:0:0:35:hihat.wav
448,192,35468,1,0,0:0:0:35:hihat.wav
192,192,35507,1,0,0:0:0:35:hihat.wav
64,192,35545,1,0,0:0:0:35:hihat.wav
320,192,35584,128,0,35622:0:0:0:70:kick.wav
448,192,35584,1,0,0:0:0:0:
64,192,35738,128,0,35777:0:0:0:50:snare1.wav
448,192,35815,1,0,0:0:0:35:hihat.wav
192,192,35893,128,0,35931:0:0:0:35:hihat.wav
320,192,35931,1,0,0:0:0:35:hihat.wav
448,192,35970,128,0,36008:0:0:0:35:hihat.wav
64,192,36008,1,0,0:0:0:35:hihat.wav
192,192,36047,128,0,36085:0:0:0:50:snare1.wav
320,192,36085,1,0,0:0:0:35:hihat.wav
448,192,36124,128,0,36163:0:0:0:35:hihat.wav
64,192,36163,1,0,0:0:0:0:
192,192,36201,128,0,36240:0:0:0:70:kick.wav
320,192,36201,1,0,0:0:0:0:
64,192,36356,128,0,36394:0:0:0:35:hihat.wav
320,192,36433,128,0,36471:0:0:0:35:hihat.wav
64,192,36510,1,0,0:0:0:70:clap.wav
192,192,36510,1,0,0:0:0:0:
448,192,36510,1,0,0:0:0:0:
320,192,36587,128,0,36626:0:0:0:0:
64,192,36664,1,0,0:0:0:70:kick.wav
192,192,36664,1,0,0:0:0:0:
320,192,36741,1,0,0:0:0:70:kick.wav
448,192,36741,128,0,36780:0:0:0:0:
64,192,36819,128,0,36857:0:0:0:70:kick.wav
192,192,36819,1,0,0:0:0:0:
320,192,36896,1,0,0:0:0:35:hihat.wav
64,192,36973,1,0,0:0:0:70:kick.wav
448,192,36973,128,0,37012:0:0:0:0:
192,192,37050,1,0,0:0:0:35:hihat.wav
320,192,37127,1,0,0:0:0:70:kick.wav
448,192,37127,1,0,0:0:0:0:
64,192,37282,128,0,37320:0:0:0:35:hihat.wav
320,192,37359,128,0,37397:0:0:0:0:
192,192,37436,128,0,37475:0:0:0:35:hihat.wav
64,192,37590,1,0,0:0:0:70:kick.wav
320,192,37590,128,0,37629:0:0:0:0:
64,192,37745,1,0,0:0:0:70:clap.wav
192,192,37745,1,0,0:0:0:0:
448,192,37745,1,0,0:0:0:0:
320,192,37899,1,0,0:0:0:35:hihat.wav
192,192,37938,1,0,0:0:0:35:hihat.wav
64,192,37976,1,0,0:0:0:35:hihat.wav
448,192,38015,1,0,0:0:0:35:hihat.wav
192,192,38053,128,0,38092:0:0:0:70:kick.wav
320,192,38053,1,0,0:0:0:0:
448,192,38208,128,0,38246:0:0:0:50:snare1.wav
64,192,38362,1,0,0:0:0:70:upkick1.wav
192,192,38362,1,0,0:0:0:0:
448,192,38362,1,0,0:0:0:0:
64,192,38465,128,0,38619:0:0:0:0:
192,192,38465,128,0,38619:0:0:0:0:
448,192,38465,128,0,38619:0:0:0:0:
64,192,38671,1,0,0:0:0:70:upkick1.wav
320,192,38671,1,0,0:0:0:0:
448,192,38671,1,0,0:0:0:0:
64,192,38774,128,0,38876:0:0:0:0:
320,192,38774,128,0,38876:0:0:0:0:
448,192,38774,128,0,38876:0:0:0:0:
192,192,38876,1,0,0:0:0:0:
320,192,39031,1,0,0:0:0:0:
64,192,39134,1,0,0:0:0:0:
192,192,39185,1,0,0:0:0:0:
320,192,39237,1,0,0:0:0:0:
448,192,39288,1,0,0:0:0:0:
192,192,39597,128,0,39674:0:0:0:70:kick.wav
320,192,39597,1,0,0:0:0:0:
448,192,39674,128,0,39751:0:0:0:0:
64,192,39751,128,0,39828:0:0:0:35:hihat.wav
320,192,39828,128,0,39905:0:0:0:0:
192,192,39905,128,0,39944:0:0:0:35:hihat.wav
448,192,40060,128,0,40098:0:0:0:35:hihat.wav
64,192,40214,1,0,0:0:0:70:clap.wav
192,192,40214,128,0,40253:0:0:0:0:
448,192,40214,1,0,0:0:0:0:
320,192,40291,1,0,0:0:0:0:
448,192,40330,1,0,0:0:0:0:
64,192,40368,1,0,0:0:0:35:hihat.wav
192,192,40407,1,0,0:0:0:35:hihat.wav
320,192,40446,1,0,0:0:0:35:hihat.wav
448,192,40484,1,0,0:0:0:35:hihat.wav
64,192,40523,128,0,40561:0:0:0:70:kick.wav
192,192,40523,1,0,0:0:0:0:
320,192,40677,128,0,40716:0:0:0:50:snare1.wav
448,192,40754,1,0,0:0:0:35:hihat.wav
64,192,40831,128,0,40870:0:0:0:35:hihat.wav
192,192,40870,1,0,0:0:0:35:hihat.wav
320,192,40909,128,0,40947:0:0:0:35:hihat.wav
448,192,40947,1,0,0:0:0:35:hihat.wav
64,192,40986,128,0,41024:0:0:0:50:snare1.wav
192,192,41024,1,0,0:0:0:35:hihat.wav
320,192,41063,1,0,0:0:0:35:hihat.wav
64,192,41140,1,0,0:0:0:70:kick.wav
448,192,41140,128,0,41179:0:0:0:0:
192,192,41295,128,0,41333:0:0:0:35:hihat.wav
320,192,41372,128,0,41410:0:0:0:35:hihat.wav
64,192,41449,1,0,0:0:0:70:clap.wav
192,192,41449,1,0,0:0:0:0:
448,192,41449,1,0,0:0:0:0:
320,192,41526,128,0,41565:0:0:0:0:
64,192,41603,128,0,41642:0:0:0:70:kick.wav
192,192,41603,1,0,0:0:0:0:
320,192,41680,1,0,0:0:0:70:kick.wav
448,192,41680,128,0,41719:0:0:0:0:
64,192,41758,128,0,41796:0:0:0:70:kick.wav
192,192,41758,1,0,0:0:0:0:
64,192,41912,1,0,0:0:0:70:kick.wav
448,192,41912,128,0,41950:0:0:0:0:
320,192,41989,1,0,0:0:0:35:hihat.wav
192,192,42066,1,0,0:0:0:70:kick.wav
448,192,42066,1,0,0:0:0:0:
64,192,42221,128,0,42259:0:0:0:35:hihat.wav
448,192,42298,128,0,42336:0:0:0:0:
320,192,42375,128,0,42413:0:0:0:35:hihat.wav
192,192,42529,128,0,42568:0:0:0:70:kick.wav
448,192,42529,1,0,0:0:0:0:
64,192,42684,1,0,0:0:0:70:clap.wav
192,192,42684,1,0,0:0:0:0:
320,192,42684,128,0,42722:0:0:0:0:
448,192,42838,1,0,0:0:0:35:hihat.wav
320,192,42876,1,0,0:0:0:35:hihat.wav
192,192,42915,1,0,0:0:0:35:hihat.wav
64,192,42954,1,0,0:0:0:35:hihat.wav
320,192,42992,1,0,0:0:0:70:kick.wav
448,192,42992,128,0,43031:0:0:0:0:
192,192,43147,128,0,43185:0:0:0:50:snare1.wav
320,192,43224,1,0,0:0:0:35:hihat.wav
64,192,43301,1,0,0:0:0:35:hihat.wav
448,192,43340,1,0,0:0:0:35:hihat.wav
320,192,43378,1,0,0:0:0:35:hihat.wav
192,192,43417,1,0,0:0:0:35:hihat.wav
64,192,43455,1,0,0:0:0:50:snare1.wav
448,192,43494,1,0,0:0:0:35:hihat.wav
192,192,43532,1,0,0:0:0:35:hihat.wav
320,192,43571,1,0,0:0:0:0:
64,192,43610,128,0,43648:0:0:0:70:kick.wav
448,192,43610,1,0,0:0:0:35:hihat.wav
192,192,43764,128,0,43803:0:0:0:35:hihat.wav
192,192,43918,1,0,0:0:0:70:kick.wav
320,192,43918,1,0,0:0:0:70:clap.wav
448,192,43918,128,0,43957:0:0:0:0:
448,192,44073,128,0,44111:0:0:0:0:
64,192,44150,128,0,44188:0:0:0:0:
64,192,44536,128,0,44574:0:0:0:70:kick.wav
192,192,44536,1,0,0:0:0:0:
320,192,44690,128,0,44729:0:0:0:35:hihat.wav
192,192,44767,128,0,44806:0:0:0:0:
448,192,44844,128,0,44883:0:0:0:35:hihat.wav
64,192,44999,128,0,45037:0:0:0:35:hihat.wav
192,192,45153,1,0,0:0:0:70:clap.wav
320,192,45153,1,0,0:0:0:0:
448,192,45153,1,0,0:0:0:0:
64,192,45230,1,0,0:0:0:0:
192,192,45269,1,0,0:0:0:0:
320,192,45307,1,0,0:0:0:35:hihat.wav
448,192,45346,1,0,0:0:0:35:hihat.wav
64,192,45385,1,0,0:0:0:35:hihat.wav
192,192,45423,1,0,0:0:0:35:hihat.wav
320,192,45462,128,0,45500:0:0:0:70:kick.wav
448,192,45462,1,0,0:0:0:0:
448,192,45616,128,0,45655:0:0:0:50:snare1.wav
192,192,45693,1,0,0:0:0:35:hihat.wav
448,192,45770,128,0,45809:0:0:0:35:hihat.wav
320,192,45809,1,0,0:0:0:35:hihat.wav
64,192,45848,128,0,45886:0:0:0:35:hihat.wav
192,192,45886,1,0,0:0:0:35:hihat.wav
448,192,45925,128,0,45963:0:0:0:50:snare1.wav
320,192,45963,1,0,0:0:0:35:hihat.wav
64,192,46002,128,0,46040:0:0:0:35:hihat.wav
192,192,46040,1,0,0:0:0:0:
448,192,46079,128,0,46118:0:0:0:70:kick.wav
64,192,46233,128,0,46272:0:0:0:35:hihat.wav
192,192,46311,128,0,46349:0:0:0:35:hihat.wav
64,192,46388,1,0,0:0:0:70:clap.wav
320,192,46388,1,0,0:0:0:0:
448,192,46388,128,0,46426:0:0:0:0:
192,192,46465,128,0,46504:0:0:0:0:
320,192,46542,1,0,0:0:0:70:kick.wav
448,192,46542,1,0,0:0:0:0:
64,192,46619,1,0,0:0:0:70:kick.wav
192,192,46619,1,0,0:0:0:0:
320,192,46696,1,0,0:0:0:70:kick.wav
448,192,46696,1,0,0:0:0:0:
64,192,46774,1,0,0:0:0:35:hihat.wav
192,192,46851,1,0,0:0:0:70:kick.wav
320,192,46851,1,0,0:0:0:0:
448,192,46928,1,0,0:0:0:35:hihat.wav
64,192,47005,1,0,0:0:0:70:drum2.wav
192,192,47005,1,0,0:0:0:0:
320,192,47159,1,0,0:0:0:70:drum2.wav
448,192,47159,1,0,0:0:0:70:drum1.wav
64,192,47314,1,0,0:0:0:70:clap.wav
192,192,47314,1,0,0:0:0:0:
448,192,47314,1,0,0:0:0:0:
64,192,47468,1,0,0:0:0:70:drum2.wav
192,192,47468,1,0,0:0:0:70:drum1.wav
320,192,47545,1,0,0:0:0:0:
64,192,47622,1,0,0:0:0:70:drum2.wav
448,192,47622,1,0,0:0:0:0:
192,192,47700,1,0,0:0:0:0:
64,192,47777,1,0,0:0:0:70:clap.wav
320,192,47777,1,0,0:0:0:70:whistle1.wav
448,192,47777,1,0,0:0:0:0:
64,192,47931,1,0,0:0:0:70:whistle1.wav
448,192,47931,1,0,0:0:0:0:
320,192,48008,1,0,0:0:0:70:whistle1.wav
64,192,48085,1,0,0:0:0:70:whistle1.wav
192,192,48085,1,0,0:0:0:0:
448,192,48085,1,0,0:0:0:0:
320,192,48163,1,0,0:0:0:70:whistle1.wav
64,192,48240,1,0,0:0:0:70:whistle1.wav
192,192,48240,1,0,0:0:0:0:
448,192,48240,1,0,0:0:0:0:
320,192,48317,1,0,0:0:0:70:whistle1.wav
64,192,48394,1,0,0:0:0:70:whistle1.wav
192,192,48394,1,0,0:0:0:0:
320,192,48471,1,0,0:0:0:70:whistle1.wav
448,192,48471,1,0,0:0:0:0:
64,192,48549,128,0,48587:0:0:0:70:kick.wav
192,192,48549,1,0,0:0:0:0:
192,192,48703,128,0,48741:0:0:0:0:
320,192,48857,128,0,48896:0:0:0:70:kick.wav
448,192,49012,128,0,49050:0:0:0:0:
320,192,49089,128,0,49127:0:0:0:0:
64,192,49166,1,0,0:0:0:70:kick.wav
192,192,49166,1,0,0:0:0:0:
64,192,49243,1,0,0:0:0:70:kick.wav
192,192,49243,1,0,0:0:0:0:
320,192,49320,1,0,0:0:0:70:kick.wav
448,192,49320,1,0,0:0:0:0:
320,192,49397,1,0,0:0:0:70:kick.wav
448,192,49397,1,0,0:0:0:0:
64,192,49475,1,0,0:0:0:0:
192,192,49475,1,0,0:0:0:0:
448,192,49783,128,0,49938:0:0:0:0:
64,192,49938,1,0,0:0:0:0:
448,192,50092,128,0,50246:0:0:0:0:
64,192,50246,1,0,0:0:0:0:
448,192,50401,128,0,50555:0:0:0:0:
64,192,50555,1,0,0:0:0:0:
192,192,50709,128,0,50864:0:0:0:0:
320,192,50864,1,0,0:0:0:0:
192,192,51018,128,0,51172:0:0:0:0:
320,192,51172,1,0,0:0:0:0:
192,192,51327,128,0,51481:0:0:0:0:
320,192,51481,1,0,0:0:0:0:
192,192,51635,128,0,51790:0:0:0:0:
320,192,51790,1,0,0:0:0:0:
448,192,51944,128,0,52098:0:0:0:0:
320,192,52098,1,0,0:0:0:0:
448,192,52253,128,0,52407:0:0:0:0:
320,192,52407,1,0,0:0:0:0:
448,192,52561,128,0,52716:0:0:0:0:
320,192,52716,1,0,0:0:0:0:
448,192,52870,128,0,53024:0:0:0:0:
320,192,53024,1,0,0:0:0:0:
192,192,53179,128,0,53333:0:0:0:0:
320,192,53333,1,0,0:0:0:0:
192,192,53487,128,0,53642:0:0:0:0:
320,192,53642,1,0,0:0:0:0:
64,192,53796,128,0,53950:0:0:0:0:
192,192,53950,1,0,0:0:0:0:
64,192,54105,128,0,54259:0:0:0:0:
192,192,54259,1,0,0:0:0:0:
448,192,54413,128,0,54568:0:0:0:0:
192,192,54568,1,0,0:0:0:0:
448,192,54722,128,0,54876:0:0:0:0:
192,192,54876,1,0,0:0:0:0:
64,192,55031,128,0,55185:0:0:0:0:
320,192,55185,1,0,0:0:0:0:
64,192,55340,128,0,55494:0:0:0:0:
320,192,55494,1,0,0:0:0:0:
448,192,55648,128,0,55803:0:0:0:0:
64,192,55803,1,0,0:0:0:0:
448,192,55957,128,0,56111:0:0:0:0:
64,192,56111,1,0,0:0:0:0:
192,192,56266,128,0,56420:0:0:0:0:
320,192,56420,1,0,0:0:0:0:
192,192,56574,128,0,56729:0:0:0:0:
320,192,56729,1,0,0:0:0:0:
64,192,56883,128,0,57037:0:0:0:0:
192,192,57037,1,0,0:0:0:0:
64,192,57192,128,0,57346:0:0:0:0:
192,192,57346,1,0,0:0:0:0:
320,192,57500,128,0,57655:0:0:0:0:
448,192,57655,1,0,0:0:0:0:
320,192,57809,128,0,57963:0:0:0:0:
448,192,57963,1,0,0:0:0:0:
192,192,58118,128,0,58272:0:0:0:0:
320,192,58272,1,0,0:0:0:0:
192,192,58426,128,0,58581:0:0:0:0:
320,192,58581,1,0,0:0:0:0:
448,192,58735,128,0,58889:0:0:0:0:
64,192,58889,1,0,0:0:0:0:
448,192,59044,128,0,59198:0:0:0:0:
64,192,59198,1,0,0:0:0:0:
192,192,59352,128,0,59507:0:0:0:70:kick.wav
320,192,59352,1,0,0:0:0:0:
448,192,59507,1,0,0:0:0:0:
192,192,59661,128,0,59815:0:0:0:0:
448,192,59815,1,0,0:0:0:0:
192,192,59970,128,0,60124:0:0:0:70:kick.wav
320,192,59970,1,0,0:0:0:0:
448,192,60124,1,0,0:0:0:0:
192,192,60278,128,0,60433:0:0:0:0:
448,192,60433,1,0,0:0:0:0:
64,192,60587,1,0,0:0:0:70:kick.wav
320,192,60587,128,0,60741:0:0:0:0:
192,192,60741,1,0,0:0:0:0:
320,192,60896,128,0,61050:0:0:0:0:
192,192,61050,1,0,0:0:0:0:
64,192,61204,1,0,0:0:0:70:kick.wav
320,192,61204,128,0,61359:0:0:0:0:
192,192,61359,1,0,0:0:0:0:
320,192,61513,128,0,61667:0:0:0:0:
192,192,61667,1,0,0:0:0:0:
64,192,61822,128,0,61976:0:0:0:70:kick.wav
448,192,61822,1,0,0:0:0:0:
192,192,61976,1,0,0:0:0:0:
64,192,62131,128,0,62285:0:0:0:0:
192,192,62285,1,0,0:0:0:0:
64,192,62439,128,0,62594:0:0:0:70:kick.wav
448,192,62439,1,0,0:0:0:0:
192,192,62594,1,0,0:0:0:0:
64,192,62748,128,0,62902:0:0:0:0:
192,192,62902,1,0,0:0:0:0:
320,192,63057,128,0,63211:0:0:0:70:kick.wav
448,192,63057,1,0,0:0:0:0:
64,192,63211,1,0,0:0:0:0:
320,192,63365,128,0,63520:0:0:0:0:
64,192,63520,1,0,0:0:0:0:
320,192,63674,128,0,63828:0:0:0:70:kick.wav
448,192,63674,1,0,0:0:0:0:
64,192,63828,1,0,0:0:0:0:
320,192,63983,128,0,64137:0:0:0:0:
64,192,64137,1,0,0:0:0:0:
192,192,64291,128,0,64446:0:0:0:70:kick.wav
320,192,64291,1,0,0:0:0:0:
448,192,64446,1,0,0:0:0:0:
448,192,64600,128,0,64754:0:0:0:0:
64,192,64754,1,0,0:0:0:70:kick.wav
192,192,64754,1,0,0:0:0:0:
448,192,64909,128,0,65063:0:0:0:0:
64,192,65063,1,0,0:0:0:0:
64,192,65217,128,0,65372:0:0:0:70:kick.wav
320,192,65217,1,0,0:0:0:0:
192,192,65372,1,0,0:0:0:0:
192,192,65526,128,0,65680:0:0:0:70:kick.wav
448,192,65526,1,0,0:0:0:0:
320,192,65680,1,0,0:0:0:0:
320,192,65835,128,0,65989:0:0:0:0:
64,192,65989,1,0,0:0:0:70:kick.wav
192,192,65989,1,0,0:0:0:0:
448,192,66143,128,0,66298:0:0:0:0:
320,192,66298,1,0,0:0:0:0:
64,192,66452,1,0,0:0:0:70:kick.wav
320,192,66452,128,0,66606:0:0:0:0:
448,192,66606,1,0,0:0:0:0:
64,192,66761,1,0,0:0:0:70:kick.wav
192,192,66761,128,0,66915:0:0:0:0:
448,192,66915,1,0,0:0:0:0:
192,192,67069,128,0,67224:0:0:0:70:kick.wav
320,192,67069,1,0,0:0:0:0:
64,192,67224,1,0,0:0:0:0:
320,192,67378,128,0,67532:0:0:0:70:kick.wav
448,192,67378,1,0,0:0:0:0:
192,192,67532,1,0,0:0:0:0:
320,192,67687,128,0,67841:0:0:0:70:kick.wav
448,192,67687,1,0,0:0:0:0:
64,192,67841,1,0,0:0:0:0:
320,192,67995,1,0,0:0:0:70:kick.wav
448,192,67995,1,0,0:0:0:0:
64,192,68073,1,0,0:0:0:70:kick.wav
448,192,68150,1,0,0:0:0:70:kick.wav
192,192,68227,1,0,0:0:0:70:kick.wav
320,192,68304,1,0,0:0:0:70:kick.wav
192,192,68381,1,0,0:0:0:70:kick.wav
320,192,68458,1,0,0:0:0:70:kick.wav
64,192,68536,1,0,0:0:0:70:kick.wav
448,192,68613,1,0,0:0:0:70:kick.wav
64,192,68690,1,0,0:0:0:70:kick.wav
448,192,68767,1,0,0:0:0:70:kick.wav
64,192,68844,1,0,0:0:0:70:kick.wav
192,192,68844,1,0,0:0:0:0:
320,192,68922,1,0,0:0:0:0:
192,192,69076,1,0,0:0:0:0:
320,192,69230,1,0,0:0:0:90:upkick2.wav
448,192,69230,1,0,0:0:0:0:
192,192,69333,1,0,0:0:0:0:
64,192,69385,1,0,0:0:0:35:hihat.wav
448,192,69436,1,0,0:0:0:0:
320,192,69487,1,0,0:0:0:0:
192,192,69539,1,0,0:0:0:35:hihat.wav
64,192,69590,1,0,0:0:0:0:
448,192,69642,1,0,0:0:0:0:
320,192,69693,1,0,0:0:0:35:hihat.wav
192,192,69745,1,0,0:0:0:0:
64,192,69848,128,0,69925:0:0:0:50:snare2.wav
192,192,69848,128,0,69925:0:0:0:0:
448,192,69848,128,0,69925:0:0:0:0:
448,192,70002,1,0,0:0:0:35:hihat.wav
320,192,70040,1,0,0:0:0:35:hihat.wav
192,192,70079,1,0,0:0:0:35:hihat.wav
64,192,70118,1,0,0:0:0:35:hihat.wav
448,192,70156,1,0,0:0:0:35:hihat.wav
192,192,70311,1,0,0:0:0:50:snare1.wav
320,192,70388,1,0,0:0:0:35:hihat.wav
64,192,70465,1,0,0:0:0:35:hihat.wav
192,192,70504,1,0,0:0:0:35:hihat.wav
320,192,70542,1,0,0:0:0:35:hihat.wav
448,192,70581,1,0,0:0:0:35:hihat.wav
64,192,70619,1,0,0:0:0:50:snare1.wav
192,192,70658,1,0,0:0:0:35:hihat.wav
320,192,70696,1,0,0:0:0:35:hihat.wav
448,192,70735,1,0,0:0:0:0:
64,192,70774,1,0,0:0:0:90:upkick2.wav
192,192,70774,1,0,0:0:0:0:
320,192,70825,1,0,0:0:0:0:
448,192,70876,1,0,0:0:0:0:
64,192,70928,1,0,0:0:0:35:hihat.wav
192,192,70979,1,0,0:0:0:0:
64,192,71082,128,0,71159:0:0:0:50:snare2.wav
320,192,71082,128,0,71159:0:0:0:0:
448,192,71082,128,0,71159:0:0:0:0:
320,192,71237,1,0,0:0:0:90:upkick2.wav
448,192,71237,1,0,0:0:0:0:
64,192,71288,1,0,0:0:0:0:
192,192,71340,1,0,0:0:0:0:
320,192,71391,1,0,0:0:0:35:hihat.wav
448,192,71442,1,0,0:0:0:0:
64,192,71494,1,0,0:0:0:0:
192,192,71545,1,0,0:0:0:35:hihat.wav
320,192,71597,1,0,0:0:0:0:
448,192,71648,1,0,0:0:0:0:
64,192,71700,1,0,0:0:0:90:upkick2.wav
192,192,71700,1,0,0:0:0:0:
320,192,71751,1,0,0:0:0:0:
448,192,71803,1,0,0:0:0:0:
192,192,71854,1,0,0:0:0:35:hihat.wav
64,192,71905,1,0,0:0:0:0:
320,192,71957,1,0,0:0:0:0:
192,192,72008,1,0,0:0:0:35:hihat.wav
448,192,72060,1,0,0:0:0:0:
320,192,72111,1,0,0:0:0:0:
64,192,72163,1,0,0:0:0:35:hihat.wav
192,192,72214,1,0,0:0:0:0:
64,192,72317,128,0,72394:0:0:0:50:snare2.wav
320,192,72317,128,0,72394:0:0:0:0:
448,192,72317,128,0,72394:0:0:0:0:
64,192,72471,1,0,0:0:0:35:hihat.wav
192,192,72510,1,0,0:0:0:35:hihat.wav
320,192,72549,1,0,0:0:0:35:hihat.wav
448,192,72587,1,0,0:0:0:35:hihat.wav
64,192,72626,1,0,0:0:0:35:hihat.wav
320,192,72780,1,0,0:0:0:50:snare1.wav
64,192,72857,1,0,0:0:0:35:hihat.wav
448,192,72934,1,0,0:0:0:35:hihat.wav
320,192,72973,1,0,0:0:0:35:hihat.wav
192,192,73012,1,0,0:0:0:35:hihat.wav
64,192,73050,1,0,0:0:0:35:hihat.wav
448,192,73089,1,0,0:0:0:50:snare1.wav
320,192,73127,1,0,0:0:0:35:hihat.wav
192,192,73166,1,0,0:0:0:35:hihat.wav
64,192,73204,1,0,0:0:0:0:
320,192,73243,1,0,0:0:0:90:upkick2.wav
448,192,73243,1,0,0:0:0:0:
192,192,73295,1,0,0:0:0:0:
64,192,73346,1,0,0:0:0:0:
448,192,73397,1,0,0:0:0:35:hihat.wav
320,192,73449,1,0,0:0:0:0:
64,192,73552,128,0,73629:0:0:0:90:upkick2.wav
192,192,73552,128,0,73629:0:0:0:50:snare2.wav
448,192,73552,128,0,73629:0:0:0:0:
64,192,73706,1,0,0:0:0:90:upkick2.wav
192,192,73706,1,0,0:0:0:0:
448,192,73758,1,0,0:0:0:0:
320,192,73809,1,0,0:0:0:0:
192,192,73860,1,0,0:0:0:35:hihat.wav
64,192,73912,1,0,0:0:0:0:
448,192,73963,1,0,0:0:0:0:
320,192,74015,1,0,0:0:0:35:hihat.wav
64,192,74066,1,0,0:0:0:0:
192,192,74118,1,0,0:0:0:0:
320,192,74169,1,0,0:0:0:90:upkick2.wav
448,192,74169,1,0,0:0:0:0:
64,192,74221,1,0,0:0:0:0:
192,192,74272,1,0,0:0:0:0:
448,192,74323,1,0,0:0:0:35:hihat.wav
64,192,74375,1,0,0:0:0:0:
320,192,74426,1,0,0:0:0:0:
448,192,74478,1,0,0:0:0:35:hihat.wav
192,192,74529,1,0,0:0:0:0:
320,192,74581,1,0,0:0:0:0:
64,192,74632,1,0,0:0:0:35:hihat.wav
192,192,74684,1,0,0:0:0:0:
64,192,74786,128,0,74941:0:0:0:50:snare2.wav
320,192,74786,128,0,74889:0:0:0:0:
448,192,74786,128,0,74941:0:0:0:0:
192,192,74941,1,0,0:0:0:35:hihat.wav
320,192,74979,1,0,0:0:0:35:hihat.wav
448,192,75018,1,0,0:0:0:35:hihat.wav
64,192,75057,1,0,0:0:0:35:hihat.wav
192,192,75095,1,0,0:0:0:35:hihat.wav
448,192,75249,1,0,0:0:0:50:snare1.wav
320,192,75327,1,0,0:0:0:35:hihat.wav
192,192,75404,1,0,0:0:0:35:hihat.wav
64,192,75442,1,0,0:0:0:35:hihat.wav
448,192,75481,1,0,0:0:0:35:hihat.wav
320,192,75520,1,0,0:0:0:35:hihat.wav
192,192,75558,1,0,0:0:0:50:snare1.wav
64,192,75597,1,0,0:0:0:35:hihat.wav
448,192,75635,1,0,0:0:0:35:hihat.wav
320,192,75674,1,0,0:0:0:0:
64,192,75713,1,0,0:0:0:90:upkick2.wav
192,192,75713,1,0,0:0:0:0:
448,192,75764,1,0,0:0:0:0:
320,192,75815,1,0,0:0:0:0:
192,192,75867,1,0,0:0:0:35:hihat.wav
64,192,75918,1,0,0:0:0:0:
448,192,75970,1,0,0:0:0:0:
64,192,76021,128,0,76098:0:0:0:50:snare2.wav
192,192,76021,128,0,76098:0:0:0:0:
320,192,76021,128,0,76098:0:0:0:0:
320,192,76176,1,0,0:0:0:90:upkick2.wav
448,192,76176,1,0,0:0:0:0:
192,192,76227,1,0,0:0:0:0:
64,192,76278,1,0,0:0:0:0:
448,192,76330,1,0,0:0:0:35:hihat.wav
320,192,76381,1,0,0:0:0:0:
192,192,76433,1,0,0:0:0:0:
64,192,76484,1,0,0:0:0:35:hihat.wav
448,192,76536,1,0,0:0:0:0:
320,192,76587,1,0,0:0:0:0:
64,192,76639,1,0,0:0:0:90:upkick2.wav
192,192,76639,1,0,0:0:0:0:
448,192,76690,1,0,0:0:0:0:
320,192,76741,1,0,0:0:0:0:
64,192,76793,1,0,0:0:0:35:hihat.wav
448,192,76844,1,0,0:0:0:0:
192,192,76896,1,0,0:0:0:0:
64,192,76947,1,0,0:0:0:35:hihat.wav
320,192,76999,1,0,0:0:0:0:
192,192,77050,1,0,0:0:0:0:
448,192,77102,1,0,0:0:0:35:hihat.wav
320,192,77153,1,0,0:0:0:0:
64,192,77256,128,0,77333:0:0:0:50:snare2.wav
192,192,77256,128,0,77333:0:0:0:0:
448,192,77256,128,0,77333:0:0:0:0:
448,192,77410,1,0,0:0:0:35:hihat.wav
320,192,77449,1,0,0:0:0:35:hihat.wav
192,192,77487,1,0,0:0:0:35:hihat.wav
64,192,77526,1,0,0:0:0:35:hihat.wav
448,192,77565,1,0,0:0:0:35:hihat.wav
192,192,77719,1,0,0:0:0:50:snare1.wav
320,192,77796,1,0,0:0:0:35:hihat.wav
64,192,77873,1,0,0:0:0:35:hihat.wav
192,192,77912,1,0,0:0:0:35:hihat.wav
320,192,77950,1,0,0:0:0:35:hihat.wav
448,192,77989,1,0,0:0:0:35:hihat.wav
64,192,78028,1,0,0:0:0:50:snare1.wav
192,192,78066,1,0,0:0:0:35:hihat.wav
320,192,78105,1,0,0:0:0:35:hihat.wav
448,192,78143,1,0,0:0:0:0:
192,192,78182,1,0,0:0:0:90:upkick2.wav
64,192,78182,1,0,0:0:0:0:
320,192,78233,1,0,0:0:0:0:
448,192,78285,1,0,0:0:0:0:
64,192,78336,1,0,0:0:0:35:hihat.wav
192,192,78388,1,0,0:0:0:0:
64,192,78491,128,0,78568:0:0:0:50:snare2.wav
192,192,78491,128,0,78568:0:0:0:0:
448,192,78491,128,0,78568:0:0:0:0:
64,192,78645,1,0,0:0:0:90:upkick2.wav
192,192,78645,1,0,0:0:0:0:
448,192,78696,1,0,0:0:0:0:
320,192,78748,1,0,0:0:0:0:
192,192,78799,1,0,0:0:0:35:hihat.wav
64,192,78851,1,0,0:0:0:0:
448,192,78902,1,0,0:0:0:0:
320,192,78954,1,0,0:0:0:35:hihat.wav
192,192,79005,1,0,0:0:0:0:
64,192,79057,1,0,0:0:0:0:
320,192,79108,1,0,0:0:0:90:upkick2.wav
448,192,79108,128,0,79159:0:0:0:0:
192,192,79159,1,0,0:0:0:0:
64,192,79211,1,0,0:0:0:0:
448,192,79262,128,0,79301:0:0:0:35:hihat.wav
320,192,79340,128,0,79378:0:0:0:0:
64,192,79417,128,0,79468:0:0:0:35:hihat.wav
192,192,79468,1,0,0:0:0:0:
320,192,79520,1,0,0:0:0:0:
448,192,79571,128,0,79622:0:0:0:35:hihat.wav
64,192,79622,1,0,0:0:0:0:
192,192,79674,1,0,0:0:0:0:
64,192,79725,128,0,79803:0:0:0:50:snare2.wav
448,192,79725,128,0,79803:0:0:0:0:
320,192,79725,1,0,0:0:0:0:
192,192,79803,128,0,79841:0:0:0:0:
320,192,79841,128,0,79880:0:0:0:0:
448,192,79880,128,0,79918:0:0:0:35:hihat.wav
64,192,79918,128,0,79957:0:0:0:35:hihat.wav
192,192,79957,128,0,79995:0:0:0:35:hihat.wav
320,192,79995,128,0,80034:0:0:0:35:hihat.wav
448,192,80034,128,0,80073:0:0:0:35:hihat.wav
64,192,80188,128,0,80266:0:0:0:50:snare1.wav
192,192,80266,1,0,0:0:0:35:hihat.wav
448,192,80343,128,0,80381:0:0:0:35:hihat.wav
320,192,80381,1,0,0:0:0:35:hihat.wav
192,192,80420,128,0,80458:0:0:0:35:hihat.wav
64,192,80458,1,0,0:0:0:35:hihat.wav
448,192,80497,128,0,80536:0:0:0:50:snare1.wav
320,192,80536,1,0,0:0:0:35:hihat.wav
192,192,80574,128,0,80613:0:0:0:35:hihat.wav
64,192,80613,1,0,0:0:0:0:
320,192,80651,128,0,80703:0:0:0:90:upkick2.wav
448,192,80651,1,0,0:0:0:0:
192,192,80703,1,0,0:0:0:0:
64,192,80754,1,0,0:0:0:0:
448,192,80806,128,0,80857:0:0:0:35:hihat.wav
320,192,80857,1,0,0:0:0:0:
64,192,80960,128,0,81037:0:0:0:50:snare2.wav
192,192,80960,128,0,81037:0:0:0:0:
448,192,80960,128,0,81037:0:0:0:0:
320,192,81037,128,0,81114:0:0:0:0:
64,192,81114,128,0,81153:0:0:0:90:upkick2.wav
192,192,81114,1,0,0:0:0:0:
448,192,81192,128,0,81230:0:0:0:0:
320,192,81269,128,0,81320:0:0:0:35:hihat.wav
192,192,81320,1,0,0:0:0:0:
64,192,81372,1,0,0:0:0:0:
448,192,81423,128,0,81475:0:0:0:35:hihat.wav
320,192,81475,1,0,0:0:0:0:
192,192,81526,1,0,0:0:0:0:
64,192,81577,1,0,0:0:0:90:upkick2.wav
448,192,81577,128,0,81629:0:0:0:0:
320,192,81629,1,0,0:0:0:0:
192,192,81680,1,0,0:0:0:0:
64,192,81732,128,0,81770:0:0:0:35:hihat.wav
448,192,81809,128,0,81848:0:0:0:0:
192,192,81886,128,0,81938:0:0:0:35:hihat.wav
320,192,81938,1,0,0:0:0:0:
192,192,81989,1,0,0:0:0:0:
448,192,82040,128,0,82092:0:0:0:35:hihat.wav
320,192,82092,1,0,0:0:0:0:
64,192,82195,128,0,82272:0:0:0:50:snare2.wav
192,192,82195,128,0,82272:0:0:0:0:
448,192,82195,128,0,82272:0:0:0:0:
320,192,82349,128,0,82388:0:0:0:35:hihat.wav
448,192,82388,1,0,0:0:0:35:hihat.wav
192,192,82426,1,0,0:0:0:35:hihat.wav
64,192,82465,1,0,0:0:0:35:hihat.wav
448,192,82504,128,0,82542:0:0:0:35:hihat.wav
320,192,82658,128,0,82735:0:0:0:50:snare1.wav
448,192,82735,1,0,0:0:0:35:hihat.wav
64,192,82812,128,0,82851:0:0:0:35:hihat.wav
192,192,82851,128,0,82889:0:0:0:35:hihat.wav
320,192,82889,128,0,82928:0:0:0:35:hihat.wav
448,192,82928,128,0,82967:0:0:0:35:hihat.wav
64,192,82967,128,0,83005:0:0:0:50:snare1.wav
192,192,83005,128,0,83044:0:0:0:35:hihat.wav
320,192,83044,128,0,83082:0:0:0:35:hihat.wav
448,192,83082,128,0,83121:0:0:0:0:
64,192,83121,1,0,0:0:0:90:upkick2.wav
192,192,83121,1,0,0:0:0:0:
320,192,83172,1,0,0:0:0:0:
448,192,83224,1,0,0:0:0:0:
64,192,83275,128,0,83327:0:0:0:35:hihat.wav
192,192,83327,1,0,0:0:0:0:
320,192,83378,1,0,0:0:0:0:
64,192,83430,1,0,0:0:0:90:upkick2.wav
192,192,83430,128,0,83481:0:0:0:50:snare2.wav
448,192,83430,128,0,83481:0:0:0:0:
320,192,83532,1,0,0:0:0:0:
64,192,83584,128,0,83622:0:0:0:90:upkick2.wav
448,192,83584,1,0,0:0:0:0:
320,192,83661,128,0,83700:0:0:0:0:
192,192,83738,128,0,83790:0:0:0:35:hihat.wav
448,192,83738,1,0,0:0:0:0:
64,192,83790,1,0,0:0:0:0:
320,192,83841,1,0,0:0:0:0:
192,192,83893,128,0,83970:0:0:0:35:hihat.wav
448,192,83970,128,0,84047:0:0:0:35:hihat.wav
64,192,84047,128,0,84098:0:0:0:90:upkick2.wav
192,192,84047,1,0,0:0:0:0:
320,192,84098,1,0,0:0:0:0:
448,192,84150,1,0,0:0:0:0:
64,192,84201,128,0,84240:0:0:0:35:hihat.wav
192,192,84278,128,0,84317:0:0:0:0:
320,192,84356,128,0,84407:0:0:0:35:hihat.wav
448,192,84407,1,0,0:0:0:0:
64,192,84458,1,0,0:0:0:0:
192,192,84510,128,0,84561:0:0:0:35:hihat.wav
448,192,84561,1,0,0:0:0:0:
320,192,84613,1,0,0:0:0:0:
64,192,84664,128,0,84741:0:0:0:50:snare2.wav
192,192,84664,1,0,0:0:0:0:
448,192,84664,128,0,84741:0:0:0:0:
320,192,84741,128,0,84780:0:0:0:0:
192,192,84780,128,0,84819:0:0:0:0:
64,192,84819,128,0,84857:0:0:0:35:hihat.wav
448,192,84857,128,0,84896:0:0:0:35:hihat.wav
320,192,84896,128,0,84934:0:0:0:35:hihat.wav
192,192,84934,128,0,84973:0:0:0:35:hihat.wav
64,192,84973,128,0,85012:0:0:0:35:hihat.wav
320,192,85127,128,0,85166:0:0:0:50:snare1.wav
448,192,85204,1,0,0:0:0:35:hihat.wav
64,192,85282,128,0,85320:0:0:0:35:hihat.wav
192,192,85320,1,0,0:0:0:35:hihat.wav
320,192,85359,128,0,85397:0:0:0:35:hihat.wav
448,192,85397,1,0,0:0:0:35:hihat.wav
64,192,85436,128,0,85475:0:0:0:50:snare1.wav
192,192,85475,1,0,0:0:0:35:hihat.wav
320,192,85513,128,0,85552:0:0:0:35:hihat.wav
448,192,85552,1,0,0:0:0:0:
64,192,85590,1,0,0:0:0:90:upkick2.wav
192,192,85590,128,0,85642:0:0:0:0:
320,192,85642,1,0,0:0:0:0:
448,192,85693,1,0,0:0:0:0:
64,192,85745,128,0,85822:0:0:0:35:hihat.wav
448,192,85822,128,0,85899:0:0:0:35:hihat.wav
64,192,85899,128,0,85976:0:0:0:50:snare2.wav
192,192,85899,128,0,85976:0:0:0:0:
320,192,85899,128,0,85976:0:0:0:0:
448,192,85976,128,0,86053:0:0:0:0:
64,192,86053,128,0,86092:0:0:0:90:upkick2.wav
192,192,86053,1,0,0:0:0:0:
320,192,86131,128,0,86169:0:0:0:0:
448,192,86208,1,0,0:0:0:35:hihat.wav
64,192,86259,1,0,0:0:0:0:
320,192,86311,1,0,0:0:0:0:
448,192,86362,128,0,86413:0:0:0:35:hihat.wav
192,192,86413,1,0,0:0:0:0:
64,192,86465,1,0,0:0:0:0:
320,192,86516,128,0,86568:0:0:0:90:upkick2.wav
448,192,86516,1,0,0:0:0:0:
192,192,86568,1,0,0:0:0:0:
64,192,86619,1,0,0:0:0:0:
320,192,86671,128,0,86709:0:0:0:35:hihat.wav
448,192,86748,128,0,86786:0:0:0:0:
192,192,86825,128,0,86876:0:0:0:35:hihat.wav
320,192,86876,1,0,0:0:0:0:
64,192,86928,1,0,0:0:0:0:
448,192,86979,128,0,87031:0:0:0:35:hihat.wav
192,192,87031,1,0,0:0:0:0:
64,192,87134,128,0,87211:0:0:0:50:snare2.wav
320,192,87134,128,0,87211:0:0:0:0:
448,192,87134,128,0,87211:0:0:0:0:
192,192,87288,128,0,87327:0:0:0:35:hihat.wav
64,192,87327,1,0,0:0:0:35:hihat.wav
320,192,87365,1,0,0:0:0:35:hihat.wav
448,192,87404,1,0,0:0:0:35:hihat.wav
192,192,87442,128,0,87481:0:0:0:35:hihat.wav
64,192,87597,128,0,87674:0:0:0:50:snare1.wav
192,192,87674,1,0,0:0:0:35:hihat.wav
448,192,87751,128,0,87790:0:0:0:35:hihat.wav
320,192,87790,128,0,87828:0:0:0:35:hihat.wav
192,192,87828,128,0,87867:0:0:0:35:hihat.wav
64,192,87867,128,0,87905:0:0:0:35:hihat.wav
448,192,87905,128,0,87944:0:0:0:50:snare1.wav
320,192,87944,128,0,87983:0:0:0:35:hihat.wav
192,192,87983,128,0,88021:0:0:0:35:hihat.wav
64,192,88021,128,0,88060:0:0:0:0:
320,192,88060,1,0,0:0:0:90:upkick2.wav
448,192,88060,1,0,0:0:0:0:
192,192,88111,1,0,0:0:0:0:
64,192,88163,1,0,0:0:0:0:
448,192,88214,128,0,88266:0:0:0:35:hihat.wav
320,192,88266,1,0,0:0:0:0:
192,192,88317,1,0,0:0:0:0:
64,192,88368,128,0,88420:0:0:0:50:snare2.wav
320,192,88368,128,0,88420:0:0:0:0:
448,192,88368,1,0,0:0:0:0:
192,192,88471,1,0,0:0:0:0:
64,192,88523,1,0,0:0:0:90:upkick2.wav
448,192,88523,128,0,88561:0:0:0:0:
320,192,88600,128,0,88639:0:0:0:0:
64,192,88677,128,0,88729:0:0:0:35:hihat.wav
448,192,88677,1,0,0:0:0:0:
192,192,88729,1,0,0:0:0:0:
320,192,88780,1,0,0:0:0:0:
448,192,88831,128,0,88909:0:0:0:35:hihat.wav
192,192,88909,128,0,88986:0:0:0:35:hihat.wav
64,192,88986,1,0,0:0:0:0:
320,192,89140,1,0,0:0:0:0:
192,192,89217,1,0,0:0:0:0:
320,192,89295,1,0,0:0:0:0:
448,192,89449,1,0,0:0:0:0:
64,192,89603,1,0,0:0:0:0:
192,192,89642,1,0,0:0:0:0:
320,192,89680,1,0,0:0:0:0:
448,192,89719,1,0,0:0:0:0:
64,192,89758,1,0,0:0:0:0:
192,192,89796,1,0,0:0:0:0:
320,192,89835,1,0,0:0:0:0:
448,192,89873,1,0,0:0:0:0:
64,192,89912,1,0,0:0:0:0:
192,192,90066,1,0,0:0:0:0:
320,192,90221,1,0,0:0:0:0:
64,192,90298,1,0,0:0:0:0:
448,192,90375,1,0,0:0:0:0:
192,192,90452,1,0,0:0:0:0:
320,192,90529,1,0,0:0:0:0:
64,192,90684,1,0,0:0:0:0:
64,192,90761,1,0,0:0:0:0:
192,192,90915,1,0,0:0:0:0:
320,192,91069,1,0,0:0:0:0:
448,192,91147,1,0,0:0:0:0:
192,192,91301,1,0,0:0:0:0:
320,192,91455,1,0,0:0:0:0:
64,192,91610,1,0,0:0:0:0:
192,192,91687,1,0,0:0:0:0:
320,192,91764,1,0,0:0:0:0:
64,192,91918,1,0,0:0:0:0:
448,192,92073,1,0,0:0:0:0:
64,192,92227,1,0,0:0:0:0:
320,192,92381,1,0,0:0:0:0:
192,192,92536,1,0,0:0:0:0:
448,192,92690,1,0,0:0:0:0:
320,192,92729,1,0,0:0:0:0:
192,192,92767,1,0,0:0:0:0:
64,192,92806,1,0,0:0:0:0:
448,192,92844,1,0,0:0:0:0:
320,192,92883,1,0,0:0:0:0:
192,192,92922,1,0,0:0:0:0:
64,192,92960,1,0,0:0:0:0:
448,192,92999,1,0,0:0:0:0:
320,192,93153,1,0,0:0:0:0:
64,192,93307,1,0,0:0:0:0:
448,192,93462,1,0,0:0:0:0:
192,192,93539,1,0,0:0:0:0:
448,192,93616,1,0,0:0:0:0:
320,192,93770,1,0,0:0:0:0:
