osu file format v14

[General]
AudioFilename: audio.mp3
AudioLeadIn: 0
PreviewTime: 84546
Countdown: 0
SampleSet: Soft
StackLeniency: 0.2
Mode: 0
LetterboxInBreaks: 0
WidescreenStoryboard: 1

[Editor]
DistanceSpacing: 1.6
BeatDivisor: 4
GridSize: 4
TimelineZoom: 1

[Metadata]
Title:broken hopes
TitleUnicode:⠀⠀⠀ ⠀⠀ ⠀⠀ ⠀⠀ ⠀ ⠀⠀ ⠀⠀ ⠀⠀ ⠀⠀⠀broken hopes
Artist:nathin
ArtistUnicode:nathin
Creator:Mortem
Version:hard
Source:
Tags:renumi crystvleyes experimental sad trap Nina Nesbitt The Best You Had ily
BeatmapID:1839633
BeatmapSetID:879695

[Difficulty]
HPDrainRate:6
CircleSize:5
OverallDifficulty:6
ApproachRate:8
SliderMultiplier:1.9
SliderTickRate:1

[Events]
//Background and Video events
0,0,"background.jpg",0,0
//Break Periods
2,74182,84545
//Storyboard Layer 0 (Background)
//Storyboard Layer 1 (Fail)
//Storyboard Layer 2 (Pass)
//Storyboard Layer 3 (Foreground)
//Storyboard Layer 4 (Overlay)
//Storyboard Sound Samples

[TimingPoints]
17455,545.454545454546,4,2,1,25,1,0
17455,-200,4,2,1,25,0,0
30545,-200,4,2,1,40,0,0
31636,-200,4,2,1,45,0,0
32727,-200,4,2,1,55,0,0
34909,-100,4,1,1,75,0,0
35727,-100,4,1,1,55,0,0
36000,-100,4,1,1,75,0,0
69818,-100,4,2,1,55,0,0
87273,-100,4,1,1,75,0,0
122182,-100,4,2,1,85,0,0

[Colours]
Combo1 : 126,121,151
Combo2 : 125,139,116

[HitObjects]
83,93,17455,5,2,0:1:0:0:
83,93,18545,2,0,P|100:125|102:154,1,47.5,2|0,3:1|0:0,0:0:0:0:
157,187,19091,2,0,P|169:167|176:144,1,47.5,2|0,0:0|0:0,0:0:0:0:
231,92,19636,6,0,P|295:86|334:97,1,95,2|0,0:1|0:0,0:0:0:0:
395,120,20455,1,0,0:0:0:0:
324,93,20727,2,0,P|318:125|328:159,1,47.5,2|0,3:1|0:0,0:0:0:0:
249,168,21273,2,0,P|254:145|252:121,1,47.5,2|0,0:0|0:0,0:0:0:0:
177,134,21818,6,0,P|136:147|71:130,1,95,2|0,0:1|0:0,0:0:0:0:
85,138,22909,2,0,P|75:176|83:221,2,71.25,2|2|2,3:1|0:0|0:0,0:0:0:0:
134,80,24000,6,0,P|161:66|191:63,1,47.5,2|0,0:1|0:0,0:0:0:0:
251,82,24545,2,0,P|265:109|268:139,1,47.5,2|0,0:0|0:0,0:0:0:0:
227,190,25091,2,0,P|220:229|227:273,2,71.25,2|2|2,3:2|0:0|0:0,0:0:0:0:
293,227,26182,6,0,P|321:233|366:222,2,71.25,2|2|0,0:1|0:0|0:0,0:0:0:0:
227,191,27273,1,2,0:1:0:0:
160,228,27545,1,2,0:0:0:0:
87,203,27818,1,2,0:0:0:0:
87,126,28091,1,2,0:0:0:0:
149,83,28364,6,0,P|179:73|212:76,1,47.5,2|0,0:1|0:0,0:0:0:0:
264,101,28909,1,2,0:0:0:0:
322,52,29182,1,0,0:0:0:0:
386,91,29455,2,0,P|392:125|391:145,1,47.5,2|0,3:2|0:0,0:0:0:0:
320,172,30000,2,0,P|326:138|325:118,1,47.5,2|0,0:0|0:0,0:0:0:0:
251,141,30545,6,0,P|209:128|153:141,1,95,2|0,0:1|0:0,0:0:0:0:
159,137,31636,2,0,P|161:178|147:218,2,71.25,2|2|2,3:2|0:0|0:0,0:0:0:0:
106,81,32727,6,0,P|65:79|25:93,1,71.25,2|2,0:0|0:0,0:0:0:0:
367,284,34909,6,0,P|409:315|365:242,1,285,6|0,3:1|0:0,0:0:0:0:
173,337,36000,2,0,P|140:323|71:329,1,95,10|0,0:0|0:0,0:0:0:0:
6,192,36545,2,0,P|1:145|18:100,1,95,2|0,3:1|0:0,0:0:0:0:
216,71,37091,6,0,B|238:71|238:71|272:61,1,47.5,2|0,3:0|0:0,0:0:0:0:
321,159,37364,2,0,B|322:133|322:133|330:112,1,47.5,2|0,3:0|0:0,0:0:0:0:
411,32,37636,2,0,B|420:57|420:57|420:104,1,47.5,2|0,3:0|0:0,0:0:0:0:
458,186,37909,2,0,B|482:174|482:174|530:177,1,47.5,2|0,3:0|0:0,0:0:0:0:
439,270,38182,2,0,P|375:278|329:201,1,142.5,10|0,0:0|0:0,0:0:0:0:
267,179,38727,2,0,P|217:193|196:228,1,95,0|0,3:0|0:0,0:0:0:0:
14,368,39273,6,0,P|5:312|19:272,1,95,4|0,0:3|0:0,0:0:0:0:
170,106,39818,2,0,P|167:82|159:60,1,47.5,2|0,0:0|0:0,0:0:0:0:
98,141,40091,2,0,P|90:161|88:197,1,47.5,2|0,0:0|0:0,0:0:0:0:
175,180,40364,2,0,P|236:174|283:186,1,95,8|0,0:0|0:0,0:0:0:0:
452,273,40909,2,0,P|391:279|344:267,1,95,2|0,0:0|0:0,0:0:0:0:
425,36,41455,6,0,P|384:69|301:42,1,142.5,2|0,3:1|0:0,0:0:0:0:
263,109,42000,2,0,P|276:135|280:183,1,47.5,2|0,0:0|0:0,0:0:0:0:
274,230,42273,1,0,3:0:0:0:
84,349,42545,2,0,P|38:311|18:217,1,142.5,10|0,0:0|0:0,0:0:0:0:
39,160,43091,1,0,3:0:0:0:
150,227,43364,2,0,P|187:236|219:256,1,47.5,2|0,0:0|0:0,0:0:0:0:
123,290,43636,6,0,B|75:264|69:212|83:180|128:146|179:165|179:165|200:136|200:136|235:198|343:179,1,380,6|8,0:3|0:0,0:0:0:0:
460,136,45000,2,0,P|453:93|456:73,1,47.5,2|0,0:0|0:0,0:0:0:0:
474,16,45273,1,0,3:0:0:0:
338,84,45545,1,2,0:0:0:0:
165,233,45818,6,0,B|144:240|144:240|96:236,1,47.5,2|0,3:0|0:0,0:0:0:0:
223,163,46091,2,0,B|244:156|244:156|292:160,1,47.5,2|0,3:0|0:0,0:0:0:0:
124,312,46364,2,0,B|103:305|103:305|55:309,1,47.5,2|0,3:0|0:0,0:0:0:0:
165,233,46637,2,0,B|186:240|186:240|234:236,1,47.5,2|0,3:0|0:0,0:0:0:0:
306,300,46909,2,0,P|366:277|449:313,1,142.5,10|0,0:0|0:0,0:0:0:0:
483,240,47455,2,0,P|467:165|495:87,1,142.5,0|0,3:0|0:0,0:0:0:0:
391,38,48000,6,0,B|331:21|245:39|227:105|227:105|191:51|71:63|37:138,1,380,6|8,0:3|0:0,0:0:0:0:
233,335,49364,1,2,0:0:0:0:
372,274,49636,2,0,P|422:265|484:282,1,95,2|0,0:0|0:0,0:0:0:0:
233,335,50182,6,0,P|223:254|391:151,1,285,2|0,3:1|3:0,0:0:0:0:
251,53,51273,2,0,P|191:62|119:130,1,142.5,8|0,0:0|0:0,0:0:0:0:
187,160,51818,2,0,P|140:212|127:282,1,142.5,0|0,3:0|0:0,0:0:0:0:
285,322,52364,6,0,P|316:280|243:324,1,285,6|0,0:3|0:0,0:0:0:0:
136,208,53455,2,0,P|122:241|128:311,1,95,10|0,0:0|0:0,0:0:0:0:
258,219,54000,2,0,P|270:173|260:126,1,95,2|0,3:1|0:0,0:0:0:0:
60,60,54546,6,0,B|82:60|82:60|116:50,1,47.5,2|0,3:0|0:0,0:0:0:0:
218,106,54819,2,0,B|192:105|192:105|171:97,1,47.5,2|0,3:0|0:0,0:0:0:0:
64,169,55091,2,0,B|89:160|89:160|136:160,1,47.5,2|0,3:0|0:0,0:0:0:0:
221,210,55364,2,0,B|197:198|197:198|176:199,1,47.5,2|0,3:0|0:0,0:0:0:0:
112,240,55637,2,0,P|120:304|56:361,1,142.5,10|0,0:0|0:0,0:0:0:0:
43,281,56182,2,0,P|21:233|34:195,1,95,0|0,3:0|0:0,0:0:0:0:
230,108,56728,6,0,P|286:99|326:113,1,95,6|0,0:3|0:0,0:0:0:0:
410,233,57273,2,0,P|390:225|354:223,1,47.5,2|0,0:0|0:0,0:0:0:0:
298,261,57546,2,0,P|290:281|288:317,1,47.5,2|0,0:0|0:0,0:0:0:0:
346,354,57819,2,0,P|407:360|454:348,1,95,8|0,0:0|0:0,0:0:0:0:
298,261,58364,2,0,P|237:255|190:267,1,95,2|0,0:0|0:0,0:0:0:0:
70,100,58910,6,0,P|131:122|203:54,1,142.5,2|0,3:1|0:0,0:0:0:0:
255,40,59455,2,0,P|281:27|329:23,1,47.5,2|0,0:0|0:0,0:0:0:0:
374,32,59728,1,0,3:0:0:0:
442,167,60000,2,0,P|428:224|469:311,1,142.5,10|0,0:0|0:0,0:0:0:0:
512,354,60546,1,0,3:0:0:0:
367,306,60819,2,0,P|330:297|298:277,1,47.5,2|0,0:0|0:0,0:0:0:0:
260,196,61091,6,0,P|215:227|129:193,1,142.5,4|0,0:3|0:3,0:0:0:0:
77,154,61636,1,2,0:0:0:0:
214,91,61909,1,2,0:0:0:0:
71,36,62182,2,0,P|23:81|12:127,1,95,10|0,0:0|0:0,0:0:0:0:
100,232,62728,1,0,3:0:0:0:
215,133,63000,1,2,0:0:0:0:
416,129,63273,6,0,B|437:122|437:122|485:126,1,47.5,2|0,3:0|0:0,0:0:0:0:
338,205,63546,2,0,B|359:198|359:198|407:202,1,47.5,2|0,3:0|0:0,0:0:0:0:
258,277,63819,2,0,B|279:270|279:270|304:272,1,47.5,2|0,3:0|0:0,0:0:0:0:
182,350,64092,2,0,B|203:343|203:343|251:347,1,47.5,2|0,3:0|0:0,0:0:0:0:
304,272,64364,2,0,P|281:212|317:129,1,142.5,10|0,0:0|0:0,0:0:0:0:
233,114,64910,2,0,P|158:130|80:102,1,142.5,0|0,3:0|0:0,0:0:0:0:
144,202,65455,6,0,B|217:214|280:186|305:139|305:139|335:89|398:65|483:103|475:170,1,380,6|8,0:3|0:0,0:0:0:0:
455,252,66819,1,2,0:0:0:0:
347,359,67091,2,0,P|338:309|355:247,1,95,2|0,0:0|0:0,0:0:0:0:
205,110,67637,6,0,P|215:191|99:128,1,285,2|0,3:1|3:0,0:0:0:0:
299,82,68727,2,0,P|323:145|306:235,1,142.5,8|0,0:0|0:0,0:0:0:0:
236,289,69273,2,0,P|174:275|128:292,1,95,0|2,3:0|0:0,0:0:0:0:
46,318,69682,1,0,0:0:0:0:
46,318,69818,5,4,0:0:0:0:
144,99,87273,6,0,B|116:118|68:90|68:90|145:203|92:310,1,285,6|0,3:1|0:0,0:0:0:0:
313,40,88364,2,0,P|346:54|415:48,1,95,10|0,0:0|0:0,0:0:0:0:
482,226,88909,2,0,P|487:179|470:134,1,95,2|0,3:1|0:0,0:0:0:0:
324,322,89455,6,0,B|302:322|302:322|268:332,1,47.5,2|0,3:0|0:0,0:0:0:0:
235,232,89728,2,0,B|234:258|234:258|226:279,1,47.5,2|0,3:0|0:0,0:0:0:0:
164,353,90000,2,0,B|155:328|155:328|155:281,1,47.5,2|0,3:0|0:0,0:0:0:0:
115,247,90273,2,0,B|91:259|91:259|43:256,1,47.5,2|0,3:0|0:0,0:0:0:0:
62,112,90546,2,0,P|126:104|172:181,1,142.5,10|0,0:0|0:0,0:0:0:0:
218,219,91091,2,0,P|268:205|289:170,1,95,0|0,3:0|0:0,0:0:0:0:
483,33,91637,6,0,P|468:87|481:132,1,95,4|0,0:3|0:0,0:0:0:0:
356,296,92182,2,0,P|348:316|346:352,1,47.5,2|0,0:0|0:0,0:0:0:0:
434,257,92455,2,0,P|442:237|444:201,1,47.5,2|0,0:0|0:0,0:0:0:0:
393,155,92728,2,0,P|346:147|299:154,1,95,8|0,0:0|0:0,0:0:0:0:
93,71,93273,2,0,P|154:65|201:77,1,95,2|0,0:0|0:0,0:0:0:0:
87,348,93819,6,0,P|128:315|211:342,1,142.5,2|0,3:1|0:0,0:0:0:0:
247,266,94364,2,0,P|234:240|233:212,1,47.5,2|0,0:0|0:0,0:0:0:0:
227,152,94636,1,0,3:0:0:0:
434,31,94909,2,0,P|420:88|461:175,1,142.5,10|0,0:0|0:0,0:0:0:0:
503,222,95455,1,0,3:0:0:0:
335,253,95728,2,0,P|298:244|266:224,1,47.5,2|0,0:0|0:0,0:0:0:0:
362,190,96000,6,0,B|410:216|416:268|409:306|343:359|269:303|269:303|206:292|159:358,1,380,6|8,0:3|0:0,0:0:0:0:
81,170,97364,2,0,P|88:213|85:233,1,47.5,2|0,0:0|0:0,0:0:0:0:
69,290,97637,1,0,3:0:0:0:
179,186,97909,1,2,0:0:0:0:
347,151,98182,6,0,B|368:144|368:144|416:148,1,47.5,2|0,3:0|0:0,0:0:0:0:
302,217,98455,2,0,B|281:224|281:224|233:220,1,47.5,2|0,3:0|0:0,0:0:0:0:
386,79,98728,2,0,B|407:86|407:86|455:82,1,47.5,2|0,3:0|0:0,0:0:0:0:
347,151,99001,2,0,B|326:144|326:144|278:148,1,47.5,2|0,3:0|0:0,0:0:0:0:
252,87,99273,2,0,P|192:110|109:74,1,142.5,10|0,0:0|0:0,0:0:0:0:
61,133,99819,2,0,P|77:208|49:286,1,142.5,0|0,3:0|0:0,0:0:0:0:
121,346,100364,6,0,B|178:283|266:321|266:321|323:229|414:249|444:323,1,380,6|8,0:3|0:0,0:0:0:0:
492,171,101728,1,2,0:0:0:0:
388,60,102000,2,0,P|338:51|276:68,1,95,2|0,0:0|0:0,0:0:0:0:
189,189,102546,6,0,P|199:270|64:216,1,285,2|0,3:1|3:0,0:0:0:0:
253,326,103637,2,0,P|280:271|265:173,1,142.5,8|0,0:0|0:0,0:0:0:0:
344,162,104182,2,0,P|391:110|404:40,1,142.5,0|0,3:0|0:0,0:0:0:0:
280,95,104727,6,0,P|311:53|245:73,2,142.5,2|2|0,3:1|0:0|0:0,0:0:0:0:
168,198,105819,2,0,P|126:183|70:196,1,95,10|0,0:0|0:0,0:0:0:0:
190,283,106364,2,0,P|227:298|289:281,1,95,0|0,3:0|0:0,0:0:0:0:
481,158,106910,6,0,B|459:158|459:158|425:168,1,47.5,2|0,3:0|0:0,0:0:0:0:
346,214,107183,2,0,B|372:215|372:215|393:223,1,47.5,2|0,3:0|0:0,0:0:0:0:
488,271,107455,2,0,B|463:280|463:280|416:280,1,47.5,2|0,3:0|0:0,0:0:0:0:
333,314,107728,2,0,B|357:326|357:326|378:325,1,47.5,2|0,3:0|0:0,0:0:0:0:
462,209,108001,2,0,P|470:145|393:99,1,142.5,8|0,0:0|0:0,0:0:0:0:
368,38,108546,2,0,P|320:27|273:45,1,95,0|0,3:0|0:0,0:0:0:0:
201,307,109092,6,0,P|145:316|105:302,1,95,6|0,0:3|0:0,0:0:0:0:
75,158,109637,2,0,P|83:138|85:102,1,47.5,2|0,0:2|0:0,0:0:0:0:
141,59,109910,2,0,P|161:51|197:49,1,47.5,2|0,0:2|0:0,0:0:0:0:
248,92,110183,2,0,P|309:98|356:86,1,95,8|0,0:0|0:0,0:0:0:0:
469,173,110728,2,0,P|408:167|361:179,1,95,0|2,3:0|0:0,0:0:0:0:
182,266,111274,6,0,P|121:244|49:312,1,142.5,2|0,3:1|0:0,0:0:0:0:
23,216,111819,2,0,P|19:187|30:150,1,47.5,2|0,0:0|0:0,0:0:0:0:
61,103,112092,1,0,3:0:0:0:
183,192,112364,2,0,P|240:206|327:165,1,142.5,10|0,0:0|0:0,0:0:0:0:
376,130,112910,1,0,3:0:0:0:
467,251,113183,2,0,P|458:288|438:320,1,47.5,2|0,0:0|0:0,0:0:0:0:
345,305,113455,6,0,P|300:336|214:302,1,142.5,6|0,3:0|0:0,0:0:0:0:
168,256,114000,1,2,0:2:0:0:
258,133,114273,1,0,0:2:0:0:
419,350,114546,2,0,P|467:305|478:259,1,95,10|0,0:2|0:0,0:0:0:0:
477,125,115092,1,0,3:0:0:0:
356,216,115364,1,2,0:2:0:0:
96,255,115637,6,0,B|75:262|75:262|27:258,1,47.5,2|0,3:0|0:0,0:0:0:0:
174,179,115910,2,0,B|153:186|153:186|105:182,1,47.5,2|0,3:0|0:0,0:0:0:0:
254,107,116183,2,0,B|233:114|233:114|208:112,1,47.5,2|0,3:1|0:0,0:0:0:0:
330,34,116456,2,0,B|309:41|309:41|261:37,1,47.5,2|0,3:1|0:0,0:0:0:0:
208,112,116728,2,0,P|231:172|195:255,1,142.5,10|0,0:0|0:0,0:0:0:0:
257,302,117274,2,0,P|332:286|410:314,1,142.5,0|0,3:0|0:0,0:0:0:0:
457,219,117819,6,0,B|401:195|444:88|444:88|349:74|261:153|321:228,1,380,4|8,0:3|0:0,0:0:0:0:
390,352,119183,1,2,0:0:0:0:
259,275,119455,2,0,P|234:224|229:170,1,95,2|0,0:0|0:0,0:0:0:0:
379,206,120001,6,0,P|369:125|485:188,1,285,2|0,3:1|3:0,0:0:0:0:
305,245,121091,2,0,P|281:182|298:92,1,142.5,10|0,0:0|0:0,0:0:0:0:
240,50,121637,2,0,P|178:36|132:53,1,95,0|0,3:0|0:0,0:0:0:0:
83,82,122046,1,0,0:0:0:0:
83,82,122182,5,4,0:0:0:0:
