osu file format v14

[General]
AudioFilename: audio.mp3
AudioLeadIn: 0
PreviewTime: 84546
Countdown: 0
SampleSet: None
StackLeniency: 0.2
Mode: 0
LetterboxInBreaks: 0
WidescreenStoryboard: 1

[Editor]
DistanceSpacing: 1
BeatDivisor: 4
GridSize: 4
TimelineZoom: 1

[Metadata]
Title:broken hopes
TitleUnicode:⠀⠀⠀ ⠀⠀ ⠀⠀ ⠀⠀ ⠀ ⠀⠀ ⠀⠀ ⠀⠀ ⠀⠀⠀broken hopes
Artist:nathin
ArtistUnicode:nathin
Creator:Mortem
Version:easy
Source:
Tags:renumi crystvleyes experimental sad trap Nina Nesbitt The Best You Had ily
BeatmapID:2226147
BeatmapSetID:879695

[Difficulty]
HPDrainRate:4
CircleSize:4
OverallDifficulty:4
ApproachRate:4
SliderMultiplier:1.1
SliderTickRate:1

[Events]
//Background and Video events
0,0,"background.jpg",0,0
//Break Periods
2,74182,84545
//Storyboard Layer 0 (Background)
//Storyboard Layer 1 (Fail)
//Storyboard Layer 2 (Pass)
//Storyboard Layer 3 (Foreground)
//Storyboard Layer 4 (Overlay)
//Storyboard Sound Samples

[TimingPoints]
17455,545.454545454546,4,2,1,25,1,0
17455,-100,4,2,1,25,0,0
30545,-100,4,2,1,40,0,0
31636,-100,4,2,1,45,0,0
32727,-100,4,2,1,55,0,0
34909,-100,4,1,1,75,0,0
35727,-100,4,1,1,55,0,0
36000,-100,4,1,1,75,0,0
69818,-100,4,2,1,55,0,0
87273,-100,4,1,1,75,0,0
122182,-100,4,2,1,85,0,0

[Colours]
Combo1 : 126,121,151
Combo2 : 125,139,116

[HitObjects]
100,320,17455,6,0,B|62:273|74:216|74:216|54:162|83:98,1,220,2|2,0:1|3:1,0:0:0:0:
160,36,19091,1,2,0:0:0:0:
263,73,19636,2,0,P|312:61|378:67,2,110,2|0|2,0:1|0:0|3:1,0:0:0:0:
168,130,21273,1,2,0:0:0:0:
72,183,21818,6,0,P|105:221|261:189,1,220,2|2,0:1|3:1,0:0:0:0:
331,117,23455,1,0,0:0:0:0:
417,184,24000,2,0,P|410:232|418:297,1,110,2|2,0:1|0:0,0:0:0:0:
312,326,25091,2,0,P|319:278|311:213,1,110,2|0,3:2|0:0,0:0:0:0:
234,139,26182,6,0,P|186:132|121:140,1,110,2|0,0:1|0:0,0:0:0:0:
32,198,27273,1,2,0:1:0:0:
96,286,27818,1,2,0:0:0:0:
201,252,28364,2,0,B|261:281|305:251|305:251|351:282|425:247,1,220,2|2,0:1|3:2,0:0:0:0:
488,175,30000,1,2,0:0:0:0:
426,83,30545,6,0,P|386:111|206:86,1,220,2|2,0:1|3:2,0:0:0:0:
125,47,32182,1,0,0:0:0:0:
40,117,32727,2,0,P|57:156|49:230,1,110,2|0,0:0|0:0,0:0:0:0:
365,327,34909,6,0,P|428:319|465:174,1,220,6|10,3:1|0:0,0:0:0:0:
400,103,36545,1,2,3:1:0:0:
297,62,37091,2,0,B|246:38|246:38|179:70,2,110,2|2|10,3:0|3:0|0:0,0:0:0:0:
400,103,38727,1,0,3:0:0:0:
447,202,39273,6,0,B|392:232|338:195|338:195|289:161|227:207,1,220,4|8,0:3|0:0,0:0:0:0:
152,264,40909,1,2,0:0:0:0:
54,212,41455,2,0,B|30:133|60:57|60:57|80:89|128:85,1,220,2|10,3:1|0:0,0:0:0:0:
215,48,43091,1,0,3:0:0:0:
303,113,43636,6,0,B|374:129|421:78|421:78|456:123|432:180,1,220,6|8,0:3|0:0,0:0:0:0:
381,258,45273,1,0,3:0:0:0:
294,325,45818,2,0,B|249:352|249:352|196:319,2,110,2|2|10,3:0|3:0|0:0,0:0:0:0:
381,258,47455,1,0,3:0:0:0:
299,184,48000,6,0,B|251:146|196:164|196:164|208:103|170:53,1,220,6|8,0:3|0:0,0:0:0:0:
90,130,49636,1,2,0:0:0:0:
29,222,50182,2,0,B|107:268|176:197|176:197|206:229|241:230,1,220,2|8,3:1|0:0,0:0:0:0:
326,264,51818,1,0,3:0:0:0:
395,178,52364,6,0,B|362:113|317:103|317:103|269:159|216:128,1,220,6|10,0:3|0:0,0:0:0:0:
139,58,54000,1,2,3:1:0:0:
75,147,54545,2,0,B|51:198|51:198|83:265,2,110,2|2|10,3:0|3:0|0:0,0:0:0:0:
139,58,56182,1,0,3:0:0:0:
234,111,56727,6,0,B|309:73|392:127|392:127|415:113|464:128,1,220,6|8,0:3|0:0,0:0:0:0:
505,214,58364,1,2,0:0:0:0:
421,285,58909,2,0,P|384:317|239:241,1,220,2|10,3:1|0:0,0:0:0:0:
188,165,60545,1,0,3:0:0:0:
122,76,61091,6,0,P|87:119|151:267,1,220,4|10,0:3|0:0,0:0:0:0:
222,326,62727,1,0,3:0:0:0:
311,262,63273,2,0,B|335:211|335:211|303:144,2,110,2|2|10,3:0|3:0|0:0,0:0:0:0:
222,326,64909,1,0,3:0:0:0:
134,259,65455,6,0,P|143:196|104:85,1,165,6|0,0:3|0:0,0:0:0:0:
123,46,66545,2,0,B|180:59|180:59|247:43,1,110,8|2,0:0|0:0,0:0:0:0:
334,82,67636,2,0,P|372:83|483:175,1,165,2|0,3:1|3:0,0:0:0:0:
452,203,68727,2,0,P|395:193|330:207,1,110,8|0,0:0|3:0,0:0:0:0:
238,232,69818,5,4,0:0:0:0:
147,57,87273,6,0,P|84:65|47:210,1,220,6|10,3:1|0:0,0:0:0:0:
112,281,88909,1,2,3:1:0:0:
215,322,89455,2,0,B|266:346|266:346|333:314,2,110,2|2|10,3:0|3:0|0:0,0:0:0:0:
112,281,91091,1,0,3:0:0:0:
65,182,91637,6,0,B|120:152|174:189|174:189|223:223|285:177,1,220,4|8,0:3|0:0,0:0:0:0:
360,120,93273,1,2,0:0:0:0:
458,172,93819,2,0,B|482:251|452:327|452:327|432:295|384:299,1,220,2|10,3:1|0:0,0:0:0:0:
297,336,95455,1,0,3:0:0:0:
209,271,96000,6,0,B|138:255|91:306|91:306|56:261|80:204,1,220,6|8,0:3|0:0,0:0:0:0:
131,126,97637,1,0,3:0:0:0:
218,59,98182,2,0,B|263:32|263:32|316:65,2,110,2|2|10,3:0|3:0|0:0,0:0:0:0:
131,126,99819,1,0,3:0:0:0:
213,200,100364,6,0,B|261:238|316:220|316:220|304:281|342:331,1,220,6|8,0:3|0:0,0:0:0:0:
422,254,102000,1,2,0:0:0:0:
483,162,102546,2,0,B|405:116|336:187|336:187|306:155|271:154,1,220,2|8,3:1|0:0,0:0:0:0:
186,120,104182,1,0,3:0:0:0:
117,206,104728,6,0,B|150:271|195:281|195:281|243:225|296:256,1,220,2|10,3:1|0:0,0:0:0:0:
373,326,106364,1,0,3:0:0:0:
437,237,106909,2,0,B|461:186|461:186|429:119,2,110,2|2|8,3:0|3:0|0:0,0:0:0:0:
373,326,108546,1,0,3:0:0:0:
278,273,109091,6,0,B|203:311|120:257|120:257|97:271|48:256,1,220,6|8,0:3|0:0,0:0:0:0:
7,170,110728,1,0,3:0:0:0:
91,99,111273,2,0,P|128:67|273:143,1,220,2|10,3:1|0:0,0:0:0:0:
324,219,112909,1,0,3:0:0:0:
390,308,113455,6,0,P|425:265|361:117,1,220,6|10,3:0|0:2,0:0:0:0:
290,58,115091,1,0,3:0:0:0:
201,122,115637,2,0,B|177:173|177:173|209:240,2,110,2|2|10,3:0|3:1|0:0,0:0:0:0:
290,58,117273,1,0,3:0:0:0:
378,125,117819,6,0,P|369:188|408:299,1,165,4|0,0:3|0:0,0:0:0:0:
389,338,118909,2,0,B|332:325|332:325|265:341,1,110,8|2,0:0|0:0,0:0:0:0:
178,302,120000,2,0,P|140:301|29:209,1,165,2|0,3:1|3:0,0:0:0:0:
60,181,121091,2,0,P|117:191|182:177,1,110,10|0,0:0|3:0,0:0:0:0:
274,152,122182,5,4,0:0:0:0:
