osu file format v14

[General]
AudioFilename: audio.mp3
AudioLeadIn: 0
PreviewTime: 58650
Countdown: 0
SampleSet: Normal
StackLeniency: 0.7
Mode: 1
LetterboxInBreaks: 0
WidescreenStoryboard: 1

[Editor]
Bookmarks: 57451,62251,62594,62937,63280,67051,67566,72194,72708,74251,74766,79394,79908
DistanceSpacing: 1.1
BeatDivisor: 4
GridSize: 32
TimelineZoom: 1.5

[Metadata]
Title:Honey Jet Coaster (TV Size)
TitleUnicode:ハニージェットコースター (TV Size)
Artist:nasuo*
ArtistUnicode:なすお☆
Creator:hac
Version:Collab Futsuu
Source:可愛いだけじゃない式守さん
Tags:opening op kawaii dake ja nai shikimori-san shikimori's miss shikimoris is not just a cutie cute japanese pop j-pop jpop anime op arcpotato jacktvn
BeatmapID:3577144
BeatmapSetID:1748775

[Difficulty]
HPDrainRate:7
CircleSize:2
OverallDifficulty:4
ApproachRate:10
SliderMultiplier:1.4
SliderTickRate:1

[Events]
//Background and Video events
0,0,"bg.jpg",0,0
Video,-90,"shikimori.mp4"
//Break Periods
//Storyboard Layer 0 (Background)
//Storyboard Layer 1 (Fail)
//Storyboard Layer 2 (Pass)
//Storyboard Layer 3 (Foreground)
//Storyboard Layer 4 (Overlay)
//Storyboard Sound Samples

[TimingPoints]
1393,342.857142857143,4,1,0,60,1,0
58736,-100,4,1,0,80,0,0
58821,-100,4,1,0,80,0,1
58993,342.857142857143,4,1,0,80,1,1
78021,-100,4,1,0,80,0,0
78193,-100,4,1,0,60,0,0
83678,342.857142857143,4,1,0,60,1,0

[HitObjects]
256,192,3964,5,8,0:0:0:0:
256,64,5335,1,12,0:0:0:0:
256,64,5678,1,12,0:0:0:0:
256,64,6021,1,12,0:0:0:0:
256,64,6364,1,12,0:0:0:0:
256,192,6878,1,12,0:0:0:0:
256,192,7564,1,0,0:0:0:0:
256,192,7735,1,8,0:0:0:0:
256,192,8078,1,0,0:0:0:0:
256,192,8421,1,8,0:0:0:0:
256,192,8593,1,0,0:0:0:0:
256,192,8764,1,8,0:0:0:0:
256,192,9107,1,0,0:0:0:0:
256,192,9450,1,12,0:0:0:0:
256,192,10307,1,0,0:0:0:0:
256,192,10478,1,0,0:0:0:0:
256,64,10821,1,12,0:0:0:0:
256,192,11164,1,8,0:0:0:0:
256,192,11335,1,0,0:0:0:0:
256,192,11507,1,8,0:0:0:0:
256,192,12193,1,12,0:0:0:0:
256,192,12707,1,0,0:0:0:0:
256,192,13050,1,0,0:0:0:0:
256,192,13393,1,0,0:0:0:0:
256,64,13735,1,8,0:0:0:0:
256,192,14078,1,0,0:0:0:0:
256,192,14250,1,8,0:0:0:0:
256,192,14593,1,8,0:0:0:0:
256,192,14935,1,0,0:0:0:0:
256,192,15964,1,0,0:0:0:0:
256,192,16135,1,0,0:0:0:0:
256,192,16307,1,8,0:0:0:0:
256,192,16993,1,8,0:0:0:0:
256,192,17164,1,8,0:0:0:0:
256,192,17335,1,0,0:0:0:0:
256,192,17507,1,0,0:0:0:0:
256,192,17678,1,8,0:0:0:0:
256,192,18193,1,0,0:0:0:0:
256,192,18707,1,0,0:0:0:0:
256,192,18878,1,0,0:0:0:0:
256,192,19050,1,8,0:0:0:0:
256,192,19564,1,0,0:0:0:0:
256,192,20078,1,0,0:0:0:0:
256,192,20250,1,0,0:0:0:0:
256,192,20421,1,8,0:0:0:0:
256,192,20764,1,8,0:0:0:0:
256,192,20935,1,0,0:0:0:0:
256,192,21107,1,8,0:0:0:0:
256,192,21450,1,0,0:0:0:0:
256,192,21621,1,0,0:0:0:0:
256,64,21793,1,12,0:0:0:0:
256,64,22135,1,4,0:0:0:0:
256,64,22478,1,12,0:0:0:0:
256,64,22821,1,4,0:0:0:0:
256,192,23335,1,8,0:0:0:0:
256,192,24535,1,0,0:0:0:0:
256,192,24878,1,8,0:0:0:0:
256,192,25221,1,8,0:0:0:0:
256,192,25907,1,0,0:0:0:0:
256,192,26250,1,0,0:0:0:0:
256,192,26421,1,8,0:0:0:0:
256,192,27278,1,8,0:0:0:0:
256,192,27621,1,0,0:0:0:0:
256,192,27964,1,8,0:0:0:0:
256,192,28821,1,0,0:0:0:0:
256,192,29164,1,0,0:0:0:0:
256,192,29507,1,8,0:0:0:0:
256,192,29850,1,0,0:0:0:0:
256,192,30021,1,8,0:0:0:0:
256,192,30364,1,0,0:0:0:0:
256,192,30707,1,8,0:0:0:0:
256,192,31393,1,0,0:0:0:0:
256,192,31735,1,0,0:0:0:0:
256,192,31907,1,8,0:0:0:0:
256,192,32593,1,0,0:0:0:0:
256,192,32764,1,8,0:0:0:0:
256,192,33107,1,0,0:0:0:0:
256,192,33450,1,8,0:0:0:0:
256,64,34307,1,12,0:0:0:0:
256,192,34993,1,0,0:0:0:0:
256,192,35335,1,0,0:0:0:0:
256,192,35678,1,12,0:0:0:0:
256,192,36364,1,0,0:0:0:0:
256,192,36707,1,0,0:0:0:0:
256,64,37050,1,12,0:0:0:0:
256,192,37735,1,0,0:0:0:0:
256,192,38078,1,0,0:0:0:0:
256,64,38421,1,12,0:0:0:0:
256,64,38764,1,4,0:0:0:0:
256,64,39107,1,12,0:0:0:0:
256,64,39450,1,4,0:0:0:0:
256,64,39793,1,12,0:0:0:0:
256,192,40478,1,8,0:0:0:0:
256,192,40821,1,8,0:0:0:0:
256,64,41164,1,4,0:0:0:0:
256,192,41850,1,8,0:0:0:0:
256,192,42193,1,8,0:0:0:0:
256,64,42535,1,4,0:0:0:0:
256,192,43221,1,8,0:0:0:0:
256,192,43564,1,8,0:0:0:0:
256,192,43907,1,4,0:0:0:0:
256,192,44250,1,8,0:0:0:0:
256,192,44593,1,0,0:0:0:0:
256,192,44935,1,8,0:0:0:0:
256,192,45278,1,0,0:0:0:0:
256,192,46650,1,0,0:0:0:0:
256,192,48021,1,8,0:0:0:0:
256,192,49393,1,8,0:0:0:0:
256,192,50593,1,4,0:0:0:0:
256,192,50935,1,8,0:0:0:0:
256,192,51107,1,8,0:0:0:0:
256,192,51278,1,0,0:0:0:0:
256,192,51621,1,0,0:0:0:0:
256,192,51964,1,8,0:0:0:0:
256,192,52650,1,8,0:0:0:0:
256,192,52993,1,0,0:0:0:0:
256,192,53164,1,0,0:0:0:0:
256,64,53335,1,12,0:0:0:0:
256,192,53850,1,0,0:0:0:0:
256,192,54193,1,0,0:0:0:0:
256,192,54535,1,8,0:0:0:0:
256,192,54878,1,8,0:0:0:0:
256,192,55221,1,0,0:0:0:0:
256,192,55564,1,0,0:0:0:0:
256,192,55907,1,8,0:0:0:0:
256,64,56078,1,4,0:0:0:0:
256,192,56593,1,8,0:0:0:0:
256,192,56935,1,0,0:0:0:0:
256,192,57107,1,8,0:0:0:0:
256,192,57278,1,8,0:0:0:0:
256,192,57450,1,0,0:0:0:0:
256,64,58821,5,12,0:0:0:0:
256,192,59164,1,0,0:0:0:0:
256,192,59335,1,8,0:0:0:0:
256,192,59507,1,0,0:0:0:0:
256,192,59678,1,8,0:0:0:0:
256,192,60021,1,0,0:0:0:0:
256,192,60364,1,8,0:0:0:0:
256,192,60707,1,8,0:0:0:0:
256,192,60878,1,0,0:0:0:0:
256,192,61221,1,8,0:0:0:0:
256,192,61564,1,8,0:0:0:0:
256,192,61907,1,0,0:0:0:0:
256,192,62078,1,8,0:0:0:0:
256,192,62250,1,8,0:0:0:0:
256,192,62593,1,0,0:0:0:0:
256,192,62935,1,8,0:0:0:0:
256,192,63278,1,0,0:0:0:0:
256,192,63621,1,8,0:0:0:0:
256,192,63793,1,0,0:0:0:0:
256,192,63964,1,8,0:0:0:0:
256,192,64135,1,0,0:0:0:0:
256,192,64307,1,8,0:0:0:0:
256,192,64650,1,0,0:0:0:0:
256,192,64821,1,0,0:0:0:0:
256,192,64993,1,8,0:0:0:0:
160,192,65335,1,0,0:0:0:0:
288,160,66021,1,8,0:0:0:0:
288,160,66193,1,0,0:0:0:0:
256,192,66535,1,8,0:0:0:0:
256,192,66878,1,0,0:0:0:0:
256,160,67050,1,12,0:0:0:0:
256,64,67564,1,4,0:0:0:0:
256,192,67907,1,8,0:0:0:0:
288,192,68078,1,0,0:0:0:0:
256,192,68421,1,0,0:0:0:0:
224,160,68593,1,0,0:0:0:0:
288,192,68764,1,8,0:0:0:0:
320,128,68935,1,8,0:0:0:0:
256,64,69793,1,4,0:0:0:0:
256,192,70135,1,8,0:0:0:0:
256,192,70307,1,0,0:0:0:0:
256,192,70478,1,0,0:0:0:0:
256,192,70650,1,8,0:0:0:0:
256,192,70993,1,0,0:0:0:0:
256,192,71164,1,0,0:0:0:0:
256,192,71507,1,8,0:0:0:0:
256,192,71678,1,0,0:0:0:0:
256,192,71850,1,8,0:0:0:0:
256,192,72193,1,0,0:0:0:0:
256,192,72707,1,8,0:0:0:0:
256,192,73050,1,0,0:0:0:0:
256,192,73221,1,8,0:0:0:0:
288,192,73564,1,0,0:0:0:0:
256,64,73907,1,12,0:0:0:0:
256,192,74764,1,0,0:0:0:0:
256,192,74935,1,8,0:0:0:0:
256,64,75278,1,12,0:0:0:0:
256,192,75621,1,0,0:0:0:0:
256,192,75793,1,0,0:0:0:0:
256,192,75964,1,8,0:0:0:0:
256,192,76135,1,8,0:0:0:0:
256,192,76478,1,0,0:0:0:0:
256,64,76650,1,12,0:0:0:0:
256,64,76993,1,12,0:0:0:0:
256,64,77335,1,12,0:0:0:0:
256,64,77678,1,12,0:0:0:0:
256,64,78021,1,4,0:0:0:0:
192,192,78535,1,0,0:0:0:0:
256,192,78707,1,8,0:0:0:0:
256,192,78878,1,0,0:0:0:0:
256,192,79050,1,0,0:0:0:0:
256,64,79393,1,4,0:0:0:0:
256,192,80250,1,0,0:0:0:0:
256,192,80421,1,8,0:0:0:0:
256,64,80764,1,4,0:0:0:0:
256,192,81107,1,0,0:0:0:0:
256,192,81278,1,0,0:0:0:0:
320,192,81450,1,8,0:0:0:0:
256,192,81621,1,8,0:0:0:0:
256,192,81793,1,0,0:0:0:0:
256,64,82135,1,12,0:0:0:0:
256,64,82478,1,12,0:0:0:0:
256,64,82821,1,12,0:0:0:0:
256,64,83164,1,12,0:0:0:0:
256,64,83678,1,4,0:0:0:0:
256,192,84020,1,8,0:0:0:0:
256,192,84363,1,0,0:0:0:0:
256,192,84535,1,8,0:0:0:0:
256,192,84878,1,0,0:0:0:0:
256,192,85220,1,8,0:0:0:0:
256,192,85392,1,0,0:0:0:0:
256,192,85563,1,8,0:0:0:0:
256,64,86163,1,4,0:0:0:0:
