osu file format v14

[General]
AudioFilename: audio.mp3
AudioLeadIn: 0
PreviewTime: 60033
Countdown: 0
SampleSet: Soft
StackLeniency: 0.7
Mode: 2
LetterboxInBreaks: 0
WidescreenStoryboard: 1

[Editor]
DistanceSpacing: 1
BeatDivisor: 4
GridSize: 4
TimelineZoom: 2

[Metadata]
Title:Honey Jet Coaster (TV Size)
TitleUnicode:ハニージェットコースター (TV Size)
Artist:nasuo*
ArtistUnicode:なすお☆
Creator:bigh
Version:Salad
Source:可愛いだけじゃない式守さん
Tags:kawaii dake ja nai shikimori-san shikimori's miss shikimoris is not just a cutie cute japanese pop j-pop jpop anime op opening theme みっちょん micchon janai mnyui bighzonda
BeatmapID:3606159
BeatmapSetID:1761877

[Difficulty]
HPDrainRate:3
CircleSize:3
OverallDifficulty:7
ApproachRate:7
SliderMultiplier:1.4
SliderTickRate:1

[Events]
//Background and Video events
Video,1195,"Shikimori-Op1-1.mp4"
0,0,"stolefromgorm.jpg",0,0
//Break Periods
//Storyboard Layer 0 (Background)
//Storyboard Layer 1 (Fail)
//Storyboard Layer 2 (Pass)
//Storyboard Layer 3 (Foreground)
//Storyboard Layer 4 (Overlay)
//Storyboard Sound Samples

[TimingPoints]
-51,342.857142857143,4,2,1,10,1,0
5262,-100,4,2,1,60,0,0
6634,-100,4,2,1,80,0,0
6977,-100,4,2,1,60,0,0
7320,-100,4,2,1,60,0,0
7662,-100,4,2,1,60,0,0
8177,-100,4,2,1,70,0,0
13491,-100,4,2,1,80,0,0
23091,-100,4,2,1,80,0,0
23434,-100,4,2,1,80,0,0
23777,-100,4,2,1,80,0,0
24120,-100,4,2,1,80,0,0
24634,-100,4,2,1,70,0,0
35605,-100,4,2,1,60,0,0
46577,-100,4,2,1,60,0,0
51891,-100,4,2,1,75,0,0
60120,-100,4,2,1,90,0,1
77948,-100,4,2,1,90,0,1
78291,-100,4,2,1,90,0,1
78634,-100,4,2,1,90,0,1
78977,-100,4,2,1,90,0,1
79320,-100,4,2,1,90,0,1
83434,-100,4,2,1,90,0,0
83777,-100,4,2,1,90,0,0
84120,-100,4,2,1,90,0,0
84462,-100,4,2,1,90,0,0
84977,-100,4,2,1,80,0,0
87462,-100,4,2,1,70,0,0
88234,-100,4,2,1,5,0,0

[Colours]
Combo1 : 128,162,215
Combo2 : 242,167,187
Combo3 : 255,128,192
Combo4 : 128,128,192

[HitObjects]
256,192,2177,12,0,4920,0:0:0:0:
256,192,5263,6,0,B|169:194|107:141|166:73|259:72|259:72|370:73|443:132|345:195,1,490,0|0,3:0|3:0,0:0:0:0:
181,261,6634,6,0,L|30:252,1,140,6|2,3:2|3:2,0:0:0:0:
195,185,7320,1,2,3:2:0:0:
41,195,7663,2,0,P|38:114|93:63,1,140,2|0,3:2|0:0,0:0:0:0:
243,15,8177,6,0,L|389:19,1,140,6|0,3:2|3:2,0:0:0:0:
313,100,8691,2,0,L|216:93,2,70,10|2|2,0:2|3:2|3:2,0:0:0:0:
455,165,9377,6,0,L|283:159,1,140,10|2,0:0|0:0,0:0:0:0:
244,155,9891,1,2,3:2:0:0:
316,157,10063,2,0,P|366:145|313:130,1,140,2|10,0:0|0:0,0:0:0:0:
42,88,10749,6,0,B|19:119|19:119|135:118,1,140,14|2,0:0|3:2,0:0:0:0:
192,116,11263,2,0,L|236:35,1,70,10|2,0:0|3:2,0:0:0:0:
192,116,11606,2,0,L|89:120,1,70,10|2,0:0|3:2,0:0:0:0:
263,40,12120,6,0,L|421:45,1,140,14|2,0:2|3:2,0:0:0:0:
332,115,12634,1,2,3:2:0:0:
259,134,12806,1,2,3:2:0:0:
189,155,12977,2,0,B|131:177|131:177|214:198,1,140,8|8,0:0|0:0,0:0:0:0:
382,179,13491,6,0,B|452:148|452:148|289:140,1,210,6|8,3:2|0:0,0:0:0:0:
178,83,14349,2,0,L|165:250,1,140,0|8,3:0|0:0,0:0:0:0:
308,88,15034,6,0,B|392:77|392:77|310:72,1,140,2|10,3:2|0:2,0:0:0:0:
275,59,15549,2,0,L|444:55,1,140,2|2,0:2|0:0,0:0:0:0:
148,56,16234,6,0,P|131:89|238:213,1,210,2|8,0:0|0:0,0:0:0:0:
354,196,17091,1,0,3:0:0:0:
281,177,17263,2,0,L|262:100,1,70,2|10,0:0|0:0,0:0:0:0:
335,70,17606,6,0,P|398:113|292:230,1,280,2|2,0:0|0:0,0:0:0:0:
227,220,18463,1,2,3:2:0:0:
153,211,18634,1,2,3:2:0:0:
227,220,18806,1,10,0:0:0:0:
54,184,18977,6,0,B|0:137|0:137|63:130|156:131,1,210,6|8,3:2|0:0,0:0:0:0:
210,129,19663,2,0,L|250:194,1,70,0|0,0:0|3:0,0:0:0:0:
177,191,20006,2,0,L|101:191,1,70,2|10,3:2|0:0,0:0:0:0:
280,160,20349,6,0,B|374:172|343:207|343:207|300:219|212:214,1,210,6|8,3:2|0:2,0:0:0:0:
164,216,21034,2,0,L|136:142,1,70,0|0,0:0|3:2,0:0:0:0:
211,141,21377,2,0,L|231:72,1,70,2|10,3:2|0:2,0:0:0:0:
55,43,21720,6,0,B|14:52|14:52|3:90|3:90|26:112|28:113|130:113,1,210,6|10,3:2|0:0,0:0:0:0:
300,180,22406,2,0,B|341:171|341:171|352:133|352:133|329:111|327:110|225:110,1,210,2|10,3:2|0:0,0:0:0:0:
58,99,23091,6,0,L|60:255,1,140,6|14,3:2|0:2,0:0:0:0:
202,155,23777,2,0,L|38:156,1,140,6|6,3:2|3:2,0:0:0:0:
449,52,24634,6,0,P|446:109|367:135,1,140,6|2,3:2|3:2,0:0:0:0:
235,121,25320,2,0,B|170:131|170:131|185:229,1,140,2|2,3:2|3:2,0:0:0:0:
252,198,25834,1,2,0:0:0:0:
322,189,26006,6,0,B|387:179|387:179|372:81,1,140,0|0,3:2|3:2,0:0:0:0:
235,69,26691,2,0,L|86:72,1,140,0|2,3:2|3:2,0:0:0:0:
236,145,27377,6,0,L|381:145,1,140,0|2,3:0|3:2,0:0:0:0:
235,46,28063,2,0,L|229:198,1,140,0|2,3:2|3:2,0:0:0:0:
300,187,28577,1,2,0:0:0:0:
370,190,28749,6,0,B|385:179|385:179|181:173,1,210,0|10,3:2|0:0,0:0:0:0:
348,113,29606,2,0,L|432:114,1,70,8|8,0:1|3:1,0:0:0:0:
148,49,30120,6,0,L|59:47,1,70,2|2,3:2|0:0,0:0:0:0:
220,155,30634,2,0,L|309:153,1,70,2|2,0:0|3:2,0:0:0:0:
327,148,30977,1,2,0:0:0:0:
292,155,31149,2,0,L|203:153,1,70,2|2,3:2|0:0,0:0:0:0:
150,149,31491,6,0,L|155:1,1,140,0|0,3:2|3:2,0:0:0:0:
226,9,32006,2,0,L|398:14,1,140,2|2,0:0|0:0,0:0:0:0:
412,17,32520,1,2,3:2:0:0:
342,17,32691,1,10,0:0:0:0:
168,108,32863,6,0,P|183:142|299:154,1,140,0|2,3:0|3:2,0:0:0:0:
345,128,33377,2,0,P|281:109|259:41,1,140,0|2,0:0|0:0,0:0:0:0:
329,32,33891,2,0,L|330:128,1,70,2|2,3:2|0:0,0:0:0:0:
154,134,34234,6,0,B|88:147|88:147|83:158|83:158|87:166|87:166|155:175,1,140,4|8,3:2|0:0,0:0:0:0:
296,120,34749,1,2,3:2:0:0:
184,68,35091,2,0,L|265:68,1,70,8|8,0:1|0:1,0:0:0:0:
386,69,35606,6,0,B|436:106|436:106|428:115|428:115|259:118,1,210,6|2,3:2|0:0,0:0:0:0:
218,126,36291,2,0,L|183:200,1,70,2|2,3:2|0:0,0:0:0:0:
218,126,36634,2,0,L|314:128,1,70,10|2,0:0|0:0,0:0:0:0:
218,59,36977,6,0,B|168:96|168:96|176:105|176:105|345:108,1,210,2|2,3:2|0:0,0:0:0:0:
386,116,37663,2,0,L|421:190,1,70,2|2,3:2|0:0,0:0:0:0:
386,116,38006,2,0,L|290:118,1,70,10|2,0:0|0:2,0:0:0:0:
140,112,38349,6,0,B|317:114|317:114|332:158,1,210,2|2,3:2|0:0,0:0:0:0:
257,188,39034,2,0,L|229:275,1,70,2|2,3:2|0:0,0:0:0:0:
306,255,39377,2,0,L|396:255,1,70,10|0,0:0|0:0,0:0:0:0:
201,114,39720,6,0,L|40:104,3,140,2|2|2|2,3:2|3:2|3:2|3:2,0:0:0:0:
333,56,41091,6,0,B|383:93|383:93|375:102|375:102|206:105,1,210,6|2,3:2|0:0,0:0:0:0:
165,113,41777,2,0,L|130:187,1,70,2|2,3:2|0:0,0:0:0:0:
165,113,42120,2,0,L|261:115,1,70,10|2,0:0|0:2,0:0:0:0:
308,104,42463,6,0,B|351:97|365:80|365:80|351:61|307:69|199:69,1,210,2|2,3:2|0:0,0:0:0:0:
156,72,43149,2,0,L|177:160,1,70,2|2,3:2|0:0,0:0:0:0:
242,145,43491,2,0,L|152:145,1,70,10|2,0:0|0:0,0:0:0:0:
346,102,43834,6,0,B|426:86|426:86|408:52|356:48|348:45|312:42|312:42|220:55,1,280,2|2,3:2|3:2,0:0:0:0:
409,61,44863,1,10,0:0:0:0:
144,123,45206,6,0,L|293:135,1,140,6|2,3:2|3:2,0:0:0:0:
358,138,45720,1,8,0:3:0:0:
283,134,45891,2,0,P|234:185|195:261,1,140,2|0,3:2|0:0,0:0:0:0:
466,219,46577,6,8,B|490:150|490:150|401:135|401:135|397:134|397:134|393:135|393:135|333:141|333:141,1,210,6|0,3:2|0:0,0:0:0:0:
214,165,47434,1,0,0:0:0:0:
354,128,47777,1,0,0:0:0:0:
354,128,47949,6,0,B|75:122|75:122|219:125,1,420,2|0,0:0|0:0,0:0:0:0:
77,100,49320,6,0,B|29:135|29:135|76:157|76:157|88:150|88:150|100:158|100:158|121:156|185:160,1,210,2|0,0:0|0:0,0:0:0:0:
98,230,50006,2,0,L|103:145,1,70,0|0,0:0|0:0,0:0:0:0:
311,62,50691,6,0,L|100:59,1,210,2|0,0:0|0:0,0:0:0:0:
31,55,51720,1,0,0:0:0:0:
204,56,51891,6,0,L|425:54,1,210,6|10,3:2|0:0,0:0:0:0:
344,53,52577,2,0,L|313:204,1,140,2|2,0:0|3:2,0:0:0:0:
386,193,53091,1,8,0:0:0:0:
457,217,53263,6,0,L|286:208,1,140,2|0,3:2|3:2,0:0:0:0:
247,204,53777,1,10,0:0:0:0:
175,193,53949,2,0,P|187:94|226:91,1,140,2|2,0:2|3:2,0:0:0:0:
277,83,54463,1,10,0:0:0:0:
452,37,54634,6,0,B|512:53|512:53|350:73,1,210,6|8,3:2|0:0,0:0:0:0:
225,109,55491,2,0,L|223:259,1,140,8|8,0:0|0:0,0:0:0:0:
83,221,56177,6,0,L|81:371,1,140,8|8,0:0|0:0,0:0:0:0:
152,224,56691,1,2,3:2:0:0:
222,226,56863,2,0,L|65:219,1,140,10|10,0:0|0:0,0:0:0:0:
256,120,57377,6,0,B|328:72|328:72|183:71,1,210,6|8,3:2|0:0,0:0:0:0:
136,76,58063,1,0,3:2:0:0:
102,137,58234,1,8,0:3:0:0:
136,76,58406,1,8,3:2:0:0:
205,72,58577,1,8,3:2:0:0:
383,70,58749,5,0,3:2:0:0:
383,70,59263,2,0,B|313:70|313:70|383:66,1,140,0|0,0:0|0:0,0:0:0:0:
20,74,60120,6,0,L|252:74,1,210,6|8,3:2|0:0,0:0:0:0:
90,129,60977,2,0,L|92:279,1,140,2|10,3:2|0:0,0:0:0:0:
237,222,61663,6,0,L|238:59,1,140,2|10,3:2|0:0,0:0:0:0:
168,80,62177,2,0,L|23:80,1,140,2|2,0:0|0:0,0:0:0:0:
288,196,62863,6,0,P|328:116|292:60,1,140,2|2,0:0|0:0,0:0:0:0:
240,116,63377,1,10,0:0:0:0:
170,171,63549,2,0,L|23:166,1,140,2|2,0:0|0:0,0:0:0:0:
172,69,64234,6,0,L|332:76,1,140,2|2,0:0|0:0,0:0:0:0:
243,171,64749,2,0,L|239:268,1,70,8|2,0:0|0:0,0:0:0:0:
310,250,65091,2,0,L|324:168,3,70,2|10|2|10,3:2|0:0|3:2|0:0,0:0:0:0:
150,174,65777,6,0,B|106:169|106:169|77:144|78:70,1,140,6|10,3:2|0:0,0:0:0:0:
148,65,66291,1,2,0:0:0:0:
290,60,66634,2,0,L|284:138,1,70,2|10,0:0|0:2,0:0:0:0:
215,143,66977,6,0,B|123:169|137:169|344:178,1,210,2|10,0:0|0:0,0:0:0:0:
450,172,67834,2,0,B|479:128|479:128|476:115|476:115|480:105|480:105|433:80|433:80|404:78,1,140,2|10,3:2|0:0,0:0:0:0:
246,61,68349,6,0,L|101:61,1,140,6|2,3:2|3:2,0:0:0:0:
177,136,68863,2,0,L|341:135,1,140,10|10,0:0|0:0,0:0:0:0:
247,135,69377,1,10,0:0:0:0:
107,137,69720,1,10,0:0:0:0:
177,137,69891,6,0,L|193:42,1,70,2|10,3:2|0:2,0:0:0:0:
117,44,70234,2,0,B|38:45|38:45|114:41,1,140,10|10,0:2|0:0,0:0:0:0:
165,39,70749,1,10,0:0:0:0:
456,76,71091,6,0,L|224:76,1,210,6|8,3:2|0:0,0:0:0:0:
386,131,71949,2,0,L|384:281,1,140,2|10,3:2|0:0,0:0:0:0:
239,224,72634,6,0,L|238:61,1,140,2|10,3:2|0:0,0:0:0:0:
308,82,73149,2,0,L|453:82,1,140,2|2,0:0|0:0,0:0:0:0:
377,82,73663,1,8,0:0:0:0:
112,232,74006,6,0,P|68:160|96:124,1,140,2|10,3:2|0:0,0:0:0:0:
165,85,74520,2,0,L|319:81,1,140,2|2,0:0|3:2,0:0:0:0:
314,80,75034,1,8,0:0:0:0:
136,80,75206,6,0,B|92:88|92:88|72:116|72:116|53:123|12:178|86:223|126:227,1,210,6|8,3:2|0:0,0:0:0:0:
235,128,76063,2,0,L|209:292,1,140,10|8,0:0|0:0,0:0:0:0:
40,261,76577,6,0,B|28:169|28:169|150:154,1,210,6|10,3:2|0:0,0:0:0:0:
290,86,77434,2,0,L|279:231,1,140,2|10,3:2|0:0,0:0:0:0:
191,220,77949,5,2,3:2:0:0:
345,147,78291,1,2,3:2:0:0:
191,220,78634,1,2,3:2:0:0:
345,147,78977,1,2,3:2:0:0:
73,160,79320,6,0,P|68:88|184:28,1,210,6|8,3:2|0:0,0:0:0:0:
316,76,80177,2,0,L|361:226,1,140,2|10,3:2|0:0,0:0:0:0:
181,238,80691,6,0,P|113:210|166:162,1,140,6|0,3:2|3:2,0:0:0:0:
205,224,81206,1,8,0:0:0:0:
345,217,81549,2,0,L|394:156,2,70,10|2|8,0:0|3:2|0:0,0:0:0:0:
168,173,82063,6,0,B|125:141|125:141|173:113|293:116,1,210,6|10,3:2|0:0,0:0:0:0:
348,120,82749,1,10,0:0:0:0:
385,123,82920,1,10,0:0:0:0:
348,120,83091,1,10,0:0:0:0:
277,118,83263,1,10,0:0:0:0:
193,149,83434,5,6,3:2:0:0:
360,70,83777,1,6,3:2:0:0:
193,149,84120,1,6,3:2:0:0:
360,70,84463,1,6,3:2:0:0:
15,85,84977,6,0,L|172:88,1,140,6|0,3:2|3:2,0:0:0:0:
85,163,85491,2,0,L|69:249,2,70,2|2|2,0:2|3:2|0:2,0:0:0:0:
225,241,86177,6,0,B|277:244|277:244|279:191|279:191|227:186,1,140,2|2,0:0|0:0,0:0:0:0:
174,175,86691,1,10,0:2:0:0:
102,171,86863,1,2,3:2:0:0:
492,80,87463,5,14,3:2:0:0:
256,192,87720,12,0,88234,0:0:0:0:
