osu file format v14

[General]
AudioFilename: audio.mp3
AudioLeadIn: 0
PreviewTime: 60033
Countdown: 0
SampleSet: Soft
StackLeniency: 0.7
Mode: 2
LetterboxInBreaks: 0
WidescreenStoryboard: 1

[Editor]
DistanceSpacing: 1
BeatDivisor: 4
GridSize: 4
TimelineZoom: 2

[Metadata]
Title:Honey Jet Coaster (TV Size)
TitleUnicode:ハニージェットコースター (TV Size)
Artist:nasuo*
ArtistUnicode:なすお☆
Creator:bigh
Version:Rain
Source:可愛いだけじゃない式守さん
Tags:kawaii dake ja nai shikimori-san shikimori's miss shikimoris is not just a cutie cute japanese pop j-pop jpop anime op opening theme みっちょん micchon janai mnyui bighzonda
BeatmapID:3606158
BeatmapSetID:1761877

[Difficulty]
HPDrainRate:5
CircleSize:4
OverallDifficulty:9
ApproachRate:9
SliderMultiplier:1.7
SliderTickRate:2

[Events]
//Background and Video events
Video,1195,"Shikimori-Op1-1.mp4"
0,0,"stolefromgorm.jpg",0,0
//Break Periods
//Storyboard Layer 0 (Background)
//Storyboard Layer 1 (Fail)
//Storyboard Layer 2 (Pass)
//Storyboard Layer 3 (Foreground)
//Storyboard Layer 4 (Overlay)
//Storyboard Sound Samples

[TimingPoints]
-51,342.857142857143,4,2,1,10,1,0
5262,-100,4,2,1,60,0,0
6634,-100,4,2,1,80,0,0
6977,-100,4,2,1,60,0,0
7320,-100,4,2,1,60,0,0
7662,-100,4,2,1,60,0,0
8177,-100,4,2,1,70,0,0
13491,-100,4,2,1,80,0,0
23091,-100,4,2,1,80,0,0
23434,-100,4,2,1,80,0,0
23777,-100,4,2,1,80,0,0
24120,-100,4,2,1,80,0,0
24634,-100,4,2,1,70,0,0
35605,-100,4,2,1,60,0,0
46577,-100,4,2,1,60,0,0
51891,-100,4,2,1,75,0,0
60120,-100,4,2,1,90,0,1
77948,-100,4,2,1,90,0,1
78291,-100,4,2,1,90,0,1
78634,-100,4,2,1,90,0,1
78977,-100,4,2,1,90,0,1
79320,-100,4,2,1,90,0,1
83434,-100,4,2,1,90,0,0
83777,-100,4,2,1,90,0,0
84120,-100,4,2,1,90,0,0
84462,-100,4,2,1,90,0,0
84977,-100,4,2,1,80,0,0
87462,-100,4,2,1,70,0,0
88234,-100,4,2,1,5,0,0

[Colours]
Combo1 : 128,162,215
Combo2 : 242,167,187
Combo3 : 255,128,192
Combo4 : 128,128,192

[HitObjects]
256,192,2177,12,0,5091,0:0:0:0:
312,252,5263,6,0,P|264:238|326:169,1,170,0|0,3:0|0:0,0:0:0:0:
390,162,5777,2,0,L|392:52,1,85,0|0,0:0|0:0,0:0:0:0:
303,151,6120,2,0,L|306:58,1,85,0|0,0:0|0:0,0:0:0:0:
391,26,6463,1,0,3:0:0:0:
128,69,6634,6,0,B|86:69|86:69|128:69,1,85,6|0,3:2|0:0,0:0:0:0:
393,73,6977,2,0,B|435:73|435:73|393:73,1,85,2|0,3:2|0:0,0:0:0:0:
128,72,7320,2,0,L|241:76,1,85,2|0,3:2|0:0,0:0:0:0:
477,81,7663,2,0,P|416:65|478:47,1,170,2|0,3:2|0:0,0:0:0:0:
212,106,8177,6,0,L|100:101,2,85,6|0|0,3:2|0:0|3:2,0:0:0:0:
382,114,8691,1,10,0:2:0:0:
297,84,8863,2,0,L|194:82,1,85,2|2,3:2|3:2,0:0:0:0:
297,84,9206,1,0,3:0:0:0:
464,9,9377,6,0,B|496:61|496:61|356:61,1,170,10|2,0:0|0:0,0:0:0:0:
302,57,9891,2,0,L|276:151,1,85,2|2,3:2|0:0,0:0:0:0:
366,145,10234,1,0,3:0:0:0:
201,216,10406,2,0,L|100:216,1,85,10|0,0:0|3:0,0:0:0:0:
380,193,10749,6,0,P|456:173|438:88,1,170,14|2,0:0|3:2,0:0:0:0:
284,72,11263,2,0,L|184:69,1,85,10|2,0:0|3:2,0:0:0:0:
364,152,11606,1,10,0:0:0:0:
198,188,11777,2,0,L|79:183,1,85,2|0,3:2|0:0,0:0:0:0:
378,89,12120,6,0,L|190:85,1,170,14|2,0:2|3:2,0:0:0:0:
376,168,12634,1,2,3:2:0:0:
210,163,12806,1,2,3:2:0:0:
406,171,12977,2,0,L|470:167,1,42.5,8|0,0:0|3:0,0:0:0:0:
274,175,13149,2,0,L|213:176,1,42.5,0|0,3:0|3:0,0:0:0:0:
203,218,13320,1,8,0:0:0:0:
231,175,13406,1,0,3:0:0:0:
416,96,13491,6,0,B|464:68|464:68|424:48|424:48|340:48,1,170,6|0,3:2|0:0,0:0:0:0:
188,122,14006,2,0,B|96:154|96:154|208:172,1,170,8|0,0:0|3:0,0:0:0:0:
253,177,14520,1,0,0:0:0:0:
88,252,14691,2,0,L|90:141,1,85,8|0,0:0|0:0,0:0:0:0:
350,64,15034,6,0,P|401:84|426:193,1,170,2|10,3:2|0:2,0:0:0:0:
262,181,15549,2,0,L|86:177,1,170,2|2,0:2|0:0,0:0:0:0:
177,179,16063,1,8,0:0:0:0:
440,40,16234,6,0,L|245:39,1,170,2|0,0:0|0:0,0:0:0:0:
435,65,16749,2,0,P|479:100|387:154,1,170,8|0,0:0|3:0,0:0:0:0:
260,148,17263,1,2,0:0:0:0:
421,172,17434,1,10,0:0:0:0:
172,88,17606,6,0,B|91:112|91:112|68:167|68:167|82:201,1,170,2|0,0:0|0:0,0:0:0:0:
244,228,18120,1,8,0:0:0:0:
150,205,18291,1,2,0:0:0:0:
312,156,18463,2,0,L|422:154,1,85,2|2,3:2|3:2,0:0:0:0:
232,96,18806,1,10,0:0:0:0:
491,47,18977,6,0,L|291:43,1,170,6|0,3:2|3:2,0:0:0:0:
485,118,19491,2,0,L|481:225,1,85,8|0,0:0|0:0,0:0:0:0:
420,206,19749,1,8,0:0:0:0:
358,207,19834,1,0,3:0:0:0:
192,196,20006,1,2,3:2:0:0:
358,207,20177,1,10,0:0:0:0:
92,71,20349,6,0,L|293:70,1,170,6|0,3:2|3:2,0:0:0:0:
96,124,20863,2,0,L|100:231,1,85,8|0,0:2|0:0,0:0:0:0:
161,212,21120,1,8,0:2:0:0:
223,213,21206,1,0,3:2:0:0:
387,184,21377,1,2,3:2:0:0:
223,213,21549,1,10,0:2:0:0:
480,132,21720,6,0,L|273:127,1,170,6|2,3:2|3:2,0:0:0:0:
472,130,22234,1,10,0:0:0:0:
215,84,22406,2,0,L|8:79,1,170,2|2,3:2|3:2,0:0:0:0:
215,84,22920,1,10,0:0:0:0:
488,80,23091,6,0,L|488:183,1,85,6|0,3:2|0:0,0:0:0:0:
224,192,23434,2,0,L|311:191,1,85,14|0,0:2|0:0,0:0:0:0:
43,78,23777,2,0,L|43:181,1,85,6|0,3:2|0:0,0:0:0:0:
316,139,24120,2,0,B|402:135|402:135|412:88|412:88|339:85,1,170,6|0,3:2|0:0,0:0:0:0:
112,80,24634,6,0,P|65:113|68:158,1,85,6|0,3:2|0:0,0:0:0:0:
121,147,24891,1,2,0:0:0:0:
182,158,24977,2,0,L|212:252,1,85,2|2,3:2|0:0,0:0:0:0:
124,272,25320,2,0,L|30:276,2,85,2|2|2,3:2|0:0|3:2,0:0:0:0:
288,264,25834,5,2,0:0:0:0:
375,259,26006,2,0,L|375:151,1,85,0|2,3:2|0:0,0:0:0:0:
286,172,26349,2,0,L|286:64,1,85,0|2,3:2|0:0,0:0:0:0:
376,84,26691,1,0,3:2:0:0:
295,81,26863,1,2,0:0:0:0:
257,49,27034,1,2,3:2:0:0:
295,81,27206,1,2,0:0:0:0:
134,109,27377,6,0,L|34:111,1,85,0|2,3:0|0:0,0:0:0:0:
137,182,27720,2,0,L|247:177,1,85,2|0,3:2|0:0,0:0:0:0:
137,182,28063,1,0,3:2:0:0:
233,174,28234,2,0,L|243:53,1,85,2|2,0:0|3:2,0:0:0:0:
76,72,28577,6,0,P|12:116|52:190,1,170,2|2,0:0|0:0,0:0:0:0:
131,186,29091,1,2,3:2:0:0:
322,124,29263,2,0,L|213:122,1,85,10|0,0:0|3:2,0:0:0:0:
400,80,29606,1,8,0:1:0:0:
241,61,29777,2,0,L|119:59,1,85,8|0,3:1|0:0,0:0:0:0:
422,66,30120,6,0,B|465:68|465:68|422:63,1,85,2|2,3:2|0:0,0:0:0:0:
344,60,30377,1,2,0:0:0:0:
264,64,30463,2,0,B|221:66|221:66|264:61,1,85,2|2,3:2|0:0,0:0:0:0:
344,60,30720,1,2,0:0:0:0:
422,66,30806,2,0,L|330:65,2,85,2|2|2,3:2|0:0|3:2,0:0:0:0:
264,64,31320,6,0,L|159:62,1,85,2|0,0:0|3:2,0:0:0:0:
332,168,31663,2,0,L|437:166,1,85,2|0,0:0|3:2,0:0:0:0:
248,76,32006,2,0,L|143:74,1,85,2|0,0:0|3:2,0:0:0:0:
60,74,32349,2,0,L|159:73,1,85,2|2,0:0|3:2,0:0:0:0:
308,76,32691,6,0,L|344:176,1,85,10|0,0:0|3:0,0:0:0:0:
253,170,33034,1,2,0:0:0:0:
441,174,33206,1,2,3:2:0:0:
356,171,33377,2,0,L|336:80,1,85,0|0,0:0|3:2,0:0:0:0:
420,84,33720,1,2,0:0:0:0:
332,69,33891,2,0,L|432:69,1,85,2|2,3:2|0:0,0:0:0:0:
163,70,34234,6,0,P|107:114|167:166,1,170,4|8,3:2|0:0,0:0:0:0:
439,146,34749,2,0,L|443:42,1,85,2|0,3:2|0:0,0:0:0:0:
276,56,35091,1,8,0:1:0:0:
439,146,35263,2,0,L|342:144,1,85,8|0,0:1|0:0,0:0:0:0:
90,137,35606,6,0,L|3:147,2,85,6|0|0,3:2|0:0|3:0,0:0:0:0:
177,125,36120,1,2,0:0:0:0:
91,208,36291,2,0,L|120:108,1,85,2|2,3:2|0:0,0:0:0:0:
281,84,36634,2,0,L|167:80,1,85,10|2,0:0|0:0,0:0:0:0:
364,136,36977,6,0,L|451:146,2,85,2|0|0,3:2|0:0|3:2,0:0:0:0:
276,120,37491,1,2,0:0:0:0:
362,203,37663,2,0,L|362:98,1,85,2|2,3:2|0:0,0:0:0:0:
196,81,38006,2,0,L|310:77,1,85,10|2,0:0|0:2,0:0:0:0:
90,137,38349,6,0,L|3:147,2,85,2|0|0,3:2|0:0|3:2,0:0:0:0:
177,125,38863,1,2,0:0:0:0:
91,208,39034,2,0,L|91:103,1,85,2|2,3:2|0:0,0:0:0:0:
256,84,39377,2,0,L|142:80,1,85,10|0,0:0|0:0,0:0:0:0:
424,88,39720,6,0,L|468:188,1,85,2|0,3:2|0:0,0:0:0:0:
372,200,40063,2,0,L|466:202,1,85,2|0,3:2|0:0,0:0:0:0:
193,182,40406,2,0,L|196:76,1,85,2|0,3:2|0:0,0:0:0:0:
282,69,40749,2,0,L|188:67,1,85,2|0,3:2|0:0,0:0:0:0:
468,108,41091,6,0,L|469:204,1,85,6|0,3:2|0:0,0:0:0:0:
382,110,41434,1,0,3:2:0:0:
296,112,41606,1,2,0:0:0:0:
382,195,41777,2,0,L|382:90,1,85,2|2,3:2|0:0,0:0:0:0:
216,72,42120,2,0,L|330:68,1,85,10|2,0:0|0:2,0:0:0:0:
136,112,42463,6,0,L|135:208,1,85,2|0,3:2|0:0,0:0:0:0:
220,108,42806,1,0,3:2:0:0:
306,110,42977,1,2,0:0:0:0:
220,193,43149,2,0,L|220:88,1,85,2|2,3:2|0:0,0:0:0:0:
388,72,43491,2,0,L|274:68,1,85,10|2,0:0|0:0,0:0:0:0:
468,108,43834,6,0,L|469:204,1,85,2|0,3:2|0:0,0:0:0:0:
382,110,44177,1,0,3:2:0:0:
220,116,44349,1,2,0:0:0:0:
306,199,44520,2,0,L|264:104,1,85,2|0,3:2|0:0,0:0:0:0:
108,80,44863,2,0,L|222:76,1,85,10|0,0:0|0:0,0:0:0:0:
444,60,45206,6,0,B|337:58,1,85,6|0,3:2|0:0,0:0:0:0:
273,56,45549,1,2,3:2:0:0:
431,141,45720,1,8,0:3:0:0:
276,141,45891,2,0,L|172:145,1,85,2|4,3:2|0:3,0:0:0:0:
276,141,46234,2,0,P|322:141|373:137,1,85,0|8,0:0|0:3,0:0:0:0:
314,141,46491,1,8,0:3:0:0:
137,84,46577,6,8,P|58:108|152:195,1,255,6|0,3:2|0:0,0:0:0:0:
222,190,47263,1,0,0:0:0:0:
382,163,47434,2,0,B|384:69|384:69|300:67,1,170
48,68,47949,6,0,B|31:113|31:113|79:142|162:135,1,170,2|0,0:0|0:0,0:0:0:0:
236,136,48463,2,0,B|305:142|353:113|353:113|336:68,1,170
252,62,48977,2,0,L|343:53,1,85,0|0,0:0|0:0,0:0:0:0:
64,81,49320,6,0,L|65:176,1,85,2|0,0:0|0:0,0:0:0:0:
156,184,49663,2,0,L|269:179,1,85
156,184,50006,1,0,0:0:0:0:
244,152,50177,2,0,P|260:88|168:72,1,170,0|0,0:0|0:0,0:0:0:0:
447,34,50691,6,0,P|495:74|422:129,1,170,2|0,0:0|0:0,0:0:0:0:
348,121,51206,1,0,0:0:0:0:
258,129,51377,1,0,0:0:0:0:
348,121,51549,2,0,L|360:224,1,85
96,232,51891,6,0,B|47:199|47:199|169:175,1,170,6|0,3:2|3:2,0:0:0:0:
326,36,52406,2,0,L|328:154,1,85,10|2,0:0|0:0,0:0:0:0:
264,127,52663,1,8,0:0:0:0:
203,135,52749,1,0,3:0:0:0:
289,121,52920,1,2,3:2:0:0:
128,92,53091,1,8,0:0:0:0:
292,48,53263,6,0,L|472:52,1,170,2|0,3:2|3:2,0:0:0:0:
292,124,53777,2,0,L|290:242,1,85,10|2,0:0|0:2,0:0:0:0:
354,215,54034,1,8,0:0:0:0:
415,223,54120,1,2,3:2:0:0:
329,209,54291,1,2,3:2:0:0:
498,177,54463,1,10,0:0:0:0:
224,116,54634,6,0,B|139:115|139:115|128:156|161:223,1,170,6|0,3:2|3:2,0:0:0:0:
424,211,55149,2,0,L|424:93,1,85,8|0,0:0|3:2,0:0:0:0:
153,99,55491,2,0,L|50:99,1,85,8|0,0:0|3:2,0:0:0:0:
341,45,55834,2,0,L|444:45,1,85,8|0,0:0|3:2,0:0:0:0:
153,99,56177,6,0,L|153:217,1,85,8|0,0:0|3:2,0:0:0:0:
424,211,56520,2,0,L|527:211,1,85,8|2,0:0|3:2,0:0:0:0:
236,265,56863,2,0,L|133:265,1,85,10|0,0:0|3:2,0:0:0:0:
320,216,57206,1,10,0:0:0:0:
60,204,57377,6,0,P|104:160|224:124,1,170,6|0,3:2|3:2,0:0:0:0:
368,80,57891,2,0,L|472:84,2,85,8|0|8,0:0|3:2|0:3,0:0:0:0:
112,68,58406,1,8,3:2:0:0:
72,72,58491,1,8,3:2:0:0:
48,96,58577,1,8,3:2:0:0:
72,72,58663,1,8,3:2:0:0:
248,136,58749,5,0,3:2:0:0:
248,136,59263,2,0,B|336:136,2,85
162,133,59777,2,0,L|161:45,1,85,0|0,0:0|0:0,0:0:0:0:
436,40,60120,6,0,P|484:80|408:124,1,170,6|2,3:2|0:0,0:0:0:0:
244,120,60634,2,0,L|148:120,1,85,8|0,0:0|0:0,0:0:0:0:
326,60,60977,2,0,L|422:64,1,85,2|0,3:2|0:0,0:0:0:0:
236,168,61320,2,0,L|360:168,1,85,10|0,0:0|0:0,0:0:0:0:
56,160,61663,6,0,P|30:115|118:57,1,170,2|10,3:2|0:0,0:0:0:0:
272,52,62177,2,0,L|171:51,1,85,2|0,0:0|3:2,0:0:0:0:
20,112,62520,2,0,L|123:114,1,85,2|8,0:0|0:0,0:0:0:0:
371,113,62863,6,0,B|423:140|423:140|375:153|375:153|300:156,1,170,2|2,0:0|0:0,0:0:0:0:
148,152,63377,1,10,0:0:0:0:
312,144,63549,2,0,L|317:46,1,85,2|0,0:0|3:2,0:0:0:0:
226,52,63891,1,2,0:0:0:0:
392,52,64063,1,8,0:0:0:0:
146,121,64234,6,0,L|324:121,1,170,2|2,0:0|0:0,0:0:0:0:
148,212,64749,2,0,L|53:211,1,85,8|2,0:0|0:0,0:0:0:0:
218,237,65091,1,2,3:2:0:0:
39,194,65263,1,10,0:0:0:0:
218,237,65434,1,2,3:2:0:0:
39,194,65606,1,10,0:0:0:0:
312,72,65777,6,0,L|432:72,1,85,6|0,3:2|0:0,0:0:0:0:
240,72,66120,1,10,0:0:0:0:
156,104,66291,2,0,B|100:136|100:136|236:144,1,170,2|2,0:0|0:0,0:0:0:0:
360,148,66806,1,10,0:2:0:0:
89,182,66977,6,0,P|25:218|96:259,1,170,2|2,0:0|0:0,0:0:0:0:
248,260,67491,2,0,L|284:144,1,85,10|0,0:0|0:0,0:0:0:0:
190,133,67834,2,0,L|374:131,1,170,2|10,3:2|0:0,0:0:0:0:
88,52,68349,6,0,B|60:84|60:84|208:92,1,170,6|2,3:2|3:2,0:0:0:0:
460,144,68863,2,0,L|352:144,1,85,10|2,0:0|3:2,0:0:0:0:
100,140,69206,2,0,L|196:140,1,85,10|10,0:0|0:0,0:0:0:0:
348,144,69549,2,0,L|368:56,1,85,2|10,3:2|0:0,0:0:0:0:
100,48,69891,5,2,3:2:0:0:
264,44,70063,1,10,0:2:0:0:
100,48,70234,2,0,L|12:52,1,85,10|0,0:2|3:2,0:0:0:0:
264,44,70577,2,0,L|332:44,1,42.5,10|8,0:0|0:0,0:0:0:0:
120,108,70749,1,10,0:0:0:0:
91,143,70834,1,8,0:0:0:0:
120,108,70920,1,8,0:0:0:0:
171,109,71006,1,8,0:0:0:0:
350,62,71091,6,0,P|398:102|322:146,1,170,6|2,3:2|0:0,0:0:0:0:
164,136,71606,2,0,L|68:136,1,85,8|2,0:0|0:0,0:0:0:0:
240,82,71949,2,0,L|336:86,1,85,2|0,3:2|0:0,0:0:0:0:
156,188,72291,2,0,L|51:186,1,85,10|2,0:0|0:0,0:0:0:0:
328,116,72634,6,0,L|427:117,2,85,2|2|10,3:2|0:0|0:0,0:0:0:0:
57,72,73149,2,0,L|160:74,1,85,2|0,0:0|3:2,0:0:0:0:
300,84,73491,1,2,0:0:0:0:
145,95,73663,2,0,L|56:96,1,85,8|0,0:0|0:0,0:0:0:0:
328,80,74006,5,2,3:2:0:0:
239,75,74177,1,2,0:0:0:0:
76,72,74349,1,10,0:0:0:0:
239,75,74520,2,0,L|343:81,1,85,2|0,0:0|0:0,0:0:0:0:
239,75,74863,2,0,L|143:70,1,85,2|8,3:2|0:0,0:0:0:0:
426,145,75206,6,0,L|248:145,1,170,6|2,3:2|3:2,0:0:0:0:
424,224,75720,2,0,L|314:226,1,85,8|0,0:0|3:2,0:0:0:0:
172,232,76063,1,10,0:0:0:0:
339,225,76234,1,2,3:2:0:0:
160,268,76406,1,8,0:0:0:0:
432,144,76577,6,0,L|248:142,1,170,6|2,3:2|3:2,0:0:0:0:
344,80,77091,2,0,L|344:188,1,85,10|2,0:0|0:0,0:0:0:0:
180,169,77434,2,0,L|73:164,1,85,2|0,3:2|3:2,0:0:0:0:
180,169,77777,1,10,0:0:0:0:
451,171,77949,6,0,P|481:215|394:268,1,170,2|2,3:2|3:2,0:0:0:0:
316,264,78463,1,0,0:0:0:0:
52,208,78634,2,0,P|22:164|109:111,1,170,2|2,3:2|3:2,0:0:0:0:
179,129,79149,1,0,0:0:0:0:
448,52,79320,6,0,B|452:84|452:84|304:92,1,170,6|0,3:2|3:2,0:0:0:0:
148,152,79834,2,0,L|256:152,1,85,8|0,0:0|0:0,0:0:0:0:
480,152,80177,2,0,L|384:152,1,85,2|2,3:2|3:2,0:0:0:0:
233,152,80520,1,10,0:0:0:0:
496,44,80691,6,0,B|474:95|474:95|452:120|352:124,1,170,6|0,3:2|3:2,0:0:0:0:
200,56,81206,2,0,L|288:60,1,85,8|0,0:0|3:2,0:0:0:0:
444,104,81549,1,10,0:0:0:0:
284,59,81720,1,2,3:2:0:0:
444,104,81891,1,8,0:0:0:0:
176,116,82063,6,0,P|104:148|168:188,1,170,6|10,3:2|0:0,0:0:0:0:
304,192,82577,1,10,0:0:0:0:
150,192,82749,1,10,0:0:0:0:
424,104,82920,1,10,0:0:0:0:
278,92,83091,1,10,0:0:0:0:
131,75,83263,1,10,0:0:0:0:
396,116,83434,6,0,L|396:216,1,85,6|0,3:2|0:0,0:0:0:0:
125,258,83777,2,0,L|125:170,1,85,6|0,3:2|0:0,0:0:0:0:
396,116,84120,2,0,L|286:117,1,85,6|0,3:2|0:0,0:0:0:0:
38,124,84463,2,0,B|123:122|123:122|38:124,1,170,6|0,3:2|0:0,0:0:0:0:
304,120,84977,6,0,B|388:120|388:120|388:216,1,170,6|0,3:2|3:2,0:0:0:0:
303,206,85491,2,0,L|215:206,1,85,2|2,0:2|3:2,0:0:0:0:
303,206,85834,2,0,L|391:206,1,85,2|0,0:2|3:0,0:0:0:0:
231,134,86177,6,0,L|55:134,1,170,2|2,0:0|0:0,0:0:0:0:
219,70,86691,1,10,0:2:0:0:
59,62,86863,1,2,3:2:0:0:
496,56,87463,5,14,3:2:0:0:
256,192,87720,12,0,88234,0:0:0:0:
