osu file format v14

[General]
AudioFilename: audio.mp3
AudioLeadIn: 0
PreviewTime: 60033
Countdown: 0
SampleSet: Soft
StackLeniency: 0.7
Mode: 2
LetterboxInBreaks: 0
WidescreenStoryboard: 1

[Editor]
DistanceSpacing: 1
BeatDivisor: 4
GridSize: 4
TimelineZoom: 2

[Metadata]
Title:Honey Jet Coaster (TV Size)
TitleUnicode:ハニージェットコースター (TV Size)
Artist:nasuo*
ArtistUnicode:なすお☆
Creator:bigh
Version:Platter
Source:可愛いだけじゃない式守さん
Tags:kawaii dake ja nai shikimori-san shikimori's miss shikimoris is not just a cutie cute japanese pop j-pop jpop anime op opening theme みっちょん micchon janai mnyui bighzonda
BeatmapID:3606157
BeatmapSetID:1761877

[Difficulty]
HPDrainRate:4
CircleSize:3.5
OverallDifficulty:8
ApproachRate:8
SliderMultiplier:1.55
SliderTickRate:1

[Events]
//Background and Video events
Video,1195,"Shikimori-Op1-1.mp4"
0,0,"stolefromgorm.jpg",0,0
//Break Periods
//Storyboard Layer 0 (Background)
//Storyboard Layer 1 (Fail)
//Storyboard Layer 2 (Pass)
//Storyboard Layer 3 (Foreground)
//Storyboard Layer 4 (Overlay)
//Storyboard Sound Samples

[TimingPoints]
-51,342.857142857143,4,2,1,10,1,0
5262,-100,4,2,1,60,0,0
6634,-100,4,2,1,80,0,0
6977,-100,4,2,1,60,0,0
7320,-100,4,2,1,60,0,0
7662,-100,4,2,1,60,0,0
8177,-100,4,2,1,70,0,0
13491,-100,4,2,1,80,0,0
23091,-100,4,2,1,80,0,0
23434,-100,4,2,1,80,0,0
23777,-100,4,2,1,80,0,0
24120,-100,4,2,1,80,0,0
24634,-100,4,2,1,70,0,0
35605,-100,4,2,1,60,0,0
46577,-100,4,2,1,60,0,0
51891,-100,4,2,1,75,0,0
60120,-100,4,2,1,90,0,1
77948,-100,4,2,1,90,0,1
78291,-100,4,2,1,90,0,1
78634,-100,4,2,1,90,0,1
78977,-100,4,2,1,90,0,1
79320,-100,4,2,1,90,0,1
83434,-100,4,2,1,90,0,0
83777,-100,4,2,1,90,0,0
84120,-100,4,2,1,90,0,0
84462,-100,4,2,1,90,0,0
84977,-100,4,2,1,80,0,0
87462,-100,4,2,1,70,0,0
88234,-100,4,2,1,5,0,0

[Colours]
Combo1 : 128,162,215
Combo2 : 242,167,187
Combo3 : 255,128,192
Combo4 : 128,128,192

[HitObjects]
256,192,2177,12,0,4920,0:0:0:0:
358,244,5263,6,0,L|360:75,1,155,0|0,3:0|0:0,0:0:0:0:
280,74,5777,2,0,L|174:73,1,77.5,0|0,0:0|0:0,0:0:0:0:
280,74,6120,2,0,L|459:77,1,155,0|0,0:0|3:0,0:0:0:0:
178,154,6634,6,0,L|13:158,1,155,6|2,3:2|3:2,0:0:0:0:
284,155,7320,1,2,3:2:0:0:
21,191,7663,2,0,B|22:114|22:114|111:116,1,155,2|0,3:2|0:0,0:0:0:0:
357,116,8177,6,0,L|459:116,1,77.5,6|0,3:2|0:0,0:0:0:0:
474,118,8520,1,0,3:2:0:0:
434,116,8691,2,0,L|332:116,1,77.5,10|2,0:2|3:2,0:0:0:0:
279,117,9034,1,2,3:2:0:0:
124,117,9377,6,0,L|301:120,1,155,10|2,0:0|0:0,0:0:0:0:
356,118,9891,2,0,L|243:119,1,77.5,2|2,3:2|0:0,0:0:0:0:
278,118,10234,1,0,3:0:0:0:
448,120,10406,2,0,L|446:225,1,77.5,10|0,0:0|3:0,0:0:0:0:
277,239,10749,6,0,B|188:222|188:222|157:137,1,155,14|2,0:0|3:2,0:0:0:0:
243,141,11263,2,0,L|347:143,1,77.5,10|2,0:0|3:2,0:0:0:0:
243,141,11606,2,0,L|132:143,1,77.5,10|2,0:0|3:2,0:0:0:0:
486,133,12120,6,0,B|450:183|450:183|356:183,1,155,14|2,0:2|3:2,0:0:0:0:
271,184,12634,1,2,3:2:0:0:
357,183,12806,1,2,3:2:0:0:
175,117,12977,1,8,0:0:0:0:
130,108,13063,1,0,3:0:0:0:
104,79,13149,1,0,3:0:0:0:
130,108,13234,1,0,3:0:0:0:
175,117,13320,1,8,0:0:0:0:
430,55,13491,6,0,B|491:79|491:79|515:123|515:123|491:161|491:161|466:162,1,155,6|0,3:2|0:0,0:0:0:0:
308,171,14006,2,0,L|129:169,1,155,8|0,0:0|3:0,0:0:0:0:
75,166,14520,1,0,0:0:0:0:
36,165,14691,1,8,0:0:0:0:
75,166,14863,1,0,0:0:0:0:
257,103,15034,6,0,L|423:101,1,155,2|10,3:2|0:2,0:0:0:0:
229,177,15549,2,0,L|55:183,1,155,2|2,0:2|0:0,0:0:0:0:
152,180,16063,1,8,0:0:0:0:
334,163,16234,6,0,B|415:139|415:139|333:133,1,155,2|0,0:0|0:0,0:0:0:0:
268,124,16749,2,0,B|271:44|271:44|355:41,1,155,8|0,0:0|3:0,0:0:0:0:
268,46,17263,2,0,L|177:49,1,77.5,2|10,0:0|0:0,0:0:0:0:
375,92,17606,6,0,B|345:129|274:173|164:90|164:90,1,232.5,2|8,0:0|0:0,0:0:0:0:
163,89,18291,1,2,0:0:0:0:
351,168,18463,2,0,L|434:169,1,77.5,2|2,3:2|3:2,0:0:0:0:
428,168,18806,1,10,0:0:0:0:
173,59,18977,6,0,B|99:79|99:79|55:104|55:104|100:128|100:128,1,155,6|0,3:2|3:2,0:0:0:0:
267,170,19491,1,10,0:0:0:0:
344,169,19662,1,0,0:0:0:0:
421,168,19833,1,0,3:0:0:0:
344,168,20006,1,2,3:2:0:0:
267,170,20177,1,10,0:0:0:0:
448,56,20349,6,0,B|497:81|497:81|504:131|504:131|497:160|497:160|450:178,1,155,6|0,3:2|3:2,0:0:0:0:
296,171,20863,1,8,0:2:0:0:
218,170,21034,1,0,0:0:0:0:
141,169,21206,1,0,3:0:0:0:
219,171,21377,1,2,3:2:0:0:
141,169,21549,1,10,0:2:0:0:
324,192,21720,6,0,B|424:189|424:189|444:160|408:140,1,155,6|2,3:2|3:2,0:0:0:0:
333,129,22234,1,10,0:0:0:0:
149,89,22406,2,0,L|313:85,1,155,2|2,3:2|3:2,0:0:0:0:
381,79,22920,1,10,0:0:0:0:
126,49,23091,6,0,B|35:59|35:59|1:112,2,155,6|14|6,3:2|0:2|3:2,0:0:0:0:
452,60,24120,2,0,P|493:96|419:158,1,155,6|0,3:2|0:0,0:0:0:0:
187,58,24634,6,0,L|84:58,1,77.5,6|0,3:2|0:0,0:0:0:0:
90,57,24891,1,2,0:0:0:0:
109,58,24977,2,0,L|187:58,1,77.5,2|2,3:2|0:0,0:0:0:0:
265,57,25320,2,0,L|269:154,1,77.5,2|2,3:2|0:0,0:0:0:0:
190,146,25663,1,2,3:2:0:0:
268,134,25834,1,2,0:0:0:0:
451,175,26006,6,0,L|285:174,1,155,0|0,3:2|3:2,0:0:0:0:
218,173,26520,1,2,0:0:0:0:
141,163,26691,2,0,P|65:101|98:79,1,155,0|2,3:2|3:2,0:0:0:0:
395,93,27377,6,0,L|395:174,1,77.5,0|2,3:0|0:0,0:0:0:0:
317,199,27720,2,0,L|317:280,1,77.5,2|0,3:2|0:0,0:0:0:0:
395,279,28063,2,0,L|296:276,2,77.5,0|2|2,3:2|0:0|3:2,0:0:0:0:
473,193,28577,1,2,0:0:0:0:
290,177,28749,6,0,L|178:169,2,77.5,0|2|2,3:2|0:0|3:2,0:0:0:0:
461,191,29263,2,0,L|462:92,1,77.5,10|0,0:0|3:2,0:0:0:0:
292,72,29606,2,0,L|404:71,1,77.5,8|8,0:1|3:1,0:0:0:0:
83,71,30120,6,0,L|84:169,1,77.5,2|2,3:2|0:0,0:0:0:0:
181,163,30463,2,0,L|182:261,1,77.5,2|2,3:2|0:0,0:0:0:0:
83,150,30806,2,0,L|0:151,2,77.5,2|2|2,3:2|0:0|3:2,0:0:0:0:
265,143,31320,6,0,L|426:137,2,155,2|2|2,0:0|0:0|0:0,0:0:0:0:
92,143,32349,2,0,L|69:55,1,77.5,2|2,0:0|3:2,0:0:0:0:
152,57,32691,1,10,0:0:0:0:
339,51,32863,6,0,L|502:54,1,155,0|2,3:0|3:2,0:0:0:0:
418,138,33377,2,0,L|239:132,1,155,0|2,0:0|0:0,0:0:0:0:
341,134,33891,2,0,L|350:29,1,77.5,2|2,3:2|0:0,0:0:0:0:
176,48,34234,6,0,B|98:67|98:67|61:102|61:102|72:144,1,155,4|8,3:2|0:0,0:0:0:0:
236,144,34749,2,0,L|345:143,1,77.5,2|0,3:2|0:0,0:0:0:0:
141,233,35091,2,0,L|33:233,1,77.5,8|8,0:1|0:1,0:0:0:0:
468,192,35606,6,0,B|512:156|464:132|464:132|366:129,1,155,6|0,3:2|3:0,0:0:0:0:
311,121,36120,1,2,0:0:0:0:
231,105,36291,2,0,L|232:19,1,77.5,2|2,3:2|0:0,0:0:0:0:
310,24,36634,2,0,L|413:28,1,77.5,10|2,0:0|0:0,0:0:0:0:
201,84,36977,6,0,B|124:104|124:104|223:113,1,155,2|0,3:2|3:2,0:0:0:0:
278,121,37491,1,2,0:0:0:0:
358,137,37663,2,0,L|463:142,1,77.5,2|2,3:2|0:0,0:0:0:0:
357,217,38006,2,0,L|254:213,1,77.5,10|2,0:0|0:2,0:0:0:0:
92,84,38349,6,0,B|15:104|15:104|114:113,1,155,2|0,3:2|3:2,0:0:0:0:
169,121,38863,1,2,0:0:0:0:
246,119,39034,2,0,L|160:121,1,77.5,2|2,3:2|0:0,0:0:0:0:
92,123,39377,2,0,L|12:120,1,77.5,10|0,0:0|0:0,0:0:0:0:
216,79,39720,6,0,L|50:72,3,155,2|2|2|2,3:2|3:2|3:2|3:2,0:0:0:0:
388,158,41091,6,0,B|465:138|465:138|366:129,1,155,6|0,3:2|3:2,0:0:0:0:
311,121,41606,1,2,0:0:0:0:
231,105,41777,2,0,L|232:19,1,77.5,2|2,3:2|0:0,0:0:0:0:
310,24,42120,2,0,L|413:28,1,77.5,10|2,0:0|0:2,0:0:0:0:
201,84,42463,6,0,B|124:104|124:104|223:113,1,155,2|0,3:2|3:2,0:0:0:0:
278,121,42977,1,2,0:0:0:0:
358,137,43149,2,0,L|272:136,1,77.5,2|2,3:2|0:0,0:0:0:0:
203,136,43491,2,0,L|100:132,1,77.5,10|2,0:0|0:0,0:0:0:0:
313,79,43834,6,0,B|397:97|397:97|291:108,1,155,2|0,3:2|3:2,0:0:0:0:
250,114,44349,1,2,0:0:0:0:
166,118,44520,2,0,L|218:189,1,77.5,2|0,3:2|0:0,0:0:0:0:
302,188,44863,2,0,L|379:188,1,77.5,10|0,0:0|0:0,0:0:0:0:
124,95,45206,6,0,L|42:94,1,77.5,6|0,3:2|0:0,0:0:0:0:
22,57,45549,1,2,3:2:0:0:
104,46,45720,1,8,0:3:0:0:
22,57,45891,2,0,B|14:134|14:134|23:212,1,155,2|0,3:2|0:0,0:0:0:0:
104,46,46406,1,8,0:3:0:0:
359,36,46577,6,8,P|445:91|353:154,1,232.5,6|0,3:2|0:0,0:0:0:0:
294,159,47263,1,0,0:0:0:0:
217,157,47434,2,0,L|207:0,1,155,0|0,0:0|0:0,0:0:0:0:
395,8,47949,6,0,B|470:43|470:43|491:80|491:80|459:114|458:115|151:122,1,465,2|0,0:0|0:0,0:0:0:0:
160,121,49149,1,0,0:0:0:0:
339,148,49320,6,0,L|442:149,2,77.5,2|0|0,0:0|0:0|0:0,0:0:0:0:
262,144,49834,1,0,0:0:0:0:
341,149,50006,2,0,L|349:45,1,77.5,0|0,0:0|0:0,0:0:0:0:
193,36,50520,1,0,0:0:0:0:
377,34,50691,6,0,B|389:80|389:80|365:56|365:56|316:45|200:47,1,232.5,2|0,0:0|0:0,0:0:0:0:
135,48,51377,2,0,L|232:46,1,77.5,0|0,0:0|0:0,0:0:0:0:
135,48,51720,1,0,0:0:0:0:
389,40,51891,6,0,B|471:63|471:63|489:109|479:114|370:118,1,232.5,6|10,3:2|0:0,0:0:0:0:
291,121,52577,2,0,L|281:208,1,77.5,2|0,0:0|3:0,0:0:0:0:
364,221,52920,2,0,L|448:223,1,77.5,2|8,3:2|0:0,0:0:0:0:
251,165,53263,6,0,L|86:150,1,155,2|0,3:2|3:2,0:0:0:0:
173,65,53777,2,0,L|281:69,1,77.5,10|2,0:0|0:2,0:0:0:0:
329,71,54120,1,2,3:2:0:0:
149,135,54291,2,0,L|50:124,1,77.5,2|10,3:2|0:0,0:0:0:0:
329,104,54634,6,0,P|373:142|298:173,1,155,6|0,3:2|3:2,0:0:0:0:
131,175,55149,2,0,L|130:265,1,77.5,8|0,0:0|3:2,0:0:0:0:
208,258,55491,2,0,L|297:259,1,77.5,8|0,0:0|3:2,0:0:0:0:
363,260,55834,2,0,L|364:170,1,77.5,8|0,0:0|3:2,0:0:0:0:
176,102,56177,6,0,L|87:102,1,77.5,8|0,0:0|3:2,0:0:0:0:
176,102,56520,2,0,L|286:100,1,77.5,8|2,0:0|3:2,0:0:0:0:
77,43,56863,2,0,L|-3:42,2,77.5,10|0|10,0:0|3:2|0:0,0:0:0:0:
324,46,57377,6,0,L|140:41,1,155,6|0,3:2|3:2,0:0:0:0:
356,120,57891,2,0,L|443:123,1,77.5,8|0,0:0|3:2,0:0:0:0:
354,202,58234,2,0,L|264:200,2,77.5,8|8|8,0:3|3:2|3:2,0:0:0:0:
96,183,58749,5,0,3:2:0:0:
96,183,59263,2,0,B|175:181|175:181|96:183,1,155,0|0,0:0|0:0,0:0:0:0:
96,183,59777,1,0,0:0:0:0:
505,99,60120,6,0,L|319:100,1,155,6|2,3:2|0:0,0:0:0:0:
428,173,60634,2,0,L|427:255,1,77.5,8|0,0:0|0:0,0:0:0:0:
251,164,60977,2,0,L|146:165,1,77.5,2|0,3:2|0:0,0:0:0:0:
349,72,61320,2,0,L|446:75,1,77.5,10|0,0:0|0:0,0:0:0:0:
170,37,61663,6,0,P|120:103|182:135,1,155,2|10,3:2|0:0,0:0:0:0:
350,141,62177,2,0,L|346:235,1,77.5,2|0,0:0|3:2,0:0:0:0:
264,221,62520,1,2,0:0:0:0:
350,139,62691,1,8,0:0:0:0:
163,65,62863,6,0,P|108:123|167:154,1,155,2|2,0:0|0:0,0:0:0:0:
225,160,63377,1,10,0:0:0:0:
41,157,63549,2,0,L|43:259,1,77.5,2|0,0:0|3:2,0:0:0:0:
120,58,63891,2,0,L|25:59,1,77.5,2|8,0:0|0:0,0:0:0:0:
229,152,64234,6,0,P|283:126|223:89,1,155,2|2,0:0|0:0,0:0:0:0:
40,88,64749,2,0,L|141:83,1,77.5,8|2,0:0|0:0,0:0:0:0:
196,76,65091,2,0,L|198:156,1,77.5,2|10,3:2|0:0,0:0:0:0:
12,168,65434,2,0,L|14:248,1,77.5,2|10,3:2|0:0,0:0:0:0:
260,152,65777,6,0,P|342:148|408:104,1,155,6|10,3:2|0:0,0:0:0:0:
213,152,66291,2,0,P|159:118|237:91,1,155,2|2,0:0|0:0,0:0:0:0:
289,71,66806,1,10,0:2:0:0:
472,69,66977,6,0,L|284:65,1,155,2|2,0:0|0:0,0:0:0:0:
395,66,67491,2,0,L|389:153,1,77.5,10|0,0:0|0:0,0:0:0:0:
203,156,67834,2,0,L|37:154,1,155,2|10,3:2|0:0,0:0:0:0:
236,145,68349,6,0,L|410:148,1,155,6|2,3:2|3:2,0:0:0:0:
134,55,68863,2,0,B|37:57,1,77.5,10|2,0:0|3:2,0:0:0:0:
243,118,69206,2,0,L|347:114,1,77.5,10|10,0:0|0:0,0:0:0:0:
240,71,69549,2,0,L|149:77,1,77.5,2|10,3:2|0:0,0:0:0:0:
340,70,69891,6,0,L|337:159,1,77.5,2|10,3:2|0:2,0:0:0:0:
159,166,70234,2,0,L|59:165,1,77.5,10|0,0:2|3:2,0:0:0:0:
268,164,70577,1,10,0:0:0:0:
316,159,70663,1,8,0:0:0:0:
339,134,70749,1,10,0:0:0:0:
316,159,70834,1,8,0:0:0:0:
268,164,70920,1,8,0:0:0:0:
12,99,71091,6,0,L|198:100,1,155,6|2,3:2|0:0,0:0:0:0:
89,173,71606,2,0,L|90:255,1,77.5,8|2,0:0|0:0,0:0:0:0:
269,163,71949,2,0,L|374:164,1,77.5,2|0,3:2|0:0,0:0:0:0:
168,72,72291,2,0,L|71:75,1,77.5,10|2,0:0|0:0,0:0:0:0:
347,37,72634,6,0,L|442:39,2,77.5,2|2|10,3:2|0:0|0:0,0:0:0:0:
167,141,73149,2,0,L|171:235,1,77.5,2|0,0:0|3:2,0:0:0:0:
253,221,73491,1,2,0:0:0:0:
166,142,73663,2,0,L|160:37,1,77.5,8|0,0:0|0:0,0:0:0:0:
350,44,74006,6,0,L|462:50,1,77.5,2|2,3:2|0:0,0:0:0:0:
350,44,74349,1,10,0:0:0:0:
162,40,74520,2,0,B|144:72|144:72|134:72|128:80|128:80|128:72|140:72|132:84|132:84|140:96|140:95|128:88|128:88|136:96|144:96|144:96|168:128,1,155,2|2,0:0|3:2,0:0:0:0:
248,140,75034,1,8,0:0:0:0:
484,168,75206,6,0,P|483:136|378:86,1,155,6|2,3:2|3:2,0:0:0:0:
300,92,75720,2,0,L|301:173,1,77.5,8|0,0:0|3:2,0:0:0:0:
223,188,76063,2,0,L|224:290,1,77.5,10|2,0:0|3:2,0:0:0:0:
302,94,76406,1,8,0:0:0:0:
48,111,76577,6,0,B|27:62|27:62|44:45|151:40,1,155,6|2,3:2|3:2,0:0:0:0:
312,37,77091,2,0,L|307:126,1,77.5,10|2,0:0|0:0,0:0:0:0:
228,160,77434,2,0,L|129:155,2,77.5,2|0|10,3:2|3:2|0:0,0:0:0:0:
487,73,77949,5,2,3:2:0:0:
317,60,78291,1,2,3:2:0:0:
396,67,78463,1,0,0:0:0:0:
210,159,78634,1,2,3:2:0:0:
55,143,78977,1,2,3:2:0:0:
134,150,79149,1,0,0:0:0:0:
368,160,79320,6,0,P|289:160|228:108,1,155,6|0,3:2|3:2,0:0:0:0:
314,86,79834,2,0,B|411:88,1,77.5,8|0,0:0|0:0,0:0:0:0:
304,160,80177,2,0,L|304:62,1,77.5,2|2,3:2|3:2,0:0:0:0:
391,87,80520,1,10,0:0:0:0:
144,60,80691,6,0,P|120:108|206:146,1,155,6|0,3:2|3:2,0:0:0:0:
373,166,81206,2,0,L|292:165,1,77.5,8|0,0:0|3:2,0:0:0:0:
119,166,81549,1,10,0:0:0:0:
48,136,81720,1,2,3:2:0:0:
119,166,81891,1,8,0:0:0:0:
376,71,82063,6,0,B|461:76|461:76|378:68,1,155,6|10,3:2|0:0,0:0:0:0:
212,60,82577,2,0,L|211:149,1,77.5,10|10,0:0|0:0,0:0:0:0:
388,181,82920,2,0,L|307:181,2,77.5,10|10|10,0:0|0:0|0:0,0:0:0:0:
152,124,83434,5,6,3:2:0:0:
304,96,83777,1,6,3:2:0:0:
152,124,84120,1,6,3:2:0:0:
316,97,84463,2,0,P|373:140|312:166,1,155,6|0,3:2|0:0,0:0:0:0:
66,241,84977,6,0,B|30:209|30:209|43:187|140:182,1,155,6|0,3:2|3:2,0:0:0:0:
209,180,85491,2,0,L|111:180,1,77.5,2|2,0:2|3:2,0:0:0:0:
54,177,85834,1,2,0:2:0:0:
364,109,86177,6,0,B|376:76|376:76|248:75,1,155,2|2,0:0|0:0,0:0:0:0:
104,76,86691,1,10,0:2:0:0:
20,76,86863,1,2,3:2:0:0:
452,80,87463,5,14,3:2:0:0:
256,192,87720,12,0,88234,0:0:0:0:
