osu file format v14

[General]
AudioFilename: audio.mp3
AudioLeadIn: 0
PreviewTime: 60033
Countdown: 0
SampleSet: Soft
StackLeniency: 0.7
Mode: 2
LetterboxInBreaks: 0
WidescreenStoryboard: 1

[Editor]
DistanceSpacing: 1
BeatDivisor: 4
GridSize: 4
TimelineZoom: 2

[Metadata]
Title:Honey Jet Coaster (TV Size)
TitleUnicode:ハニージェットコースター (TV Size)
Artist:nasuo*
ArtistUnicode:なすお☆
Creator:bigh
Version:Overdose
Source:可愛いだけじゃない式守さん
Tags:kawaii dake ja nai shikimori-san shikimori's miss shikimoris is not just a cutie cute japanese pop j-pop jpop anime op opening theme みっちょん micchon janai mnyui bighzonda
BeatmapID:3606156
BeatmapSetID:1761877

[Difficulty]
HPDrainRate:6
CircleSize:4.2
OverallDifficulty:9.2
ApproachRate:9.2
SliderMultiplier:1.85
SliderTickRate:2

[Events]
//Background and Video events
Video,1195,"Shikimori-Op1-1.mp4"
0,0,"stolefromgorm.jpg",0,0
//Break Periods
//Storyboard Layer 0 (Background)
//Storyboard Layer 1 (Fail)
//Storyboard Layer 2 (Pass)
//Storyboard Layer 3 (Foreground)
//Storyboard Layer 4 (Overlay)
//Storyboard Sound Samples

[TimingPoints]
-51,342.857142857143,4,2,1,10,1,0
5262,-100,4,2,1,60,0,0
6634,-80,4,2,1,80,0,0
6977,-80,4,2,1,60,0,0
7320,-80,4,2,1,60,0,0
7662,-80,4,2,1,60,0,0
8177,-100,4,2,1,70,0,0
13491,-66.6666666666667,4,2,1,80,0,0
14006,-100,4,2,1,80,0,0
23091,-80,4,2,1,80,0,0
23434,-80,4,2,1,80,0,0
23777,-80,4,2,1,80,0,0
24120,-80,4,2,1,80,0,0
24634,-100,4,2,1,70,0,0
35605,-100,4,2,1,60,0,0
46577,-100,4,2,1,60,0,0
51891,-66.6666666666667,4,2,1,75,0,0
52406,-100,4,2,1,75,0,0
60120,-66.6666666666667,4,2,1,90,0,1
60634,-100,4,2,1,90,0,1
71091,-66.6666666666667,4,2,1,90,0,1
71606,-100,4,2,1,90,0,1
77948,-80,4,2,1,90,0,1
78291,-80,4,2,1,90,0,1
78634,-80,4,2,1,90,0,1
78977,-80,4,2,1,90,0,1
79320,-100,4,2,1,90,0,1
83434,-66.6666666666667,4,2,1,90,0,0
83777,-66.6666666666667,4,2,1,90,0,0
84120,-66.6666666666667,4,2,1,90,0,0
84462,-66.6666666666667,4,2,1,90,0,0
84977,-100,4,2,1,80,0,0
87462,-100,4,2,1,70,0,0
88234,-100,4,2,1,5,0,0

[Colours]
Combo1 : 128,162,215
Combo2 : 242,167,187
Combo3 : 255,128,192
Combo4 : 128,128,192

[HitObjects]
256,192,2177,12,0,5091,0:0:0:0:
272,232,5263,6,0,P|210:201|276:149,1,185,0|0,3:0|0:0,0:0:0:0:
368,160,5777,2,0,L|376:43,1,92.5,0|0,0:0|0:0,0:0:0:0:
282,54,6120,1,0,0:0:0:0:
373,53,6291,1,0,0:0:0:0:
467,51,6463,1,0,3:0:0:0:
121,67,6634,6,0,P|62:109|137:148,1,173.4375,6|0,3:2|0:0,0:0:0:0:
321,102,6977,2,0,L|137:105,1,173.4375,2|0,3:2|0:0,0:0:0:0:
345,70,7320,2,0,P|404:112|329:151,1,173.4375,2|0,3:2|0:0,0:0:0:0:
147,104,7663,2,0,B|329:108|329:108|367:65|367:65|328:27,1,289.0625,2|0,3:2|0:0,0:0:0:0:
145,41,8177,6,0,L|49:41,1,92.5,6|0,3:2|0:0,0:0:0:0:
52,41,8434,1,0,0:0:0:0:
101,41,8520,1,0,3:2:0:0:
273,45,8691,2,0,L|345:45,1,46.25,10|0,0:2|0:0,0:0:0:0:
273,117,8863,2,0,L|165:117,2,92.5,2|2|0,3:2|3:2|3:0,0:0:0:0:
16,151,9377,6,0,L|13:48,1,92.5,10|0,0:0|3:0,0:0:0:0:
189,57,9720,1,2,0:0:0:0:
247,56,9806,1,0,0:0:0:0:
144,56,9891,2,0,L|34:62,2,92.5,2|2|0,3:2|0:0|3:0,0:0:0:0:
396,136,10406,2,0,P|423:108|360:58,1,138.75,10|0,0:0|0:0,0:0:0:0:
177,103,10749,6,0,L|373:103,1,185,14|2,0:0|3:2,0:0:0:0:
190,224,11263,2,0,L|149:182,2,46.25,10|0|2,0:0|0:0|3:2,0:0:0:0:
240,228,11520,1,0,3:2:0:0:
424,224,11606,1,10,0:0:0:0:
144,224,11777,2,0,P|95:187|150:166,1,138.75,2|0,3:2|0:0,0:0:0:0:
336,128,12120,6,0,L|120:124,1,185,14|2,0:2|3:2,0:0:0:0:
324,60,12634,1,2,3:2:0:0:
152,48,12806,1,2,3:2:0:0:
424,100,12977,1,8,0:0:0:0:
484,100,13063,1,0,3:0:0:0:
292,168,13149,1,0,3:0:0:0:
232,168,13234,1,0,3:0:0:0:
436,216,13320,1,8,0:0:0:0:
496,216,13406,1,0,3:0:0:0:
252,76,13491,6,0,P|137:182|257:212,1,346.875013232232,6|0,3:2|0:0,0:0:0:0:
436,144,14006,2,0,B|508:144|508:144|436:144,1,138.75,8|0,0:0|0:0,0:0:0:0:
252,148,14349,2,0,L|248:248,1,92.5,0|0,3:0|0:0,0:0:0:0:
420,248,14691,2,0,L|316:252,1,92.5,8|0,0:0|0:0,0:0:0:0:
88,260,15034,6,0,P|24:224|115:189,1,185,2|10,3:2|0:2,0:0:0:0:
260,160,15549,2,0,L|380:160,2,92.5,2|0|2,0:2|3:0|0:0,0:0:0:0:
88,152,16063,1,8,0:0:0:0:
344,68,16234,6,0,P|416:96|332:152,1,185,2|0,0:0|0:0,0:0:0:0:
196,184,16749,2,0,L|176:288,1,92.5,8|0,0:0|0:0,0:0:0:0:
268,280,17091,1,0,3:0:0:0:
104,260,17263,1,2,0:0:0:0:
268,212,17434,1,10,0:0:0:0:
24,176,17606,6,0,P|43:119|188:76,1,185,2|0,0:0|0:0,0:0:0:0:
312,92,18120,1,8,0:0:0:0:
172,136,18291,1,2,0:0:0:0:
312,92,18463,2,0,L|388:92,1,46.25,2|0,3:2|0:0,0:0:0:0:
312,92,18634,2,0,L|256:92,1,46.25,2|0,3:2|0:0,0:0:0:0:
180,96,18806,1,10,0:0:0:0:
444,180,18977,6,0,L|232:172,1,185,6|0,3:2|3:2,0:0:0:0:
436,36,19491,2,0,L|432:140,1,92.5,8|0,0:0|0:0,0:0:0:0:
368,128,19749,1,8,0:0:0:0:
304,128,19834,1,0,3:0:0:0:
144,128,20006,1,2,3:2:0:0:
304,128,20177,1,10,0:0:0:0:
52,124,20349,6,0,L|264:132,1,185,6|0,3:2|3:2,0:0:0:0:
68,264,20863,2,0,L|72:160,1,92.5,8|0,0:2|0:0,0:0:0:0:
136,172,21120,1,8,0:2:0:0:
200,172,21206,1,0,3:2:0:0:
364,172,21377,1,2,3:2:0:0:
200,172,21549,1,10,0:2:0:0:
452,176,21720,6,0,P|468:148|393:101,1,138.75,6|0,3:2|0:0,0:0:0:0:
223,106,22063,1,2,3:2:0:0:
372,88,22234,1,10,0:0:0:0:
114,176,22406,2,0,P|51:149|106:111,1,138.75,2|0,3:2|0:0,0:0:0:0:
259,106,22749,1,2,3:2:0:0:
108,88,22920,1,10,0:0:0:0:
456,50,23091,6,0,P|496:80|422:132,1,173.4375,6|0,3:2|0:0,0:0:0:0:
200,80,23434,2,0,L|408:80,1,173.4375,14|0,0:2|0:0,0:0:0:0:
152,104,23777,2,0,P|112:134|186:186,1,173.4375,6|0,3:2|0:0,0:0:0:0:
408,134,24120,2,0,B|230:134|230:134|199:80|199:80|233:39,1,289.0625,6|0,3:2|0:0,0:0:0:0:
436,40,24634,6,0,B|488:56|488:56|432:60,1,92.5,6|0,3:2|0:0,0:0:0:0:
396,68,24891,1,2,0:0:0:0:
340,76,24977,2,0,L|340:176,1,92.5,2|2,3:2|0:0,0:0:0:0:
436,208,25320,1,2,3:2:0:0:
340,220,25491,1,2,0:0:0:0:
244,232,25663,1,2,3:2:0:0:
420,152,25834,6,0,L|420:52,1,92.5,2|0,0:0|3:2,0:0:0:0:
248,156,26177,2,0,L|240:56,1,92.5,2|0,0:0|3:2,0:0:0:0:
72,147,26520,2,0,L|72:51,1,92.5,2|0,0:0|3:2,0:0:0:0:
168,40,26863,1,2,0:0:0:0:
72,55,27034,1,2,3:2:0:0:
168,40,27206,1,2,0:0:0:0:
340,44,27377,6,0,L|448:48,1,92.5,0|2,3:0|0:0,0:0:0:0:
336,132,27720,2,0,L|228:124,1,92.5,2|0,3:2|0:0,0:0:0:0:
336,132,28063,1,0,3:2:0:0:
430,75,28234,2,0,L|326:67,1,92.5,2|2,0:0|3:2,0:0:0:0:
168,64,28577,6,0,P|123:113|220:164,1,185,2|2,0:0|0:0,0:0:0:0:
288,144,29091,1,2,3:2:0:0:
32,108,29263,2,0,L|128:108,1,92.5,10|0,0:0|3:2,0:0:0:0:
376,100,29606,1,8,0:1:0:0:
124,181,29777,2,0,B|55:181|55:181|124:182,1,138.75,8|0,3:1|0:0,0:0:0:0:
312,176,30120,6,0,L|444:176,1,92.5,2|2,3:2|0:0,0:0:0:0:
336,176,30377,1,2,0:0:0:0:
268,176,30463,2,0,L|136:176,1,92.5,2|2,3:2|0:0,0:0:0:0:
244,176,30720,1,2,0:0:0:0:
312,176,30806,1,2,3:2:0:0:
152,140,30977,1,2,0:0:0:0:
312,176,31149,1,2,3:2:0:0:
136,56,31320,6,0,L|126:161,1,92.5,2|0,0:0|3:2,0:0:0:0:
304,116,31663,2,0,L|300:220,1,92.5,2|0,0:0|3:2,0:0:0:0:
480,188,32006,1,2,0:0:0:0:
478,234,32091,1,0,0:0:0:0:
476,280,32177,1,0,3:2:0:0:
392,300,32349,1,2,0:0:0:0:
488,280,32520,1,2,3:2:0:0:
316,244,32691,1,10,0:0:0:0:
492,200,32863,6,0,L|480:100,1,92.5,0|2,3:0|0:0,0:0:0:0:
388,112,33206,1,2,3:2:0:0:
216,120,33377,2,0,L|96:120,1,92.5,0|0,0:0|3:2,0:0:0:0:
216,120,33720,1,2,0:0:0:0:
392,64,33891,2,0,P|440:96|380:132,1,138.75,2|0,3:2|0:0,0:0:0:0:
208,156,34234,6,0,B|164:192|164:192|172:228|172:228|212:252,1,138.75,4|0,3:2|0:0,0:0:0:0:
392,264,34577,1,8,0:0:0:0:
120,248,34749,2,0,L|121:132,1,92.5,2|0,3:2|0:0,0:0:0:0:
296,140,35091,1,8,0:1:0:0:
120,155,35263,2,0,P|89:128|149:68,1,138.75,8|0,0:1|0:0,0:0:0:0:
332,72,35606,5,6,3:2:0:0:
236,64,35777,1,0,0:0:0:0:
140,56,35949,1,0,3:0:0:0:
304,140,36120,1,2,0:0:0:0:
372,152,36206,1,0,0:0:0:0:
304,140,36291,2,0,L|180:140,1,92.5,2|2,3:2|0:0,0:0:0:0:
380,56,36634,2,0,L|456:128,1,92.5,10|2,0:0|0:0,0:0:0:0:
400,144,36891,1,2,0:0:0:0:
205,69,36977,5,2,3:2:0:0:
301,61,37149,1,0,0:0:0:0:
397,53,37320,1,0,3:2:0:0:
232,136,37491,1,2,0:0:0:0:
164,148,37577,1,0,0:0:0:0:
232,136,37663,2,0,L|356:136,1,92.5,2|2,3:2|0:0,0:0:0:0:
148,80,38006,2,0,L|36:80,1,92.5,10|2,0:0|0:2,0:0:0:0:
100,144,38263,1,0,0:0:0:0:
296,72,38349,5,2,3:2:0:0:
200,64,38520,1,0,0:0:0:0:
104,56,38691,1,0,3:2:0:0:
276,140,38863,1,2,0:0:0:0:
208,128,38949,1,2,0:0:0:0:
140,116,39034,2,0,L|124:212,1,92.5,2|2,3:2|0:0,0:0:0:0:
292,28,39377,2,0,L|396:28,1,92.5,10|0,0:0|0:0,0:0:0:0:
420,28,39634,1,0,0:0:0:0:
236,24,39720,6,0,B|145:47|145:47|137:111,1,138.75,2|0,3:2|0:0,0:0:0:0:
208,100,40063,2,0,L|56:96,1,138.75,2|0,3:2|0:0,0:0:0:0:
255,88,40406,2,0,B|346:111|346:111|354:175,1,138.75,2|0,3:2|0:0,0:0:0:0:
280,160,40749,2,0,L|432:156,1,138.75,2|0,3:2|0:0,0:0:0:0:
219,208,41091,5,6,3:2:0:0:
315,216,41263,1,0,0:0:0:0:
411,224,41434,1,0,3:2:0:0:
232,140,41606,1,2,0:0:0:0:
164,128,41691,1,2,0:0:0:0:
232,140,41777,2,0,L|356:140,1,92.5,2|2,3:2|0:0,0:0:0:0:
160,212,42120,2,0,L|64:176,1,92.5,10|2,0:0|0:2,0:0:0:0:
120,141,42377,1,0,0:0:0:0:
315,216,42463,5,2,3:2:0:0:
219,224,42634,1,0,0:0:0:0:
123,232,42806,1,0,3:2:0:0:
296,140,42977,1,2,0:0:0:0:
364,128,43063,1,0,0:0:0:0:
296,140,43149,2,0,L|172:140,1,92.5,2|2,3:2|0:0,0:0:0:0:
368,184,43491,2,0,L|492:184,1,92.5,10|2,0:0|0:0,0:0:0:0:
415,136,43749,1,0,0:0:0:0:
219,208,43834,5,2,3:2:0:0:
315,216,44006,1,0,0:0:0:0:
411,224,44177,1,0,3:2:0:0:
240,140,44349,1,2,0:0:0:0:
309,153,44434,1,0,0:0:0:0:
376,164,44520,2,0,L|362:65,1,92.5,2|0,3:2|0:0,0:0:0:0:
200,252,44863,2,0,L|96:252,1,92.5,10|0,0:0|0:0,0:0:0:0:
67,252,45120,1,0,0:0:0:0:
276,24,45206,6,0,B|395:33,2,92.5,6|0|2,3:2|0:0|3:2,0:0:0:0:
116,96,45720,1,8,0:3:0:0:
276,140,45891,2,0,L|376:136,1,92.5,2|4,3:2|0:3,0:0:0:0:
211,184,46234,2,0,L|103:188,1,92.5,0|8,0:0|0:3,0:0:0:0:
168,184,46491,1,8,0:3:0:0:
348,168,46577,6,8,P|442:155|336:64,1,277.5,6|0,3:2|0:0,0:0:0:0:
280,44,47263,1,0,0:0:0:0:
124,144,47434,2,0,B|321:146,1,185
40,132,47949,6,0,B|28:176|28:176|28:224|28:224,1,92.5,2|0,0:0|0:0,0:0:0:0:
120,224,48291,1,0,0:0:0:0:
276,232,48463,2,0,B|100:120,1,185
212,144,48977,2,0,L|324:140,1,92.5,0|0,0:0|0:0,0:0:0:0:
24,48,49320,6,0,L|24:144,1,92.5,2|0,0:0|0:0,0:0:0:0:
184,144,49663,2,0,L|292:152,2,92.5
304,56,50177,2,0,L|431:193,1,185,0|0,0:0|0:0,0:0:0:0:
148,252,50691,6,0,B|72:200|72:200|148:132|148:132,1,185,2|0,0:0|0:0,0:0:0:0:
237,53,51206,1,0,0:0:0:0:
271,137,51377,1,0,0:0:0:0:
255,228,51548,1,0,0:0:0:0:
156,232,51720,1,0,0:0:0:0:
457,115,51891,6,0,L|163:111,1,277.500010585785,6|0,3:2|3:2,0:0:0:0:
348,44,52406,2,0,L|460:48,1,92.5,10|2,0:0|0:0,0:0:0:0:
372,104,52663,1,8,0:0:0:0:
304,112,52749,1,0,3:0:0:0:
212,124,52920,1,2,3:2:0:0:
380,96,53091,1,8,0:0:0:0:
128,56,53263,6,0,L|336:56,1,185,2|0,3:2|3:2,0:0:0:0:
148,128,53777,2,0,L|36:132,1,92.5,10|2,0:0|0:2,0:0:0:0:
124,188,54034,1,8,0:0:0:0:
192,196,54120,1,2,3:2:0:0:
284,208,54291,1,2,3:2:0:0:
124,188,54463,1,10,0:0:0:0:
376,128,54634,6,0,P|408:84|324:16,1,185,6|0,3:2|3:2,0:0:0:0:
48,80,55149,1,8,0:0:0:0:
324,64,55320,1,0,3:2:0:0:
48,80,55491,2,0,L|48:188,1,92.5,8|0,0:0|3:2,0:0:0:0:
324,168,55834,2,0,L|432:168,1,92.5,8|0,0:0|3:2,0:0:0:0:
144,112,56177,5,8,0:0:0:0:
416,96,56349,1,0,3:2:0:0:
140,192,56520,2,0,L|40:192,1,92.5,8|2,0:0|3:2,0:0:0:0:
96,192,56777,1,0,3:2:0:0:
284,100,56863,2,0,L|400:100,1,92.5,10|0,0:0|3:2,0:0:0:0:
100,52,57206,1,10,0:0:0:0:
400,44,57377,6,0,L|184:40,1,185,6|0,3:2|3:2,0:0:0:0:
472,120,57891,2,0,L|472:220,1,92.5,8|0,0:0|3:2,0:0:0:0:
424,224,58149,1,0,3:2:0:0:
236,224,58234,2,0,L|164:224,1,46.25,8|8,0:3|0:3,0:0:0:0:
160,176,58406,1,8,3:2:0:0:
189,224,58491,1,8,3:2:0:0:
388,124,58577,2,0,L|456:124,1,46.25,8|8,3:2|3:2,0:0:0:0:
196,88,58749,6,0,P|136:128|204:192,1,185,0|0,3:2|0:0,0:0:0:0:
288,192,59263,2,0,B|380:192,2,92.5
196,193,59777,2,0,P|141:143|173:92,1,138.75
408,80,60120,6,0,L|120:76,1,277.500010585785,6|2,3:2|0:0,0:0:0:0:
296,144,60634,2,0,L|408:144,1,92.5,8|0,0:0|0:0,0:0:0:0:
108,200,60977,2,0,L|0:200,1,92.5,2|0,3:2|0:0,0:0:0:0:
300,56,61320,2,0,L|404:60,1,92.5,10|0,0:0|0:0,0:0:0:0:
112,108,61663,6,0,P|48:152|120:200,1,185,2|10,3:2|0:0,0:0:0:0:
280,188,62177,2,0,L|284:84,1,92.5,2|0,0:0|3:2,0:0:0:0:
124,80,62520,1,2,0:0:0:0:
283,95,62691,1,8,0:0:0:0:
27,63,62863,6,0,L|243:59,1,185,2|2,0:0|0:0,0:0:0:0:
46,139,63377,1,10,0:0:0:0:
204,132,63549,2,0,B|358:129|358:129|288:131,1,185,2|2,0:0|0:0,0:0:0:0:
164,120,64063,1,8,0:0:0:0:
416,56,64234,6,0,P|460:96|376:168,1,185,2|2,0:0|0:0,0:0:0:0:
320,168,64663,1,0,0:2:0:0:
248,160,64749,2,0,L|220:56,1,92.5,8|2,0:0|0:0,0:0:0:0:
384,48,65091,1,2,3:2:0:0:
140,124,65263,1,10,0:0:0:0:
300,68,65434,1,2,3:2:0:0:
56,144,65606,1,10,0:0:0:0:
346,143,65777,6,0,L|226:143,1,92.5,6|0,3:2|0:0,0:0:0:0:
90,143,66120,1,10,0:0:0:0:
253,143,66291,2,0,P|326:114|259:61,1,185,2|2,0:0|0:0,0:0:0:0:
100,76,66806,1,10,0:2:0:0:
360,48,66977,6,0,L|164:48,1,185,2|2,0:0|0:0,0:0:0:0:
340,116,67491,2,0,P|388:156|320:180,1,138.75,10|0,0:0|0:0,0:0:0:0:
172,232,67834,2,0,P|124:192|192:168,1,138.75,2|0,3:2|0:0,0:0:0:0:
364,116,68177,1,10,0:0:0:0:
96,72,68349,6,0,L|312:72,1,185,6|2,3:2|3:2,0:0:0:0:
28,144,68863,2,0,L|48:252,1,92.5,10|2,0:0|3:2,0:0:0:0:
304,128,69206,1,10,0:0:0:0:
144,140,69377,1,10,0:0:0:0:
380,172,69549,1,2,3:2:0:0:
220,184,69720,1,10,0:0:0:0:
464,116,69891,5,2,3:2:0:0:
188,188,70063,1,10,0:2:0:0:
464,116,70234,2,0,L|352:116,1,92.5,10|0,0:2|3:2,0:0:0:0:
92,116,70577,1,10,0:0:0:0:
154,115,70663,1,8,0:0:0:0:
341,111,70749,1,10,0:0:0:0:
403,110,70834,1,8,0:0:0:0:
204,56,70920,1,8,0:0:0:0:
142,55,71006,1,8,0:0:0:0:
408,80,71091,6,0,L|120:76,1,277.500010585785,6|2,3:2|0:0,0:0:0:0:
296,144,71606,2,0,L|408:144,1,92.5,8|2,0:0|0:0,0:0:0:0:
108,200,71949,2,0,L|0:200,1,92.5,2|0,3:2|0:0,0:0:0:0:
300,56,72291,2,0,L|404:60,1,92.5,10|2,0:0|0:0,0:0:0:0:
112,108,72634,5,2,3:2:0:0:
276,124,72806,1,2,0:0:0:0:
112,108,72977,1,10,0:0:0:0:
368,184,73149,2,0,L|248:184,1,92.5,2|0,0:0|3:2,0:0:0:0:
116,188,73491,1,2,0:0:0:0:
275,184,73663,1,8,0:0:0:0:
116,188,73834,1,0,0:0:0:0:
376,120,74006,6,0,L|484:120,2,92.5,2|2|10,3:2|0:0|0:0,0:0:0:0:
216,120,74520,2,0,B|160:88|160:88|144:44|276:24,1,185,2|2,0:0|3:2,0:0:0:0:
408,32,75034,1,8,0:0:0:0:
148,64,75206,6,0,P|104:104|188:176,1,185,6|2,3:2|3:2,0:0:0:0:
324,176,75720,2,0,L|432:176,1,92.5,8|0,0:0|3:2,0:0:0:0:
156,56,76063,1,10,0:0:0:0:
400,132,76234,1,2,3:2:0:0:
112,64,76406,1,8,0:0:0:0:
404,176,76577,6,0,L|196:176,1,185,6|2,3:2|3:2,0:0:0:0:
412,120,77091,2,0,L|412:24,1,92.5,10|2,0:0|0:0,0:0:0:0:
340,24,77349,1,8,0:0:0:0:
269,32,77434,2,0,L|269:132,1,92.5,2|0,3:2|3:2,0:0:0:0:
460,156,77777,1,10,0:0:0:0:
176,152,77949,6,0,P|112:128|176:104,1,173.4375,2|0,3:2|0:0,0:0:0:0:
369,125,78291,2,0,L|189:125,1,173.4375,2|0,3:2|0:0,0:0:0:0:
393,153,78634,2,0,P|457:129|393:105,1,173.4375,2|0,3:2|0:0,0:0:0:0:
200,126,78976,2,0,L|380:126,1,173.4375,2|0,3:2|0:0,0:0:0:0:
168,36,79320,6,0,P|104:80|144:176,1,185,6|0,3:2|3:2,0:0:0:0:
188,180,79749,1,0,0:0:0:0:
380,152,79834,2,0,B|402:192|402:192|381:248,1,92.5,8|0,0:0|0:0,0:0:0:0:
216,140,80177,1,2,3:2:0:0:
380,152,80349,1,2,3:2:0:0:
128,184,80520,1,10,0:0:0:0:
408,200,80691,6,0,L|200:208,1,185,6|0,3:2|3:2,0:0:0:0:
488,120,81206,2,0,L|384:120,1,92.5,8|0,0:0|3:2,0:0:0:0:
140,124,81549,2,0,L|248:120,1,92.5,10|2,0:0|3:2,0:0:0:0:
488,120,81891,1,8,0:0:0:0:
196,48,82063,6,0,L|404:52,1,185,6|10,3:2|0:0,0:0:0:0:
220,128,82577,1,10,0:0:0:0:
380,51,82749,1,10,0:0:0:0:
132,160,82920,1,10,0:0:0:0:
280,144,83092,1,10,0:0:0:0:
428,132,83263,1,10,0:0:0:0:
136,56,83434,6,0,B|56:80|56:80|180:80,1,208.125007939339,6|0,3:2|0:0,0:0:0:0:
344,84,83777,2,0,L|112:84,1,208.125007939339,6|0,3:2|0:0,0:0:0:0:
343,56,84120,2,0,B|423:80|423:80|299:80,1,208.125007939339,6|0,3:2|0:0,0:0:0:0:
135,84,84463,2,0,B|346:84|346:84|388:136|388:136|348:192|348:192,1,346.875013232232,6|0,3:2|0:0,0:0:0:0:
132,200,84977,6,0,L|24:200,2,92.5,6|0|0,3:2|0:0|3:2,0:0:0:0:
236,196,85491,2,0,L|240:128,1,46.25,2|2,0:2|0:0,0:0:0:0:
192,140,85663,2,0,L|96:136,1,92.5,2|2,3:2|0:2,0:0:0:0:
52,132,85920,2,0,L|56:64,1,46.25,0|0,0:0|3:0,0:0:0:0:
220,52,86177,6,0,L|280:52,2,46.25,2|0|0,0:0|0:0|3:0,0:0:0:0:
52,112,86520,1,2,0:0:0:0:
120,112,86606,1,0,0:0:0:0:
300,108,86691,1,10,0:2:0:0:
52,112,86863,2,0,P|44:152|212:292,1,277.5,2|0,3:2|0:0,0:0:0:0:
449,127,87463,6,0,L|25:119,1,416.25,14|0,3:2|0:0,0:0:0:0:
