osu file format v14

[General]
AudioFilename: audio.mp3
AudioLeadIn: 0
PreviewTime: 60033
Countdown: 0
SampleSet: Soft
StackLeniency: 0.7
Mode: 2
LetterboxInBreaks: 0
WidescreenStoryboard: 1

[Editor]
DistanceSpacing: 1
BeatDivisor: 4
GridSize: 4
TimelineZoom: 2

[Metadata]
Title:Honey Jet Coaster (TV Size)
TitleUnicode:ハニージェットコースター (TV Size)
Artist:nasuo*
ArtistUnicode:なすお☆
Creator:bigh
Version:Cup
Source:可愛いだけじゃない式守さん
Tags:kawaii dake ja nai shikimori-san shikimori's miss shikimoris is not just a cutie cute japanese pop j-pop jpop anime op opening theme みっちょん micchon janai mnyui bighzonda
BeatmapID:3606155
BeatmapSetID:1761877

[Difficulty]
HPDrainRate:2
CircleSize:2.5
OverallDifficulty:6
ApproachRate:6
SliderMultiplier:1.3
SliderTickRate:0.5

[Events]
//Background and Video events
Video,1195,"Shikimori-Op1-1.mp4"
0,0,"stolefromgorm.jpg",0,0
//Break Periods
//Storyboard Layer 0 (Background)
//Storyboard Layer 1 (Fail)
//Storyboard Layer 2 (Pass)
//Storyboard Layer 3 (Foreground)
//Storyboard Layer 4 (Overlay)
//Storyboard Sound Samples

[TimingPoints]
-51,342.857142857143,4,2,1,10,1,0
5262,-100,4,2,1,60,0,0
6634,-100,4,2,1,80,0,0
6977,-100,4,2,1,60,0,0
7320,-100,4,2,1,60,0,0
7662,-100,4,2,1,60,0,0
8177,-100,4,2,1,70,0,0
13491,-100,4,2,1,80,0,0
23091,-100,4,2,1,80,0,0
23434,-100,4,2,1,80,0,0
23777,-100,4,2,1,80,0,0
24120,-100,4,2,1,80,0,0
24634,-100,4,2,1,70,0,0
35605,-100,4,2,1,60,0,0
46577,-100,4,2,1,60,0,0
51891,-100,4,2,1,75,0,0
60120,-100,4,2,1,90,0,1
77948,-100,4,2,1,90,0,1
78291,-100,4,2,1,90,0,1
78634,-100,4,2,1,90,0,1
78977,-100,4,2,1,90,0,1
79320,-100,4,2,1,90,0,1
83434,-100,4,2,1,90,0,0
83777,-100,4,2,1,90,0,0
84120,-100,4,2,1,90,0,0
84462,-100,4,2,1,90,0,0
84977,-100,4,2,1,80,0,0
87462,-100,4,2,1,70,0,0
88234,-100,4,2,1,5,0,0

[Colours]
Combo1 : 128,162,215
Combo2 : 242,167,187
Combo3 : 255,128,192
Combo4 : 128,128,192

[HitObjects]
256,192,2177,12,0,4749,0:0:0:0:
256,192,5263,5,0,3:0:0:0:
120,52,6634,6,0,L|121:196,1,130,6|2,3:2|3:2,0:0:0:0:
258,154,7320,2,0,L|259:298,1,130,2|2,3:2|3:2,0:0:0:0:
48,120,8177,6,0,L|262:121,1,195,6|10,3:2|0:2,0:0:0:0:
316,120,8863,2,0,L|332:36,1,65,2|2,3:2|3:2,0:0:0:0:
184,36,9377,6,0,L|40:36,2,130,10|2|2,0:0|0:0|0:0,0:0:0:0:
324,32,10406,1,10,0:0:0:0:
180,88,10749,6,0,L|188:303,1,195,14|10,0:0|0:0,0:0:0:0:
332,289,11606,2,0,L|335:198,1,65,10|2,0:0|3:2,0:0:0:0:
188,100,12120,6,0,P|130:146|201:210,1,195,14|2,0:2|3:2,0:0:0:0:
332,200,12977,1,8,0:0:0:0:
88,100,13491,6,0,L|308:100,1,195,6|8,3:2|0:0,0:0:0:0:
156,220,14349,2,0,P|158:143|179:63,1,130,0|8,3:0|0:0,0:0:0:0:
312,56,15034,6,0,L|88:64,1,195,2|2,3:2|0:2,0:0:0:0:
240,36,15891,1,2,0:0:0:0:
380,84,16234,6,0,P|439:117|363:205,1,195,2|8,0:0|0:0,0:0:0:0:
164,100,17263,2,0,L|80:96,1,65,2|10,0:0|0:0,0:0:0:0:
164,100,17606,6,0,L|455:116,1,260,2|2,0:0|0:0,0:0:0:0:
373,187,18463,1,2,3:2:0:0:
303,194,18634,1,2,3:2:0:0:
134,179,18977,6,0,P|149:113|262:71,1,195,6|8,3:2|0:0,0:0:0:0:
456,92,20006,1,2,3:2:0:0:
456,176,20177,1,10,0:0:0:0:
384,180,20349,6,0,P|268:140|232:52,1,195,6|8,3:2|0:2,0:0:0:0:
24,48,21377,1,2,3:2:0:0:
24,128,21549,1,10,0:2:0:0:
96,132,21720,6,0,L|380:134,2,260,6|2|6,3:2|3:2|3:2,0:0:0:0:
96,132,23434,5,14,0:2:0:0:
96,132,23777,1,6,3:2:0:0:
96,132,24120,1,6,3:2:0:0:
294,132,24634,6,0,P|431:183|287:285,1,390,6|2,3:2|3:2,0:0:0:0:
168,216,26006,2,0,B|264:216|369:199|394:126|408:69|408:69|312:70,1,390,0|2,3:2|3:2,0:0:0:0:
200,72,27377,6,0,P|80:152|231:270,1,390,0|2,3:0|3:2,0:0:0:0:
352,180,28749,2,0,P|407:141|328:68,1,195,0|10,3:2|0:0,0:0:0:0:
208,64,29606,2,0,L|196:140,1,65,8|8,0:1|3:1,0:0:0:0:
340,116,30120,6,0,P|416:136|483:248,2,195,2|2|2,3:2|0:0|3:2,0:0:0:0:
267,111,31320,1,2,0:0:0:0:
197,110,31491,6,0,P|121:130|54:242,2,195,0|2|2,3:2|0:0|3:2,0:0:0:0:
268,112,32691,1,10,0:0:0:0:
192,52,32863,6,0,B|189:154|189:154|293:170,1,195,0|0,3:0|0:0,0:0:0:0:
476,156,33891,1,2,3:2:0:0:
328,84,34234,6,0,L|180:80,1,130,4|8,3:2|0:0,0:0:0:0:
188,80,34749,1,2,3:2:0:0:
330,70,35091,2,0,L|404:70,1,65,8|8,0:1|0:1,0:0:0:0:
227,149,35606,6,0,L|450:150,1,195,6|2,3:2|0:0,0:0:0:0:
354,207,36291,2,0,L|216:208,1,130,2|10,3:2|0:0,0:0:0:0:
87,149,36977,6,0,L|296:149,1,195,2|2,3:2|0:0,0:0:0:0:
217,208,37663,2,0,L|77:208,1,130,2|10,3:2|0:0,0:0:0:0:
232,96,38349,6,0,P|302:108|240:188,1,195,2|2,3:2|0:0,0:0:0:0:
188,176,39034,2,0,P|119:175|95:104,1,130,2|10,3:2|0:0,0:0:0:0:
224,72,39720,6,0,L|376:72,1,130,2|2,3:2|3:2,0:0:0:0:
224,72,40406,2,0,L|72:72,1,130,2|2,3:2|3:2,0:0:0:0:
252,40,41091,6,0,P|325:96|244:148,1,195,6|2,3:2|0:0,0:0:0:0:
196,144,41777,2,0,P|137:126|191:95,1,130,2|10,3:2|0:0,0:0:0:0:
316,72,42463,6,0,L|99:72,1,195,2|2,3:2|0:0,0:0:0:0:
186,162,43149,2,0,P|228:192|172:212,1,130,2|10,3:2|0:0,0:0:0:0:
40,100,43834,6,0,L|320:101,1,260,2|2,3:2|3:2,0:0:0:0:
168,152,44863,1,10,0:0:0:0:
256,192,45206,12,6,46577,3:2:0:0:
256,192,47949,5,2,0:0:0:0:
466,192,49320,5,2,0:0:0:0:
46,192,50691,5,2,0:0:0:0:
256,192,51891,6,0,L|36:192,1,195,6|10,3:2|0:0,0:0:0:0:
46,192,52577,1,2,0:0:0:0:
184,176,52920,1,2,3:2:0:0:
46,192,53263,6,0,L|266:192,1,195,2|10,3:2|0:0,0:0:0:0:
256,192,53949,1,2,0:2:0:0:
118,176,54291,1,2,3:2:0:0:
256,88,54634,6,0,L|472:84,1,195,6|8,3:2|0:0,0:0:0:0:
320,40,55491,2,0,L|164:40,1,130,8|8,0:0|0:0,0:0:0:0:
321,120,56177,6,0,P|389:142|315:191,1,195,8|2,0:0|3:2,0:0:0:0:
252,189,56863,2,0,B|195:138|195:138|251:80,1,130,10|10,0:0|0:0,0:0:0:0:
312,64,57377,6,0,L|96:64,1,195,6|8,3:2|0:0,0:0:0:0:
244,52,58234,2,0,L|464:52,1,195,8|0,0:3|3:2,0:0:0:0:
256,192,59263,12,0,59777,0:0:0:0:
168,244,60120,6,0,P|117:217|180:124,1,195,6|8,3:2|0:0,0:0:0:0:
302,176,60977,2,0,L|454:178,1,130,2|10,3:2|0:0,0:0:0:0:
301,85,61663,6,0,L|147:85,1,130,2|10,3:2|0:0,0:0:0:0:
232,79,62177,2,0,L|388:83,1,130,2|2,0:0|0:0,0:0:0:0:
232,48,62863,6,0,L|92:80,1,130,2|2,0:0|0:0,0:0:0:0:
168,128,63377,1,10,0:0:0:0:
240,164,63549,2,0,L|392:160,1,130,2|2,0:0|0:0,0:0:0:0:
240,52,64234,6,0,P|164:100|244:136,1,195,2|8,0:0|0:0,0:0:0:0:
365,98,65091,2,0,P|300:99|272:172,1,130,2|2,3:2|3:2,0:0:0:0:
412,168,65777,6,0,P|456:200|404:260,1,130,6|10,3:2|0:0,0:0:0:0:
276,272,66463,2,0,P|232:232|280:176,1,130,0|10,3:2|0:2,0:0:0:0:
344,152,66977,6,0,B|372:120|372:120|336:96|192:92,1,195,2|10,0:0|0:0,0:0:0:0:
64,64,67834,2,0,L|224:64,1,130,2|10,3:2|0:0,0:0:0:0:
136,152,68349,6,0,P|88:112|184:40,1,195,6|10,3:2|0:0,0:0:0:0:
312,40,69206,1,10,0:0:0:0:
372,136,69549,1,2,3:2:0:0:
312,40,69891,6,0,L|159:40,1,130,2|10,3:2|0:2,0:0:0:0:
312,40,70577,2,0,L|312:120,1,65,10|10,0:0|0:0,0:0:0:0:
144,180,71091,6,0,L|356:178,1,195,6|8,3:2|0:0,0:0:0:0:
216,144,71949,2,0,P|164:120|224:92,1,130,2|10,3:2|0:0,0:0:0:0:
352,48,72634,6,0,B|384:52|384:52|384:168,1,130,2|10,3:2|0:0,0:0:0:0:
316,176,73149,2,0,L|156:172,1,130,2|2,0:0|0:0,0:0:0:0:
176,172,73663,1,8,0:0:0:0:
320,76,74006,6,0,L|468:80,1,130,2|10,3:2|0:0,0:0:0:0:
388,144,74520,2,0,L|228:140,1,130,2|2,0:0|3:2,0:0:0:0:
388,60,75206,6,0,B|412:81|412:81|244:80,1,195,6|8,3:2|0:0,0:0:0:0:
104,72,76063,1,10,0:0:0:0:
298,73,76577,6,0,L|82:73,1,195,6|10,3:2|0:0,0:0:0:0:
233,77,77434,2,0,L|393:77,1,130,2|10,3:2|0:0,0:0:0:0:
363,77,77949,5,2,3:2:0:0:
363,77,78291,1,2,3:2:0:0:
363,77,78634,1,2,3:2:0:0:
363,77,78977,1,2,3:2:0:0:
233,80,79320,6,0,B|358:80|358:80|412:146,1,195,6|8,3:2|0:0,0:0:0:0:
272,144,80177,2,0,L|120:144,1,130,2|10,3:2|0:0,0:0:0:0:
200,144,80691,6,0,P|288:144|308:32,1,195,6|8,3:2|0:0,0:0:0:0:
172,40,81549,2,0,L|172:124,1,65,10|2,0:0|3:2,0:0:0:0:
340,128,82063,6,0,L|122:128,1,195,6|10,3:2|0:0,0:0:0:0:
272,112,82920,1,10,0:0:0:0:
130,128,83263,1,10,0:0:0:0:
130,128,83434,5,6,3:2:0:0:
130,128,83777,1,6,3:2:0:0:
130,128,84120,1,6,3:2:0:0:
130,128,84463,1,6,3:2:0:0:
340,120,84977,6,0,L|116:120,1,195,6|2,3:2|0:2,0:0:0:0:
77,120,85663,2,0,L|64:40,1,65,2|2,3:2|0:2,0:0:0:0:
204,32,86177,1,2,0:0:0:0:
352,80,86520,6,0,L|264:80,1,65,2|10,0:0|0:2,0:0:0:0:
212,80,86863,1,2,3:2:0:0:
256,192,87463,12,0,88234,0:0:0:0:
