osu file format v14

[General]
AudioFilename: audio.mp3
AudioLeadIn: 0
PreviewTime: 60033
Countdown: 0
SampleSet: Soft
StackLeniency: 0.7
Mode: 2
LetterboxInBreaks: 0
WidescreenStoryboard: 1

[Editor]
DistanceSpacing: 1
BeatDivisor: 4
GridSize: 4
TimelineZoom: 2

[Metadata]
Title:Honey Jet Coaster (TV Size)
TitleUnicode:ハニージェットコースター (TV Size)
Artist:nasuo*
ArtistUnicode:なすお☆
Creator:bigh
Version:Affection
Source:可愛いだけじゃない式守さん
Tags:kawaii dake ja nai shikimori-san shikimori's miss shikimoris is not just a cutie cute japanese pop j-pop jpop anime op opening theme みっちょん micchon janai mnyui bighzonda
BeatmapID:3715792
BeatmapSetID:1761877

[Difficulty]
HPDrainRate:7
CircleSize:4.4
OverallDifficulty:9.4
ApproachRate:9.4
SliderMultiplier:1.85
SliderTickRate:2

[Events]
//Background and Video events
Video,1195,"Shikimori-Op1-1.mp4"
0,0,"stolefromgorm.jpg",0,0
//Break Periods
//Storyboard Layer 0 (Background)
//Storyboard Layer 1 (Fail)
//Storyboard Layer 2 (Pass)
//Storyboard Layer 3 (Foreground)
//Storyboard Layer 4 (Overlay)
//Storyboard Sound Samples

[TimingPoints]
-51,342.857142857143,4,2,1,10,1,0
5262,-100,4,2,1,60,0,0
6634,-80,4,2,1,80,0,0
6977,-80,4,2,1,60,0,0
7320,-80,4,2,1,60,0,0
7662,-33.3333333333333,4,2,1,60,0,0
8156,-33.3333333333333,4,2,1,5,0,0
8177,-100,4,2,1,70,0,0
13491,-66.6666666666667,4,2,1,80,0,0
14006,-100,4,2,1,80,0,0
23091,-80,4,2,1,80,0,0
23434,-80,4,2,1,80,0,0
23777,-80,4,2,1,80,0,0
24120,-33.3333333333333,4,2,1,80,0,0
24613,-33.3333333333333,4,2,1,5,0,0
24634,-100,4,2,1,70,0,0
34663,-100,4,2,1,5,0,0
34749,-100,4,2,1,70,0,0
35177,-100,4,2,1,5,0,0
35263,-33.3333333333333,4,2,1,70,0,0
35584,-100,4,2,1,5,0,0
35605,-100,4,2,1,60,0,0
46577,-100,4,2,1,60,0,0
51184,-100,4,2,1,5,0,0
51206,-100,4,2,1,60,0,0
51891,-66.6666666666667,4,2,1,75,0,0
52406,-100,4,2,1,75,0,0
59777,-33.3333333333333,4,2,1,75,0,0
60099,-33.3333333333333,4,2,1,5,0,0
60120,-33.3333333333333,4,2,1,90,0,1
60377,-100,4,2,1,90,0,1
60634,-100,4,2,1,90,0,1
68263,-100,4,2,1,5,0,1
68349,-100,4,2,1,90,0,1
71091,-66.6666666666667,4,2,1,90,0,1
71606,-100,4,2,1,90,0,1
77948,-80,4,2,1,90,0,1
78291,-80,4,2,1,90,0,1
78634,-80,4,2,1,90,0,1
78977,-80,4,2,1,90,0,1
79320,-100,4,2,1,90,0,1
83434,-66.6666666666667,4,2,1,90,0,0
83777,-66.6666666666667,4,2,1,90,0,0
84120,-66.6666666666667,4,2,1,90,0,0
84462,-33.3333333333333,4,2,1,90,0,0
84956,-33.3333333333333,4,2,1,5,0,0
84977,-100,4,2,1,80,0,0
87462,-33.3333333333333,4,2,1,70,0,0
88234,-100,4,2,1,5,0,0

[Colours]
Combo1 : 128,162,215
Combo2 : 242,167,187
Combo3 : 255,128,192
Combo4 : 128,128,192

[HitObjects]
256,192,2177,12,0,5091,0:0:0:0:
256,232,5263,6,0,P|318:201|295:97,1,185,0|0,3:0|0:0,0:0:0:0:
207,177,5777,2,0,L|199:60,1,92.5,0|0,0:0|0:0,0:0:0:0:
295,57,6120,1,0,0:0:0:0:
201,84,6291,1,0,0:0:0:0:
107,109,6463,1,0,3:0:0:0:
451,49,6634,6,0,P|476:96|380:176,1,173.4375,6|0,3:2|0:0,0:0:0:0:
186,88,6977,2,0,L|370:91,1,173.4375,2|0,3:2|0:0,0:0:0:0:
150,164,7320,2,0,L|334:167,1,173.4375,2|0,3:2|0:0,0:0:0:0:
114,164,7663,2,0,B|63:143|63:143|55:83|75:15|75:15|55:107|55:107|79:151|79:151|83:291|83:291|115:163|115:163|327:163,1,797.812530434133,2|0,3:2|0:0,0:0:0:0:
324,164,8177,5,6,3:2:0:0:
436,164,8349,1,0,0:0:0:0:
410,164,8434,1,0,0:0:0:0:
361,164,8520,1,0,3:2:0:0:
200,168,8691,2,0,L|128:168,1,46.25,10|0,0:2|0:0,0:0:0:0:
252,124,8863,2,0,L|320:124,1,46.25,2|0,3:2|0:0,0:0:0:0:
200,76,9034,2,0,L|132:76,2,46.25,2|0|0,3:2|0:0|3:0,0:0:0:0:
473,150,9377,6,0,L|476:47,1,92.5,10|0,0:0|3:0,0:0:0:0:
289,44,9720,1,2,0:0:0:0:
231,43,9806,1,0,0:0:0:0:
381,63,9891,2,0,L|491:69,2,92.5,2|2|0,3:2|0:0|3:0,0:0:0:0:
124,136,10406,2,0,P|75:108|137:88,1,138.75,10|0,0:0|0:0,0:0:0:0:
328,104,10749,6,0,L|132:104,1,185,14|2,0:0|3:2,0:0:0:0:
322,224,11263,2,0,L|363:182,1,46.25,10|0,0:0|0:0,0:0:0:0:
260,224,11434,2,0,L|219:182,1,46.25,2|0,3:2|3:2,0:0:0:0:
384,124,11606,2,0,L|460:120,1,46.25,10|0,0:0|0:0,0:0:0:0:
288,152,11777,2,0,L|140:152,1,138.75,2|0,3:2|0:0,0:0:0:0:
336,56,12120,6,0,L|152:59,1,185,14|2,0:2|3:2,0:0:0:0:
336,71,12634,1,2,3:2:0:0:
152,59,12806,1,2,3:2:0:0:
399,100,12977,1,8,0:0:0:0:
459,100,13063,1,0,3:0:0:0:
255,168,13149,1,0,3:0:0:0:
195,168,13234,1,0,3:0:0:0:
411,216,13320,1,8,0:0:0:0:
471,216,13406,1,0,3:0:0:0:
183,76,13491,6,0,P|68:182|188:212,1,346.875013232232,6|0,3:2|0:0,0:0:0:0:
375,136,14006,2,0,B|447:136|447:136|375:136,1,138.75,8|0,0:0|0:0,0:0:0:0:
224,136,14349,2,0,P|196:196|272:232,1,138.75,0|0,3:0|0:0,0:0:0:0:
428,252,14691,2,0,L|336:248,1,92.5,8|0,0:0|0:0,0:0:0:0:
88,260,15034,6,0,P|24:224|115:189,1,185,2|10,3:2|0:2,0:0:0:0:
268,160,15549,1,2,0:2:0:0:
148,160,15720,1,0,3:0:0:0:
28,164,15891,1,2,0:0:0:0:
268,160,16063,1,8,0:0:0:0:
28,164,16234,6,0,L|228:160,1,185,2|0,0:0|0:0,0:0:0:0:
448,164,16749,2,0,P|447:225|372:256,1,138.75,8|0,0:0|0:0,0:0:0:0:
336,260,17091,1,0,3:0:0:0:
424,256,17263,1,2,0:0:0:0:
164,260,17434,1,10,0:0:0:0:
420,176,17606,6,0,L|196:176,1,185,2|0,0:0|0:0,0:0:0:0:
72,176,18120,1,8,0:0:0:0:
235,176,18291,1,2,0:0:0:0:
72,176,18463,2,0,L|80:120,1,46.25,2|0,3:2|0:0,0:0:0:0:
240,128,18634,2,0,L|296:128,1,46.25,2|0,3:2|0:0,0:0:0:0:
120,72,18806,2,0,L|52:72,1,46.25,10|0,0:0|0:0,0:0:0:0:
232,184,18977,6,0,L|444:176,1,185,6|0,3:2|3:2,0:0:0:0:
228,40,19491,2,0,L|232:144,1,92.5,8|0,0:0|0:0,0:0:0:0:
296,132,19749,1,8,0:0:0:0:
360,132,19834,1,0,3:0:0:0:
116,136,20006,1,2,3:2:0:0:
360,132,20177,1,10,0:0:0:0:
80,48,20349,6,0,P|67:116|180:178,1,185,6|0,3:2|3:2,0:0:0:0:
332,208,20863,2,0,L|328:104,1,92.5,8|0,0:2|0:0,0:0:0:0:
264,116,21120,1,8,0:2:0:0:
200,116,21206,1,0,3:2:0:0:
440,112,21377,1,2,3:2:0:0:
200,116,21549,1,10,0:2:0:0:
448,176,21720,6,0,P|477:143|409:97,1,138.75,6|0,3:2|0:0,0:0:0:0:
232,104,22063,1,2,3:2:0:0:
487,82,22234,1,10,0:0:0:0:
229,170,22406,2,0,P|166:143|221:105,1,138.75,2|0,3:2|0:0,0:0:0:0:
384,100,22749,1,2,3:2:0:0:
126,80,22920,1,10,0:0:0:0:
480,44,23091,6,0,P|480:86|364:150,1,173.4375,6|0,3:2|0:0,0:0:0:0:
168,80,23434,2,0,L|376:80,1,173.4375,14|0,0:2|0:0,0:0:0:0:
132,112,23777,2,0,P|92:142|166:194,1,173.4375,6|0,3:2|0:0,0:0:0:0:
344,152,24120,2,0,B|64:152|64:152|40:16|40:16|20:152|20:152|268:152,1,797.812530434133,6|0,3:2|0:0,0:0:0:0:
276,152,24634,6,0,B|328:136|328:136|272:132,1,92.5,6|0,3:2|0:0,0:0:0:0:
236,124,24891,1,2,0:0:0:0:
180,116,24977,2,0,L|168:16,1,92.5,2|2,3:2|0:0,0:0:0:0:
265,12,25320,1,2,3:2:0:0:
169,24,25491,1,2,0:0:0:0:
73,36,25663,1,2,3:2:0:0:
304,52,25834,6,0,L|396:52,1,92.5,2|0,0:0|3:2,0:0:0:0:
228,156,26177,2,0,L|228:56,1,92.5,2|0,0:0|3:2,0:0:0:0:
60,152,26520,2,0,L|60:52,1,92.5,2|0,0:0|3:2,0:0:0:0:
152,44,26863,1,2,0:0:0:0:
16,59,27034,1,2,3:2:0:0:
152,44,27206,1,2,0:0:0:0:
380,44,27377,6,0,L|272:48,1,92.5,0|2,3:0|0:0,0:0:0:0:
384,132,27720,2,0,L|492:124,1,92.5,2|0,3:2|0:0,0:0:0:0:
384,132,28063,1,0,3:2:0:0:
290,75,28234,2,0,L|394:67,1,92.5,2|2,0:0|3:2,0:0:0:0:
200,68,28577,6,0,P|142:118|179:161,1,138.75,2|0,0:0|0:0,0:0:0:0:
216,156,28920,1,2,0:0:0:0:
120,144,29091,1,2,3:2:0:0:
352,104,29263,2,0,L|208:104,1,138.75,10|0,0:0|0:0,0:0:0:0:
56,104,29606,1,8,0:1:0:0:
352,104,29777,2,0,B|421:104|421:104|352:105,1,138.75,8|0,3:1|0:0,0:0:0:0:
152,176,30120,6,0,L|20:176,1,92.5,2|2,3:2|0:0,0:0:0:0:
140,176,30377,1,2,0:0:0:0:
220,176,30463,2,0,L|352:176,1,92.5,2|2,3:2|0:0,0:0:0:0:
232,176,30720,1,2,0:0:0:0:
152,176,30806,1,2,3:2:0:0:
312,140,30977,1,2,0:0:0:0:
152,176,31149,1,2,3:2:0:0:
380,56,31320,6,0,L|390:161,1,92.5,2|0,0:0|3:2,0:0:0:0:
208,116,31663,2,0,L|212:220,1,92.5,2|0,0:0|3:2,0:0:0:0:
28,188,32006,1,2,0:0:0:0:
30,234,32091,1,0,0:0:0:0:
32,280,32177,1,0,3:2:0:0:
120,300,32349,1,2,0:0:0:0:
213,312,32520,1,2,3:2:0:0:
36,280,32691,1,10,0:0:0:0:
268,264,32863,6,0,L|256:164,1,92.5,0|2,3:0|0:0,0:0:0:0:
164,160,33206,1,2,3:2:0:0:
340,108,33377,2,0,L|433:108,2,92.5,0|0|2,0:0|3:2|0:0,0:0:0:0:
172,108,33891,2,0,P|148:160|224:184,1,138.75,2|0,3:2|0:0,0:0:0:0:
412,168,34234,6,0,B|256:168,1,138.75,4|0,3:2|0:0,0:0:0:0:
480,100,34577,2,0,L|424:100,1,46.25,8|0,0:0|0:0,0:0:0:0:
224,100,34749,2,0,L|384:100,1,138.75,2|0,3:2|0:0,0:0:0:0:
160,100,35091,2,0,L|84:100,1,46.25,8|0,0:1|0:0,0:0:0:0:
304,76,35263,2,0,B|376:76|376:308|304:308|304:308|48:308,1,520.312519848348,8|0,0:1|0:0,0:0:0:0:
48,308,35606,5,6,3:2:0:0:
144,300,35777,1,0,0:0:0:0:
48,308,35949,1,0,3:0:0:0:
216,212,36120,1,2,0:0:0:0:
132,208,36206,1,0,0:0:0:0:
48,204,36291,2,0,L|40:104,1,92.5,2|2,3:2|0:0,0:0:0:0:
288,152,36634,2,0,L|324:48,1,92.5,10|2,0:0|0:0,0:0:0:0:
268,48,36891,1,2,0:0:0:0:
96,60,36977,5,2,3:2:0:0:
8,68,37149,1,0,0:0:0:0:
96,60,37320,1,0,3:2:0:0:
272,88,37491,1,2,0:0:0:0:
188,88,37577,1,0,0:0:0:0:
104,88,37663,2,0,L|113:195,1,92.5,2|2,3:2|0:0,0:0:0:0:
356,104,38006,2,0,L|296:184,1,92.5,10|2,0:0|0:2,0:0:0:0:
254,176,38263,1,0,0:0:0:0:
58,104,38349,5,2,3:2:0:0:
154,96,38520,1,0,0:0:0:0:
58,104,38691,1,0,3:2:0:0:
232,84,38863,1,2,0:0:0:0:
312,72,38949,1,2,0:0:0:0:
392,60,39034,2,0,L|408:156,1,92.5,2|2,3:2|0:0,0:0:0:0:
148,180,39377,2,0,L|140:84,1,92.5,10|0,0:0|0:0,0:0:0:0:
188,84,39634,1,0,0:0:0:0:
376,104,39720,6,0,B|371:59|371:59|280:36,1,138.75,2|0,3:2|0:0,0:0:0:0:
120,40,40063,2,0,L|272:36,1,138.75,2|0,3:2|0:0,0:0:0:0:
72,156,40406,2,0,B|78:111|78:111|169:88,1,138.75,2|0,3:2|0:0,0:0:0:0:
324,92,40749,2,0,L|172:88,1,138.75,2|0,3:2|0:0,0:0:0:0:
388,208,41091,5,6,3:2:0:0:
484,200,41263,1,0,0:0:0:0:
388,208,41434,1,0,3:2:0:0:
216,208,41606,1,2,0:0:0:0:
296,208,41691,1,2,0:0:0:0:
376,204,41777,2,0,L|400:88,1,92.5,2|2,3:2|0:0,0:0:0:0:
152,173,42120,2,0,L|228:105,1,92.5,10|2,0:0|0:2,0:0:0:0:
267,109,42377,1,0,0:0:0:0:
428,96,42463,5,2,3:2:0:0:
332,104,42634,1,0,0:0:0:0:
236,112,42806,1,0,3:2:0:0:
436,28,42977,1,2,0:0:0:0:
352,28,43063,1,0,0:0:0:0:
266,24,43149,2,0,L|237:111,1,92.5,2|2,3:2|0:0,0:0:0:0:
4,136,43491,2,0,L|96:136,1,92.5,10|2,0:0|0:0,0:0:0:0:
156,136,43749,1,0,0:0:0:0:
324,16,43834,5,2,3:2:0:0:
228,8,44006,1,0,0:0:0:0:
132,0,44177,1,0,3:2:0:0:
312,84,44349,1,2,0:0:0:0:
228,72,44434,1,0,0:0:0:0:
144,60,44520,2,0,L|119:148,1,92.5,2|0,3:2|0:0,0:0:0:0:
380,248,44863,2,0,L|388:152,1,92.5,10|0,0:0|0:0,0:0:0:0:
340,160,45120,1,0,0:0:0:0:
160,40,45206,6,0,B|41:49,2,92.5,6|0|2,3:2|0:0|3:2,0:0:0:0:
328,120,45720,1,8,0:3:0:0:
244,136,45806,1,0,0:0:0:0:
160,156,45891,2,0,L|60:152,1,92.5,2|4,3:2|0:3,0:0:0:0:
224,200,46234,2,0,L|332:204,1,92.5,0|8,0:0|0:3,0:0:0:0:
364,200,46491,1,8,0:3:0:0:
164,168,46577,6,8,P|76:156|176:64,1,277.5,6|0,3:2|0:0,0:0:0:0:
240,68,47263,1,0,0:0:0:0:
408,168,47434,2,0,B|208:168,1,185,0|0,0:0|0:0,0:0:0:0:
472,132,47949,6,0,B|496:176|496:176|472:224|472:224,1,92.5,2|0,0:0|0:0,0:0:0:0:
389,232,48291,1,0,0:0:0:0:
208,197,48463,2,0,B|421:194,1,185,0|0,0:0|0:0,0:0:0:0:
300,144,48977,2,0,L|188:140,1,92.5,0|0,0:0|0:0,0:0:0:0:
488,48,49320,6,0,L|488:144,1,92.5,2|0,0:0|0:0,0:0:0:0:
328,144,49663,2,0,L|220:152,2,92.5,0|0|0,0:0|0:0|0:0,0:0:0:0:
168,56,50177,2,0,P|88:149|147:196,1,185,0|0,0:0|0:0,0:0:0:0:
368,188,50691,6,0,B|423:70|423:70|284:56|284:56,1,265.9375,2|0,0:0|0:0,0:0:0:0:
275,53,51206,1,0,0:0:0:0:
227,127,51377,1,0,0:0:0:0:
274,198,51548,1,0,0:0:0:0:
368,205,51720,1,0,0:0:0:0:
76,128,51891,6,0,L|370:124,1,277.500010585785,6|0,3:2|3:2,0:0:0:0:
164,44,52406,2,0,L|52:48,1,92.5,10|2,0:0|0:0,0:0:0:0:
140,104,52663,1,8,0:0:0:0:
208,112,52749,1,0,3:0:0:0:
300,124,52920,1,2,3:2:0:0:
96,92,53091,1,8,0:0:0:0:
384,56,53263,6,0,L|176:56,1,185,2|0,3:2|3:2,0:0:0:0:
388,128,53777,2,0,L|500:132,1,92.5,10|2,0:0|0:2,0:0:0:0:
412,188,54034,1,8,0:0:0:0:
344,196,54120,1,2,3:2:0:0:
252,208,54291,1,2,3:2:0:0:
456,176,54463,1,10,0:0:0:0:
160,112,54634,6,0,P|96:88|168:48,1,185,6|0,3:2|3:2,0:0:0:0:
464,80,55149,1,8,0:0:0:0:
163,43,55320,1,0,3:2:0:0:
464,80,55491,2,0,L|464:188,1,92.5,8|0,0:0|3:2,0:0:0:0:
160,168,55834,2,0,L|52:168,1,92.5,8|0,0:0|3:2,0:0:0:0:
368,112,56177,5,8,0:0:0:0:
68,100,56349,1,0,3:2:0:0:
368,192,56520,2,0,L|468:192,1,92.5,8|2,0:0|3:2,0:0:0:0:
413,192,56777,1,0,3:2:0:0:
204,98,56863,2,0,L|88:94,1,92.5,10|0,0:0|3:2,0:0:0:0:
160,96,57120,1,0,0:0:0:0:
392,56,57206,1,10,0:0:0:0:
112,44,57377,6,0,L|328:40,1,185,6|0,3:2|3:2,0:0:0:0:
40,120,57891,2,0,L|40:220,1,92.5,8|0,0:0|3:2,0:0:0:0:
88,224,58149,1,0,3:2:0:0:
276,224,58234,1,8,0:3:0:0:
332,224,58320,1,8,0:3:0:0:
112,168,58406,1,8,3:2:0:0:
64,168,58491,1,8,3:2:0:0:
296,112,58577,1,8,3:2:0:0:
344,112,58662,1,8,3:2:0:0:
92,92,58749,6,0,P|32:132|100:196,1,185,0|0,3:2|0:0,0:0:0:0:
264,192,59263,2,0,L|236:80,1,92.5,0|0,0:0|0:0,0:0:0:0:
148,104,59606,1,0,0:0:0:0:
248,192,59777,2,0,B|288:48|288:48|312:176|312:176|64:176,1,520.312519848348
36,176,60120,6,0,B|312:176|312:176|384:40|384:40,1,416.250015878678,6|0,3:2|0:0,0:0:0:0:
424,44,60463,1,2,0:0:0:0:
144,144,60634,2,0,L|32:144,1,92.5,8|0,0:0|0:0,0:0:0:0:
348,200,60977,2,0,L|456:200,1,92.5,2|0,3:2|0:0,0:0:0:0:
140,56,61320,2,0,L|36:60,1,92.5,10|0,0:0|0:0,0:0:0:0:
340,104,61663,6,0,P|404:148|332:196,1,185,2|10,3:2|0:0,0:0:0:0:
156,104,62177,2,0,L|160:12,1,92.5,2|0,0:0|3:2,0:0:0:0:
340,104,62520,1,2,0:0:0:0:
248,104,62606,1,0,0:0:0:0:
156,104,62691,1,8,0:0:0:0:
456,48,62863,6,0,L|240:44,1,185,2|2,0:0|0:0,0:0:0:0:
448,140,63377,1,10,0:0:0:0:
268,132,63549,2,0,B|147:130|147:130|168:68,1,185,2|2,0:0|0:0,0:0:0:0:
352,48,64063,1,8,0:0:0:0:
96,56,64234,6,0,P|52:96|136:168,1,185,2|2,0:0|0:0,0:0:0:0:
204,172,64663,1,0,0:2:0:0:
288,164,64749,2,0,L|316:60,1,92.5,8|2,0:0|0:0,0:0:0:0:
136,48,65091,1,2,3:2:0:0:
380,124,65263,1,10,0:0:0:0:
200,68,65434,1,2,3:2:0:0:
444,144,65606,1,10,0:0:0:0:
128,168,65777,5,6,3:2:0:0:
175,168,65862,1,0,0:0:0:0:
221,168,65948,1,0,0:0:0:0:
396,168,66120,1,10,0:0:0:0:
216,164,66291,1,2,0:0:0:0:
173,156,66376,1,0,0:0:0:0:
153,116,66462,1,0,3:0:0:0:
218,71,66633,1,2,0:0:0:0:
400,72,66806,1,10,0:2:0:0:
152,48,66977,6,0,L|348:48,1,185,2|2,0:0|0:0,0:0:0:0:
148,116,67491,2,0,P|100:156|168:180,1,138.75,10|0,0:0|0:0,0:0:0:0:
360,232,67834,2,0,P|408:192|340:168,1,138.75,2|0,3:2|0:0,0:0:0:0:
148,116,68177,2,0,L|204:116,1,46.25,10|0,0:0|0:0,0:0:0:0:
416,72,68349,6,0,L|200:72,1,185,6|2,3:2|3:2,0:0:0:0:
484,144,68863,2,0,L|480:252,1,92.5,10|2,0:0|3:2,0:0:0:0:
228,128,69206,1,10,0:0:0:0:
404,140,69377,1,10,0:0:0:0:
152,172,69549,1,2,3:2:0:0:
328,184,69720,1,10,0:0:0:0:
88,116,69891,5,2,3:2:0:0:
368,188,70063,1,10,0:2:0:0:
88,116,70234,2,0,L|200:116,1,92.5,10|0,0:2|3:2,0:0:0:0:
440,116,70577,1,10,0:0:0:0:
378,115,70663,1,8,0:0:0:0:
176,108,70749,1,10,0:0:0:0:
114,107,70834,1,8,0:0:0:0:
328,56,70920,1,8,0:0:0:0:
390,55,71006,1,8,0:0:0:0:
124,80,71091,6,0,L|412:76,1,277.500010585785,6|2,3:2|0:0,0:0:0:0:
216,148,71606,2,0,L|104:148,1,92.5,8|2,0:0|0:0,0:0:0:0:
416,200,71949,2,0,L|524:200,1,92.5,2|0,3:2|0:0,0:0:0:0:
212,56,72291,2,0,L|108:60,1,92.5,10|2,0:0|0:0,0:0:0:0:
400,108,72634,5,2,3:2:0:0:
232,124,72806,1,2,0:0:0:0:
400,108,72977,1,10,0:0:0:0:
120,184,73149,2,0,L|240:184,1,92.5,2|0,0:0|3:2,0:0:0:0:
392,188,73491,1,2,0:0:0:0:
120,184,73663,1,8,0:0:0:0:
76,80,73834,1,0,0:0:0:0:
144,80,73920,1,0,0:0:0:0:
312,84,74006,5,2,3:2:0:0:
180,76,74177,1,2,0:0:0:0:
356,84,74349,1,10,0:0:0:0:
184,188,74520,2,0,B|400:188,1,185,2|2,0:0|3:2,0:0:0:0:
196,180,75034,1,8,0:0:0:0:
488,96,75206,6,0,L|276:96,1,185,6|2,3:2|3:2,0:0:0:0:
136,96,75720,2,0,L|244:96,1,92.5,8|0,0:0|3:2,0:0:0:0:
456,28,76063,1,10,0:0:0:0:
168,96,76234,1,2,3:2:0:0:
456,28,76406,1,8,0:0:0:0:
108,176,76577,6,0,L|316:176,1,185,6|2,3:2|3:2,0:0:0:0:
204,176,77006,1,0,0:0:0:0:
117,176,77091,2,0,L|77:80,1,92.5,10|2,0:0|0:0,0:0:0:0:
176,80,77349,1,8,0:0:0:0:
272,142,77434,2,0,L|304:238,1,92.5,2|0,3:2|3:2,0:0:0:0:
117,176,77777,1,10,0:0:0:0:
436,152,77949,6,0,P|452:124|352:56,1,173.4375,2|0,3:2|0:0,0:0:0:0:
144,116,78291,2,0,L|324:116,1,173.4375,2|0,3:2|0:0,0:0:0:0:
88,152,78634,2,0,P|69:111|161:39,1,173.4375,2|0,3:2|0:0,0:0:0:0:
376,116,78976,2,0,L|196:116,1,173.4375,2|0,3:2|0:0,0:0:0:0:
432,36,79320,6,0,P|464:88|364:168,1,185,6|0,3:2|3:2,0:0:0:0:
348,172,79749,1,0,0:0:0:0:
188,168,79834,2,0,B|166:208|166:208|187:264,1,92.5,8|0,0:0|0:0,0:0:0:0:
272,216,80091,1,0,0:0:0:0:
364,156,80177,1,2,3:2:0:0:
188,168,80349,1,2,3:2:0:0:
440,200,80520,1,10,0:0:0:0:
120,200,80691,6,0,L|328:208,1,185,6|0,3:2|3:2,0:0:0:0:
24,120,81206,2,0,L|128:120,1,92.5,8|0,0:0|3:2,0:0:0:0:
396,124,81549,2,0,L|288:120,1,92.5,10|2,0:0|3:2,0:0:0:0:
24,120,81891,1,8,0:0:0:0:
316,48,82063,6,0,L|144:48,1,138.75,6|0,3:2|0:0,0:0:0:0:
340,48,82406,1,10,0:0:0:0:
200,48,82577,1,10,0:0:0:0:
380,48,82749,1,10,0:0:0:0:
144,48,82920,1,10,0:0:0:0:
416,48,83092,1,10,0:0:0:0:
100,48,83263,1,10,0:0:0:0:
448,48,83434,6,0,B|488:96|488:96|324:96,1,208.125007939339,6|0,3:2|0:0,0:0:0:0:
112,88,83777,2,0,L|344:88,1,208.125007939339,6|0,3:2|0:0,0:0:0:0:
84,64,84120,2,0,B|48:72|48:88|48:88|48:112|88:120|200:120,1,208.125007939339,6|0,3:2|0:0,0:0:0:0:
408,160,84463,2,0,B|456:120|456:120|480:32|480:32|504:168|504:168|456:279|456:279|392:153|392:153|137:154,1,797.812530434133,6|0,3:2|0:0,0:0:0:0:
136,156,84977,5,6,3:2:0:0:
43,156,85148,1,0,0:0:0:0:
136,156,85320,1,0,3:2:0:0:
296,152,85491,2,0,L|300:84,1,46.25,2|2,0:2|0:0,0:0:0:0:
204,96,85663,2,0,L|140:92,1,46.25,2|0,3:2|0:0,0:0:0:0:
252,68,85834,2,0,L|316:72,1,46.25,2|0,0:2|0:0,0:0:0:0:
396,80,86006,1,0,3:0:0:0:
232,44,86177,6,0,L|172:44,2,46.25,2|0|0,0:0|0:0|3:0,0:0:0:0:
400,104,86520,1,2,0:0:0:0:
332,104,86606,1,0,0:0:0:0:
152,100,86691,1,10,0:2:0:0:
84,100,86777,1,0,0:0:0:0:
316,96,86863,2,0,P|414:168|316:279,1,277.5,2|0,3:2|0:0,0:0:0:0:
64,48,87463,6,0,B|341:42|341:42|440:152|440:248|440:248|476:40|476:40|464:144|464:144|472:356|472:356|432:295|432:295|388:192|388:192|392:156,1,1248.75004763603,14|0,3:2|0:0,0:0:0:0:
