osu file format v14

[General]
AudioFilename: audio.mp3
AudioLeadIn: 0
PreviewTime: 58299
Countdown: 0
SampleSet: Soft
StackLeniency: 0.7
Mode: 3
LetterboxInBreaks: 0
SpecialStyle: 0
WidescreenStoryboard: 0

[Editor]
DistanceSpacing: 1
BeatDivisor: 2
GridSize: 32
TimelineZoom: 1.8

[Metadata]
Title:Honey Jet Coaster (TV Size)
TitleUnicode:ハニージェットコースター (TV Size)
Artist:nasuo*
ArtistUnicode:なすお☆
Creator:Amiichii
Version:Kawaii Honey
Source:可愛いだけじゃない式守さん
Tags:crisper kawaii dake ja nai shikimori-san shikimori's miss shikimoris is not just a cutie cute japanese pop j-pop jpop anime op opening theme みっちょん micchon janai
BeatmapID:3554889
BeatmapSetID:1739359

[Difficulty]
HPDrainRate:8
CircleSize:4
OverallDifficulty:8
ApproachRate:9.2
SliderMultiplier:1.9
SliderTickRate:1

[Events]
//Background and Video events
0,0,"bg-in.jpg",0,0
Video,-616,"video.avi"
//Break Periods
//Storyboard Layer 0 (Background)
//Storyboard Layer 1 (Fail)
//Storyboard Layer 2 (Pass)
//Storyboard Layer 3 (Foreground)
//Storyboard Layer 4 (Overlay)
//Storyboard Sound Samples

[TimingPoints]
871,342.857142857143,4,2,1,50,1,0
4813,-66.6666666666667,4,2,1,50,0,0
4899,-200,4,2,1,50,0,0
4985,-100,4,2,1,50,0,0
5156,-66.6666666666667,4,2,1,50,0,0
5242,-200,4,2,1,50,0,0
5328,-100,4,2,1,50,0,0
5499,-66.6666666666667,4,2,1,50,0,0
5585,-200,4,2,1,50,0,0
5671,-100,4,2,1,50,0,0
5842,-66.6666666666667,4,2,1,50,0,0
5928,-200,4,2,1,50,0,0
6099,-158.730158730159,4,2,1,50,0,0
6120,-133.333333333333,4,2,1,50,0,0
6142,-113.636363636364,4,2,1,50,0,0
6163,-100,4,2,1,50,0,0
6184,-88.495575221239,4,2,1,50,0,0
6206,-80,4,2,1,50,0,0
6227,-72.463768115942,4,2,1,50,0,0
6249,-66.6666666666667,4,2,1,50,0,0
6271,-100,4,2,1,50,0,0
21271,-66.6666666666667,4,2,1,50,0,0
21357,-200,4,2,1,50,0,0
21443,-100,4,2,1,50,0,0
21614,-66.6666666666667,4,2,1,50,0,0
21700,-200,4,2,1,50,0,0
21786,-100,4,2,1,50,0,0
21957,-66.6666666666667,4,2,1,50,0,0
22043,-200,4,2,1,50,0,0
22129,-100,4,2,1,50,0,0
22300,-66.6666666666667,4,2,1,50,0,0
22386,-200,4,2,1,50,0,0
22557,-158.730158730159,4,2,1,50,0,0
22578,-133.333333333333,4,2,1,50,0,0
22600,-113.636363636364,4,2,1,50,0,0
22621,-100,4,2,1,50,0,0
22642,-88.495575221239,4,2,1,50,0,0
22664,-80,4,2,1,50,0,0
22685,-72.463768115942,4,2,1,50,0,0
22707,-66.6666666666667,4,2,1,50,0,0
22729,-100,4,2,1,50,0,0
33271,-66.6666666666667,4,2,1,50,0,0
33356,-200,4,2,1,50,0,0
33442,-40,4,2,1,50,0,0
33528,-200,4,2,1,50,0,0
33785,-100,4,2,1,50,0,0
37899,-66.6666666666667,4,2,1,50,0,0
37985,-200,4,2,1,50,0,0
38071,-100,4,2,1,50,0,0
38242,-66.6666666666667,4,2,1,50,0,0
38328,-200,4,2,1,50,0,0
38413,-100,4,2,1,50,0,0
38585,-66.6666666666667,4,2,1,50,0,0
38671,-200,4,2,1,50,0,0
38756,-100,4,2,1,50,0,0
38927,-99.009900990099,4,2,1,50,0,0
38948,-98.0392156862745,4,2,1,50,0,0
38970,-97.0873786407767,4,2,1,50,0,0
38991,-96.1538461538461,4,2,1,50,0,0
39013,-95.2380952380952,4,2,1,50,0,0
39034,-94.3396226415094,4,2,1,50,0,0
39056,-93.4579439252336,4,2,1,50,0,0
39077,-92.5925925925926,4,2,1,50,0,0
39098,-91.743119266055,4,2,1,50,0,0
39120,-90.9090909090909,4,2,1,50,0,0
39141,-90.0900900900901,4,2,1,50,0,0
39163,-89.2857142857143,4,2,1,50,0,0
39184,-88.4955752212389,4,2,1,50,0,0
39206,-87.719298245614,4,2,1,50,0,0
39227,-86.9565217391304,4,2,1,50,0,0
39249,-86.2068965517241,4,2,1,50,0,0
39271,-100,4,2,1,50,0,0
44756,-117.647058823529,4,2,1,50,0,0
49728,-200,4,2,1,50,0,0
49749,-169.491525423729,4,2,1,50,0,0
49770,-147.058823529412,4,2,1,50,0,0
49792,-129.87012987013,4,2,1,50,0,0
49813,-116.279069767442,4,2,1,50,0,0
49834,-105.263157894737,4,2,1,50,0,0
49856,-95.2380952380952,4,2,1,50,0,0
49877,-87.719298245614,4,2,1,50,0,0
49898,-81.3008130081301,4,2,1,50,0,0
49920,-75.7575757575758,4,2,1,50,0,0
49941,-70.9219858156028,4,2,1,50,0,0
49963,-66.6666666666667,4,2,1,50,0,0
49985,-100,4,2,1,50,0,0
56928,-20,4,2,1,50,0,0
56966,-200,4,2,1,50,0,0
57266,-166.666666666667,4,2,1,50,0,0
57276,-163.934426229508,4,2,1,50,0,0
57286,-161.290322580645,4,2,1,50,0,0
57296,-158.730158730159,4,2,1,50,0,0
57306,-156.25,4,2,1,50,0,0
57317,-153.846153846154,4,2,1,50,0,0
57327,-151.515151515152,4,2,1,50,0,0
57337,-149.253731343284,4,2,1,50,0,0
57347,-147.058823529412,4,2,1,50,0,0
57358,-144.927536231884,4,2,1,50,0,0
57368,-142.857142857143,4,2,1,50,0,0
57378,-140.845070422535,4,2,1,50,0,0
57388,-138.888888888889,4,2,1,50,0,0
57399,-136.986301369863,4,2,1,50,0,0
57409,-135.135135135135,4,2,1,50,0,0
57419,-133.333333333333,4,2,1,50,0,0
57429,-131.578947368421,4,2,1,50,0,0
57439,-129.87012987013,4,2,1,50,0,0
57450,-128.205128205128,4,2,1,50,0,0
57460,-126.582278481013,4,2,1,50,0,0
57470,-125,4,2,1,50,0,0
57480,-123.456790123457,4,2,1,50,0,0
57491,-121.951219512195,4,2,1,50,0,0
57501,-120.481927710843,4,2,1,50,0,0
57511,-119.047619047619,4,2,1,50,0,0
57521,-117.647058823529,4,2,1,50,0,0
57532,-116.279069767442,4,2,1,50,0,0
57542,-114.942528735632,4,2,1,50,0,0
57552,-113.636363636364,4,2,1,50,0,0
57562,-112.359550561798,4,2,1,50,0,0
57573,-111.111111111111,4,2,1,50,0,0
57583,-109.89010989011,4,2,1,50,0,0
57593,-108.695652173913,4,2,1,50,0,0
57603,-107.52688172043,4,2,1,50,0,0
57613,-106.382978723404,4,2,1,50,0,0
57624,-105.263157894737,4,2,1,50,0,0
57634,-104.166666666667,4,2,1,50,0,0
57644,-103.092783505155,4,2,1,50,0,0
57654,-102.040816326531,4,2,1,50,0,0
57665,-101.010101010101,4,2,1,50,0,0
57675,-100,4,2,1,50,0,0
57685,-99.009900990099,4,2,1,50,0,0
57695,-98.0392156862745,4,2,1,50,0,0
57706,-97.0873786407767,4,2,1,50,0,0
57716,-96.1538461538461,4,2,1,50,0,0
57726,-95.2380952380952,4,2,1,50,0,0
57736,-94.3396226415094,4,2,1,50,0,0
57746,-93.4579439252336,4,2,1,50,0,0
57757,-92.5925925925926,4,2,1,50,0,0
57767,-91.743119266055,4,2,1,50,0,0
57777,-90.9090909090909,4,2,1,50,0,0
57787,-90.0900900900901,4,2,1,50,0,0
57798,-89.2857142857143,4,2,1,50,0,0
57808,-88.495575221239,4,2,1,50,0,0
57818,-87.719298245614,4,2,1,50,0,0
57828,-86.9565217391304,4,2,1,50,0,0
57839,-86.2068965517241,4,2,1,50,0,0
57849,-85.4700854700855,4,2,1,50,0,0
57859,-84.7457627118644,4,2,1,50,0,0
57869,-84.0336134453782,4,2,1,50,0,0
57880,-83.3333333333333,4,2,1,50,0,0
57890,-82.6446280991736,4,2,1,50,0,0
57900,-81.9672131147541,4,2,1,50,0,0
57910,-81.3008130081301,4,2,1,50,0,0
57920,-80.6451612903226,4,2,1,50,0,0
57931,-80,4,2,1,50,0,0
57941,-79.3650793650794,4,2,1,50,0,0
57951,-78.740157480315,4,2,1,50,0,0
57961,-78.125,4,2,1,50,0,0
57972,-77.5193798449612,4,2,1,50,0,0
57982,-76.9230769230769,4,2,1,50,0,0
57992,-76.3358778625954,4,2,1,50,0,0
58002,-75.7575757575758,4,2,1,50,0,0
58013,-75.187969924812,4,2,1,50,0,0
58023,-74.6268656716418,4,2,1,50,0,0
58033,-74.0740740740741,4,2,1,50,0,0
58043,-73.5294117647059,4,2,1,50,0,0
58053,-72.992700729927,4,2,1,50,0,0
58064,-72.463768115942,4,2,1,50,0,0
58074,-71.9424460431655,4,2,1,50,0,0
58084,-71.4285714285714,4,2,1,50,0,0
58094,-70.9219858156028,4,2,1,50,0,0
58105,-70.4225352112676,4,2,1,50,0,0
58115,-69.9300699300699,4,2,1,50,0,0
58125,-69.4444444444444,4,2,1,50,0,0
58135,-68.9655172413793,4,2,1,50,0,0
58146,-68.4931506849315,4,2,1,50,0,0
58156,-68.0272108843538,4,2,1,50,0,0
58166,-67.5675675675676,4,2,1,50,0,0
58176,-67.1140939597315,4,2,1,50,0,0
58187,-66.6666666666667,4,2,1,50,0,0
58213,-100,4,2,1,50,0,0
58299,-100,4,2,1,50,0,1
69099,-100,4,2,1,50,0,0
69271,-100,4,2,1,50,0,1
76128,-66.6666666666667,4,2,1,50,0,1
76214,-200,4,2,1,50,0,1
76300,-100,4,2,1,50,0,1
76471,-66.6666666666667,4,2,1,50,0,1
76557,-200,4,2,1,50,0,1
76642,-66.6666666666667,4,2,1,50,0,1
76728,-200,4,2,1,50,0,1
76814,-66.6666666666667,4,2,1,50,0,1
76900,-200,4,2,1,50,0,1
76986,-100,4,2,1,50,0,1
77156,-66.6666666666667,4,2,1,50,0,1
77242,-200,4,2,1,50,0,1
77328,-100,4,2,1,50,0,1
77499,-66.6666666666667,4,2,1,50,0,1
77585,-200,4,2,1,50,0,1
77671,-100,4,2,1,50,0,1
80242,-125,4,2,1,50,0,1
80499,-62.5,4,2,1,50,0,1
80585,-76.9230769230769,4,2,1,50,0,1
80671,-142.857142857143,4,2,1,50,0,1
80756,-76.9230769230769,4,2,1,50,0,1
80842,-142.857142857143,4,2,1,50,0,1
80928,-76.9230769230769,4,2,1,50,0,1
81013,-142.857142857143,4,2,1,50,0,1
81099,-76.9230769230769,4,2,1,50,0,1
81185,-142.857142857143,4,2,1,50,0,1
81271,-76.9230769230769,4,2,1,50,0,1
81356,-142.857142857143,4,2,1,50,0,1
81442,-76.9230769230769,4,2,1,50,0,1
81528,-142.857142857143,4,2,1,50,0,1
81613,-66.6666666666667,4,2,1,50,0,1
81699,-200,4,2,1,50,0,1
81785,-100,4,2,1,50,0,1
81956,-66.6666666666667,4,2,1,50,0,1
82042,-200,4,2,1,50,0,1
82128,-100,4,2,1,50,0,1
82299,-66.6666666666667,4,2,1,50,0,1
82385,-200,4,2,1,50,0,1
82471,-100,4,2,1,50,0,1
82642,-66.6666666666667,4,2,1,50,0,1
82728,-200,4,2,1,50,0,1
82899,-158.730158730159,4,2,1,50,0,1
82920,-133.333333333333,4,2,1,50,0,1
82942,-113.636363636364,4,2,1,50,0,1
82963,-100,4,2,1,50,0,1
82984,-88.495575221239,4,2,1,50,0,1
83006,-80,4,2,1,50,0,1
83027,-72.463768115942,4,2,1,50,0,1
83049,-66.6666666666667,4,2,1,50,0,1
83071,-100,4,2,1,50,0,1
83156,-100,4,2,1,50,0,0
85042,-66.6666666666667,4,2,1,50,0,0
85128,-200,4,2,1,50,0,0
85427,-158.730158730159,4,2,1,50,0,0
85449,-133.333333333333,4,2,1,50,0,0
85470,-113.636363636364,4,2,1,50,0,0
85492,-100,4,2,1,50,0,0
85513,-88.495575221239,4,2,1,50,0,0
85535,-80,4,2,1,50,0,0
85556,-72.463768115942,4,2,1,50,0,0
85578,-66.6666666666667,4,2,1,50,0,0
85599,-100,4,2,1,50,0,0

[HitObjects]
448,192,528,128,0,3356:0:0:0:0:
64,192,870,128,0,3356:0:0:0:0:
192,192,2585,128,0,3356:0:0:0:0:
64,192,3442,128,2,4642:0:0:0:0:
192,192,3442,1,0,0:0:0:0:
448,192,3442,128,0,3785:0:0:0:0:
320,192,3785,128,0,3956:0:0:0:0:
448,192,3956,128,0,4128:0:0:0:0:
192,192,4128,128,0,4299:0:0:0:0:
320,192,4299,128,0,4471:0:0:0:0:
448,192,4471,128,0,4642:0:0:0:0:
192,192,4642,1,2,0:0:0:0:
320,192,4642,1,0,0:0:0:0:
64,192,4813,128,2,4985:0:0:0:0:
192,192,4813,128,0,4985:0:0:0:50:Tom1.wav
448,192,4813,128,0,4985:0:0:0:0:
64,192,5156,128,2,5328:0:0:0:0:
320,192,5156,128,0,5328:0:0:0:50:Tom2.wav
448,192,5156,128,0,5328:0:0:0:0:
192,192,5499,128,2,5671:0:0:0:0:
320,192,5499,128,0,5671:0:0:0:50:Tom3.wav
448,192,5499,128,0,5671:0:0:0:0:
64,192,5842,128,2,6271:0:0:0:0:
192,192,5842,128,0,6271:0:0:0:50:Tom4.wav
320,192,5842,128,0,6271:0:0:0:0:
64,192,6356,1,2,0:0:0:0:
320,192,6356,1,4,0:0:0:0:
448,192,6356,1,0,0:0:0:50:Tom4.wav
320,192,6528,1,2,0:0:0:0:
448,192,6528,128,0,6699:0:0:0:50:Tom4.wav
64,192,6699,128,2,6871:0:0:0:0:
192,192,6699,1,0,0:0:0:0:
192,192,6871,1,8,0:0:0:0:
320,192,6871,1,0,0:0:0:0:
448,192,6871,128,0,7042:0:0:0:0:
64,192,7042,128,2,7213:0:0:0:0:
320,192,7042,1,0,0:0:0:0:
192,192,7213,128,0,7385:0:0:0:50:Tom2.wav
320,192,7213,1,0,0:0:0:0:
448,192,7213,1,0,0:0:0:0:
64,192,7385,1,2,0:0:0:0:
448,192,7385,1,0,0:0:0:0:
64,192,7556,128,8,7728:0:0:0:0:
192,192,7556,1,0,0:0:0:0:
320,192,7556,1,0,0:0:0:0:
320,192,7728,1,2,0:0:0:0:
448,192,7728,1,0,0:0:0:0:
192,192,7899,128,0,8071:0:0:0:0:
64,192,7985,1,0,0:0:0:0:
320,192,8071,128,8,8242:0:0:0:0:
448,192,8071,1,0,0:0:0:0:
448,192,8242,128,0,8413:0:0:0:0:
192,192,8328,1,0,0:0:0:0:
64,192,8413,1,2,0:0:0:0:
320,192,8413,1,0,0:0:0:0:
64,192,8585,128,8,8756:0:0:0:0:
192,192,8585,1,0,0:0:0:0:
448,192,8585,1,0,0:0:0:0:
192,192,8756,1,2,0:0:0:0:
320,192,8756,1,0,0:0:0:0:
64,192,8928,1,8,0:0:0:0:
320,192,8928,1,4,0:0:0:0:
448,192,8928,128,0,9271:0:0:0:0:
192,192,9099,1,0,0:0:0:0:
64,192,9271,128,0,9442:0:0:0:50:Tom2.wav
320,192,9271,1,0,0:0:0:0:
192,192,9442,1,8,0:0:0:0:
320,192,9442,128,0,9613:0:0:0:0:
448,192,9442,1,0,0:0:0:0:
64,192,9613,1,2,0:0:0:0:
448,192,9613,1,0,0:0:0:0:
192,192,9699,1,2,0:0:0:0:
320,192,9699,1,0,0:0:0:0:
64,192,9785,1,8,0:0:0:0:
448,192,9785,128,0,9956:0:0:0:0:
64,192,9956,128,2,10128:0:0:0:0:
192,192,9956,128,0,10128:0:0:0:0:
320,192,9956,1,0,0:0:0:0:
320,192,10128,1,0,0:0:0:0:
64,192,10299,128,8,10471:0:0:0:0:
192,192,10299,1,0,0:0:0:0:
448,192,10299,128,4,10471:0:0:0:0:
320,192,10471,1,0,0:0:0:0:
64,192,10642,1,2,0:0:0:0:
192,192,10642,128,8,10728:0:0:0:0:
448,192,10642,128,0,10728:0:0:0:0:
64,192,10813,128,8,10899:0:0:0:0:
320,192,10813,128,2,10899:0:0:0:0:
448,192,10813,1,0,0:0:0:0:
64,192,10985,128,8,11071:0:0:0:0:
192,192,10985,128,2,11071:0:0:0:0:
320,192,10985,1,0,0:0:0:0:
64,192,11156,1,2,0:0:0:0:
448,192,11156,1,8,0:0:0:0:
320,192,11199,1,0,0:0:0:0:
192,192,11242,1,8,0:0:0:0:
64,192,11285,1,0,0:0:0:0:
448,192,11328,1,8,0:0:0:0:
320,192,11371,1,0,0:0:0:0:
192,192,11413,1,8,0:0:0:0:
64,192,11456,1,0,0:0:0:0:
448,192,11499,1,8,0:0:0:0:
320,192,11542,1,0,0:0:0:0:
192,192,11585,1,8,0:0:0:0:
64,192,11628,1,0,0:0:0:0:
320,192,11671,1,2,0:0:0:0:
448,192,11671,128,4,13042:0:0:0:0:
64,192,12185,1,8,0:0:0:0:
192,192,12185,1,0,0:0:0:0:
320,192,12185,1,0,0:0:0:0:
320,192,12356,1,0,0:0:0:0:
64,192,12528,1,2,0:0:0:0:
192,192,12528,1,0,0:0:0:0:
320,192,12699,1,0,0:0:0:0:
64,192,12871,1,8,0:0:0:0:
192,192,12871,128,0,13042:0:0:0:0:
320,192,12871,1,0,0:0:0:0:
64,192,13042,128,0,13213:0:0:0:0:
320,192,13213,128,2,13556:0:0:0:0:
448,192,13213,1,0,0:0:0:0:
64,192,13556,1,8,0:0:0:0:
192,192,13556,128,0,13728:0:0:0:0:
448,192,13556,1,0,0:0:0:0:
448,192,13728,128,0,14071:0:0:0:0:
192,192,13899,1,2,0:0:0:0:
320,192,13899,128,0,14071:0:0:0:0:
64,192,14071,128,0,14242:0:0:0:0:
192,192,14156,1,0,0:0:0:0:
320,192,14242,1,8,0:0:0:0:
448,192,14242,1,0,0:0:0:0:
64,192,14413,128,0,15271:0:0:0:0:
320,192,14585,1,2,0:0:0:0:
448,192,14585,1,0,0:0:0:0:
192,192,14756,1,0,0:0:0:0:
192,192,14928,1,8,0:0:0:0:
320,192,14928,1,0,0:0:0:0:
448,192,14928,1,0,0:0:0:0:
448,192,15099,1,0,0:0:0:0:
192,192,15271,1,2,0:0:0:0:
320,192,15271,1,0,0:0:0:0:
448,192,15442,128,0,15613:0:0:0:0:
64,192,15613,1,8,0:0:0:0:
192,192,15613,1,0,0:0:0:0:
320,192,15613,128,0,15785:0:0:0:0:
64,192,15785,128,0,16471:0:0:0:0:
192,192,15956,1,2,0:0:0:0:
320,192,15956,1,0,0:0:0:0:
448,192,16128,128,0,16213:0:0:0:0:
192,192,16299,1,8,0:0:0:0:
320,192,16299,128,0,16385:0:0:0:0:
448,192,16299,1,0,0:0:0:0:
192,192,16471,128,0,16556:0:0:0:0:
320,192,16471,128,0,16642:0:0:0:0:
64,192,16642,1,2,0:0:0:0:
448,192,16642,128,0,16813:0:0:0:0:
192,192,16813,128,2,16985:0:0:0:0:
320,192,16813,1,0,0:0:0:0:
64,192,16985,128,8,17156:0:0:0:0:
320,192,16985,1,0,0:0:0:0:
448,192,16985,1,0,0:0:0:0:
192,192,17156,1,2,0:0:0:0:
320,192,17156,1,4,0:0:0:0:
448,192,17156,128,0,18013:0:0:0:0:
64,192,17499,1,2,0:0:0:0:
192,192,17499,1,0,0:0:0:0:
64,192,17671,1,8,0:0:0:0:
192,192,17671,1,0,0:0:0:0:
320,192,17671,1,0,0:0:0:0:
320,192,17928,1,8,0:0:0:0:
64,192,18013,1,2,0:0:0:0:
192,192,18013,1,0,0:0:0:0:
64,192,18185,128,2,18356:0:0:0:0:
448,192,18185,1,0,0:0:0:0:
192,192,18356,1,8,0:0:0:0:
320,192,18356,1,0,0:0:0:0:
448,192,18356,128,0,18528:0:0:0:0:
64,192,18528,1,2,0:0:0:0:
192,192,18528,128,4,19385:0:0:0:0:
320,192,18528,1,0,0:0:0:0:
64,192,18871,1,2,0:0:0:0:
448,192,18871,1,0,0:0:0:0:
64,192,19042,1,8,0:0:0:0:
320,192,19042,1,0,0:0:0:0:
448,192,19042,1,0,0:0:0:0:
320,192,19299,1,8,0:0:0:0:
64,192,19385,1,2,0:0:0:0:
448,192,19385,1,0,0:0:0:0:
192,192,19556,128,2,19728:0:0:0:0:
320,192,19556,1,0,0:0:0:0:
64,192,19728,1,8,0:0:0:0:
320,192,19728,128,0,19899:0:0:0:0:
448,192,19728,1,0,0:0:0:0:
64,192,19899,1,2,0:0:0:0:
192,192,19899,1,4,0:0:0:0:
448,192,19899,128,0,20242:0:0:0:0:
64,192,20242,128,2,20413:0:0:0:0:
320,192,20242,1,0,0:0:0:0:
192,192,20413,1,8,0:0:0:0:
320,192,20413,128,0,20585:0:0:0:0:
448,192,20413,1,0,0:0:0:0:
64,192,20585,1,2,0:0:0:0:
192,192,20585,1,4,0:0:0:0:
448,192,20585,128,0,20928:0:0:0:0:
192,192,20928,128,2,21099:0:0:0:0:
320,192,20928,1,0,0:0:0:0:
64,192,21099,1,8,0:0:0:0:
320,192,21099,128,0,21271:0:0:0:0:
448,192,21099,1,0,0:0:0:0:
64,192,21271,128,2,21442:0:0:0:0:
192,192,21271,128,4,21442:0:0:0:0:
448,192,21271,128,0,21442:0:0:0:0:
64,192,21613,128,2,21785:0:0:0:0:
192,192,21613,128,8,21785:0:0:0:0:
320,192,21613,128,4,21785:0:0:0:0:
192,192,21956,128,4,22128:0:0:0:0:
320,192,21956,128,8,22128:0:0:0:0:
448,192,21956,128,2,22128:0:0:0:0:
64,192,22299,128,2,22728:0:0:0:0:
320,192,22299,128,8,22728:0:0:0:0:
448,192,22299,128,4,22728:0:0:0:0:
64,192,22813,1,4,0:0:0:0:
320,192,22813,1,2,3:0:0:50:drum-hitwhistle.wav
448,192,22813,1,0,0:0:0:0:
192,192,22985,1,0,0:0:0:0:
320,192,23071,1,0,0:0:0:0:
64,192,23156,1,2,3:0:0:50:drum-hitwhistle.wav
448,192,23156,1,0,0:0:0:0:
192,192,23328,1,0,0:0:0:0:
64,192,23499,1,2,3:0:0:50:drum-hitwhistle.wav
320,192,23499,1,0,0:0:0:0:
448,192,23671,1,0,0:0:0:0:
192,192,23842,1,2,3:0:0:50:drum-hitwhistle.wav
320,192,23842,1,0,0:0:0:0:
64,192,24013,1,0,0:0:0:0:
448,192,24013,1,0,0:0:0:0:
192,192,24185,1,2,3:0:0:50:drum-hitwhistle.wav
320,192,24185,1,0,0:0:0:0:
64,192,24356,1,0,0:0:0:0:
320,192,24528,1,2,3:0:0:50:drum-hitwhistle.wav
448,192,24528,1,0,0:0:0:0:
192,192,24699,1,0,0:0:0:0:
320,192,24785,1,0,0:0:0:0:
64,192,24871,1,2,3:0:0:50:drum-hitwhistle.wav
448,192,24871,1,0,0:0:0:0:
448,192,25042,1,0,0:0:0:0:
64,192,25213,1,2,3:0:0:50:drum-hitwhistle.wav
448,192,25213,1,0,0:0:0:0:
320,192,25385,1,0,0:0:0:0:
192,192,25556,1,2,3:0:0:50:drum-hitwhistle.wav
448,192,25556,1,0,0:0:0:0:
64,192,25728,1,0,0:0:0:0:
64,192,25899,1,2,3:0:0:50:drum-hitwhistle.wav
448,192,25899,1,0,0:0:0:0:
320,192,26071,1,0,0:0:0:0:
64,192,26242,1,2,3:0:0:50:drum-hitwhistle.wav
192,192,26242,1,0,0:0:0:0:
448,192,26413,1,0,0:0:0:0:
64,192,26585,1,2,3:0:0:50:drum-hitwhistle.wav
320,192,26585,1,0,0:0:0:0:
192,192,26756,1,0,0:0:0:0:
320,192,26928,1,2,3:0:0:50:drum-hitwhistle.wav
448,192,26928,1,0,0:0:0:0:
64,192,27099,1,0,0:0:0:0:
192,192,27271,1,2,3:0:0:50:drum-hitwhistle.wav
320,192,27271,1,0,0:0:0:0:
64,192,27442,1,8,0:0:0:0:
448,192,27442,1,0,0:0:0:0:
192,192,27613,1,2,3:0:0:50:drum-hitwhistle.wav
320,192,27613,1,0,0:0:0:0:
64,192,27785,1,0,0:0:0:50:soft-hitclap99.wav
448,192,27785,1,0,0:0:0:0:
64,192,27956,128,0,28042:0:0:0:50:soft-hitclap99.wav
448,192,27956,1,2,3:0:0:50:drum-hitwhistle.wav
192,192,28042,128,0,28128:0:0:0:0:
320,192,28128,128,0,28213:0:0:0:0:
448,192,28213,128,0,28299:0:0:0:0:
64,192,28299,128,2,28385:3:0:0:50:drum-hitwhistle.wav
192,192,28299,1,0,0:0:0:0:
320,192,28471,1,0,0:0:0:0:
192,192,28556,1,0,0:0:0:0:
64,192,28642,1,2,3:0:0:50:drum-hitwhistle.wav
448,192,28642,1,0,0:0:0:0:
320,192,28813,128,0,28899:0:0:0:0:
192,192,28899,1,0,0:0:0:0:
64,192,28985,1,2,3:0:0:50:drum-hitwhistle.wav
448,192,28985,1,0,0:0:0:0:
192,192,29156,128,0,29242:0:0:0:0:
320,192,29328,1,2,3:0:0:50:drum-hitwhistle.wav
448,192,29328,128,0,29413:0:0:0:0:
64,192,29499,1,0,0:0:0:0:
192,192,29499,1,0,0:0:0:0:
320,192,29671,128,2,29756:3:0:0:50:drum-hitwhistle.wav
448,192,29671,1,0,0:0:0:0:
192,192,29842,1,0,0:0:0:0:
64,192,30013,128,2,30099:3:0:0:50:drum-hitwhistle.wav
320,192,30013,1,0,0:0:0:0:
448,192,30185,128,0,30271:0:0:0:0:
320,192,30271,1,0,0:0:0:0:
64,192,30356,1,2,3:0:0:50:drum-hitwhistle.wav
192,192,30356,1,0,0:0:0:0:
320,192,30528,128,0,30613:0:0:0:0:
64,192,30699,128,2,30785:3:0:0:50:drum-hitwhistle.wav
320,192,30699,1,0,0:0:0:0:
192,192,30871,1,8,0:0:0:0:
448,192,30871,1,0,0:0:0:0:
64,192,31042,1,2,3:0:0:50:drum-hitwhistle.wav
320,192,31042,128,0,31128:0:0:0:0:
192,192,31213,1,0,0:0:0:0:
64,192,31385,128,2,31471:3:0:0:50:drum-hitwhistle.wav
448,192,31385,1,0,0:0:0:0:
320,192,31556,128,0,31642:0:0:0:0:
64,192,31728,1,2,3:0:0:50:drum-hitwhistle.wav
192,192,31728,1,0,0:0:0:0:
448,192,31899,128,0,31985:0:0:0:0:
64,192,32071,128,2,32156:3:0:0:50:drum-hitwhistle.wav
320,192,32071,1,0,0:0:0:0:
192,192,32242,1,0,0:0:0:0:
64,192,32413,1,4,0:0:0:0:
320,192,32413,1,2,3:0:0:50:drum-hitwhistle.wav
448,192,32413,128,0,32756:0:0:0:0:
192,192,32585,1,0,0:0:0:0:
64,192,32756,1,0,0:0:0:0:
192,192,32756,1,8,0:0:0:0:
320,192,32756,1,0,0:0:0:0:
64,192,32928,128,2,33099:0:0:0:0:
320,192,32928,128,4,33099:0:0:0:0:
448,192,32928,128,0,33099:0:0:0:0:
64,192,33271,1,0,0:0:0:50:soft-hitclap99.wav
448,192,33271,1,0,0:0:0:0:
64,192,33442,1,0,0:0:0:50:soft-hitclap99.wav
448,192,33442,1,0,0:0:0:0:
64,192,33785,1,2,0:0:0:0:
192,192,33785,1,4,0:0:0:0:
448,192,33785,128,0,33956:0:0:0:0:
320,192,33956,1,0,0:0:0:0:
64,192,34128,1,2,0:0:0:0:
448,192,34128,1,0,0:0:0:0:
192,192,34299,128,0,34385:0:0:0:0:
320,192,34385,128,0,34471:0:0:0:0:
64,192,34471,1,2,0:0:0:0:
448,192,34471,128,0,34642:0:0:0:0:
192,192,34642,128,0,34813:0:0:0:0:
64,192,34813,1,8,0:0:0:0:
320,192,34813,1,2,0:0:0:0:
448,192,34813,128,0,34985:0:0:0:0:
64,192,34985,128,0,35156:0:0:0:0:
192,192,35071,1,0,0:0:0:0:
320,192,35156,128,2,35328:0:0:0:0:
448,192,35156,1,0,0:0:0:0:
192,192,35328,1,0,0:0:0:0:
64,192,35499,1,2,0:0:0:0:
448,192,35499,1,0,0:0:0:0:
320,192,35671,128,0,35842:0:0:0:0:
64,192,35842,128,2,36013:0:0:0:0:
192,192,35842,1,0,0:0:0:0:
448,192,36013,128,0,36185:0:0:0:0:
64,192,36185,1,2,0:0:0:0:
192,192,36185,128,8,36356:0:0:0:0:
320,192,36185,1,0,0:0:0:0:
448,192,36356,128,0,36528:0:0:0:0:
320,192,36442,1,0,0:0:0:0:
64,192,36528,128,2,36699:0:0:0:0:
192,192,36528,1,0,0:0:0:0:
320,192,36699,1,0,0:0:0:0:
192,192,36871,1,2,0:0:0:0:
448,192,36871,1,0,0:0:0:0:
64,192,37042,128,0,37128:0:0:0:0:
192,192,37128,128,0,37213:0:0:0:0:
320,192,37213,1,2,0:0:0:0:
448,192,37213,128,0,37385:0:0:0:0:
192,192,37385,128,0,37556:0:0:0:0:
64,192,37556,1,2,0:0:0:0:
320,192,37556,128,8,37813:0:0:0:0:
448,192,37556,1,0,0:0:0:0:
64,192,37728,128,0,37813:0:0:0:0:
448,192,37813,1,0,0:0:0:0:
64,192,37899,128,2,38071:3:0:0:50:drum-hitwhistle.wav
192,192,37899,128,0,38071:0:0:0:0:
320,192,37899,128,0,38071:0:0:0:0:
192,192,38242,128,2,38413:3:0:0:50:drum-hitwhistle.wav
320,192,38242,128,0,38413:0:0:0:0:
448,192,38242,128,0,38413:0:0:0:0:
64,192,38585,128,2,38756:3:0:0:50:drum-hitwhistle.wav
320,192,38585,128,0,38756:0:0:0:0:
448,192,38585,128,0,38756:0:0:0:0:
64,192,38928,1,2,3:0:0:50:drum-hitwhistle.wav
448,192,38928,1,0,0:0:0:0:
192,192,38971,1,0,0:0:0:0:
320,192,39013,1,0,0:0:0:0:
448,192,39056,1,0,0:0:0:0:
64,192,39099,1,0,0:0:0:0:
192,192,39142,1,0,0:0:0:0:
320,192,39185,1,0,0:0:0:0:
448,192,39228,1,0,0:0:0:0:
64,192,39271,128,2,39442:0:0:0:0:
192,192,39271,1,4,0:0:0:0:
320,192,39442,1,0,0:0:0:0:
64,192,39613,1,2,0:0:0:0:
448,192,39613,1,0,0:0:0:0:
192,192,39785,128,0,39871:0:0:0:0:
320,192,39871,128,0,39956:0:0:0:0:
64,192,39956,1,2,0:0:0:0:
448,192,39956,128,0,40128:0:0:0:0:
192,192,40128,128,0,40299:0:0:0:0:
64,192,40299,1,8,0:0:0:0:
320,192,40299,128,2,40471:0:0:0:0:
448,192,40299,1,0,0:0:0:0:
64,192,40471,128,0,40642:0:0:0:0:
192,192,40556,1,0,0:0:0:0:
320,192,40642,1,2,0:0:0:0:
448,192,40642,128,0,40813:0:0:0:0:
192,192,40813,1,0,0:0:0:0:
64,192,40985,1,2,0:0:0:0:
448,192,40985,1,0,0:0:0:0:
320,192,41156,128,0,41328:0:0:0:0:
64,192,41328,128,2,41499:0:0:0:0:
448,192,41328,1,0,0:0:0:0:
192,192,41499,128,0,41671:0:0:0:0:
64,192,41671,1,2,0:0:0:0:
320,192,41671,1,8,0:0:0:0:
448,192,41671,128,0,41842:0:0:0:0:
192,192,41842,128,0,42013:0:0:0:0:
320,192,41928,1,0,0:0:0:0:
64,192,42013,1,2,0:0:0:0:
448,192,42013,128,0,42185:0:0:0:0:
192,192,42185,1,0,0:0:0:0:
64,192,42356,1,2,0:0:0:0:
448,192,42356,1,0,0:0:0:0:
320,192,42528,128,0,42613:0:0:0:0:
192,192,42613,128,0,42699:0:0:0:0:
64,192,42699,128,2,42871:0:0:0:0:
448,192,42699,1,0,0:0:0:0:
320,192,42871,1,0,0:0:0:0:
64,192,43042,1,2,0:0:0:0:
192,192,43042,1,0,0:0:0:0:
448,192,43042,128,0,43299:0:0:0:0:
320,192,43213,128,0,43299:0:0:0:0:
64,192,43299,1,0,0:0:0:0:
192,192,43385,1,4,0:0:0:0:
320,192,43385,128,2,43642:3:0:0:50:drum-hitwhistle.wav
448,192,43385,128,0,43642:0:0:0:0:
64,192,43556,1,0,0:0:0:0:
192,192,43728,128,2,43985:3:0:0:50:drum-hitwhistle.wav
320,192,43728,128,0,43985:0:0:0:0:
448,192,43899,1,0,0:0:0:50:Tom2.wav
64,192,44071,128,2,44328:3:0:0:50:drum-hitwhistle.wav
192,192,44071,128,0,44328:0:0:0:0:
320,192,44242,1,0,0:0:0:50:Tom3.wav
64,192,44413,128,2,44671:3:0:0:50:drum-hitwhistle.wav
448,192,44413,1,0,0:0:0:0:
320,192,44585,1,0,0:0:0:50:Tom4.wav
192,192,44671,1,0,0:0:0:50:Tom4.wav
64,192,44756,1,2,0:0:0:0:
320,192,44756,1,4,0:0:0:0:
448,192,44756,128,0,46128:0:0:0:0:
64,192,45271,128,0,45442:0:0:0:0:
192,192,45442,128,0,45613:0:0:0:0:
320,192,45613,128,0,45956:0:0:0:0:
64,192,45956,1,0,0:0:0:0:
320,192,46042,1,0,0:0:0:0:
64,192,46128,128,0,47499:0:0:0:0:
192,192,46128,1,0,0:0:0:0:
320,192,46299,128,0,46471:0:0:0:0:
192,192,46471,1,0,0:0:0:0:
448,192,46642,128,0,46985:0:0:0:0:
320,192,46813,1,0,0:0:0:0:
192,192,46985,1,0,0:0:0:0:
320,192,47156,128,0,47328:0:0:0:0:
192,192,47328,128,0,47499:0:0:0:0:
320,192,47499,128,0,47671:0:0:0:0:
448,192,47499,128,0,48871:0:0:0:0:
64,192,47671,128,0,47842:0:0:0:0:
320,192,47842,128,0,48013:0:0:0:0:
192,192,48013,128,0,48185:0:0:0:0:
64,192,48185,128,0,48356:0:0:0:0:
320,192,48356,128,0,48528:0:0:0:0:
192,192,48699,128,0,48871:0:0:0:0:
64,192,48871,128,0,49985:0:0:0:0:
320,192,48871,128,0,49385:0:0:0:0:
192,192,49385,128,0,49556:0:0:0:0:
448,192,49556,128,0,49985:0:0:0:0:
192,192,49728,128,0,49985:0:0:0:0:
64,192,50071,1,2,0:0:0:0:
320,192,50071,128,4,50413:0:0:0:0:
448,192,50071,1,0,0:0:0:0:
64,192,50413,1,2,0:0:0:0:
192,192,50413,1,0,0:0:0:0:
64,192,50585,1,8,0:0:0:0:
320,192,50585,1,0,0:0:0:0:
448,192,50585,1,0,0:0:0:0:
192,192,50756,1,0,0:0:0:0:
320,192,50842,1,0,0:0:0:0:
64,192,50928,1,2,0:0:0:0:
448,192,50928,1,0,0:0:0:0:
192,192,51099,1,2,0:0:0:0:
320,192,51099,1,0,0:0:0:0:
64,192,51271,1,8,0:0:0:0:
192,192,51271,1,0,0:0:0:0:
448,192,51271,1,0,0:0:0:0:
64,192,51442,1,2,0:0:0:0:
320,192,51442,1,0,0:0:0:0:
448,192,51613,1,0,0:0:0:0:
192,192,51785,1,2,0:0:0:0:
320,192,51785,1,0,0:0:0:0:
64,192,51956,1,8,0:0:0:0:
192,192,51956,1,0,0:0:0:0:
448,192,51956,1,0,0:0:0:0:
320,192,52128,1,0,0:0:0:0:
192,192,52213,1,0,0:0:0:0:
64,192,52299,1,2,0:0:0:0:
448,192,52299,1,0,0:0:0:0:
192,192,52471,1,2,0:0:0:0:
320,192,52471,1,0,0:0:0:0:
64,192,52642,1,8,0:0:0:0:
320,192,52642,1,0,0:0:0:0:
448,192,52642,1,0,0:0:0:0:
64,192,52813,128,2,53156:0:0:0:0:
192,192,52813,1,4,0:0:0:0:
448,192,52813,128,0,53156:0:0:0:0:
192,192,53156,1,2,0:0:0:0:
320,192,53156,1,0,0:0:0:0:
64,192,53328,1,8,0:0:0:0:
320,192,53328,1,0,0:0:0:0:
448,192,53328,1,0,0:0:0:0:
192,192,53499,1,2,0:0:0:0:
448,192,53499,128,0,53585:0:0:0:0:
64,192,53671,1,8,0:0:0:0:
192,192,53671,1,0,0:0:0:0:
320,192,53671,1,0,0:0:0:0:
320,192,53842,1,0,0:0:0:0:
64,192,54013,1,8,0:0:0:0:
192,192,54013,1,0,0:0:0:0:
448,192,54013,128,0,54099:0:0:0:0:
192,192,54185,1,2,0:0:0:0:
320,192,54185,1,0,0:0:0:0:
64,192,54356,1,8,0:0:0:0:
320,192,54356,1,0,0:0:0:0:
448,192,54356,1,0,0:0:0:0:
192,192,54528,1,2,0:0:0:0:
448,192,54528,128,0,54613:0:0:0:0:
64,192,54699,1,8,0:0:0:0:
192,192,54699,1,0,0:0:0:0:
320,192,54699,1,0,0:0:0:0:
64,192,54871,1,2,0:0:0:0:
448,192,54871,1,0,0:0:0:0:
320,192,54956,1,2,0:0:0:0:
64,192,55042,1,8,0:0:0:0:
192,192,55042,1,0,0:0:0:0:
448,192,55042,128,0,55128:0:0:0:0:
192,192,55213,1,2,0:0:0:0:
320,192,55213,1,0,0:0:0:0:
64,192,55385,1,8,0:0:0:0:
320,192,55385,1,0,0:0:0:0:
448,192,55385,128,0,55471:0:0:0:0:
64,192,55556,128,2,55899:0:0:0:0:
192,192,55556,1,4,0:0:0:0:
448,192,55556,1,0,0:0:0:0:
192,192,55899,1,2,0:0:0:0:
320,192,55899,1,0,0:0:0:0:
64,192,56071,1,8,0:0:0:0:
320,192,56071,1,0,0:0:0:0:
448,192,56071,1,0,0:0:0:0:
64,192,56242,1,2,0:0:0:0:
192,192,56242,1,0,0:0:0:0:
320,192,56328,1,2,0:0:0:0:
64,192,56413,1,0,0:0:0:50:Tom3.wav
192,192,56413,1,0,0:0:0:0:
448,192,56413,1,0,0:0:0:0:
320,192,56585,1,8,0:0:0:0:
448,192,56585,1,0,0:0:0:0:
64,192,56671,1,8,0:0:0:0:
192,192,56671,1,0,0:0:0:0:
320,192,56756,1,8,0:0:0:0:
448,192,56756,1,0,0:0:0:0:
64,192,56842,1,8,0:0:0:0:
192,192,56842,1,0,0:0:0:0:
320,192,56928,1,2,0:0:0:0:
448,192,56928,1,0,0:0:0:0:
64,192,57442,128,0,58213:0:0:0:0:
448,192,57613,128,0,58213:0:0:0:0:
192,192,57785,128,0,58213:0:0:0:0:
320,192,57956,128,0,58213:0:0:0:0:
64,192,58299,128,2,58813:0:0:0:0:
192,192,58299,1,4,0:0:0:0:
448,192,58299,1,0,0:0:0:0:
320,192,58642,128,0,58813:0:0:0:0:
192,192,58813,1,8,0:0:0:0:
448,192,58813,128,0,59156:0:0:0:0:
64,192,58985,128,0,59156:0:0:0:0:
192,192,59156,1,2,0:0:0:0:
320,192,59156,128,0,59499:0:0:0:0:
448,192,59328,128,0,59499:0:0:0:0:
64,192,59499,128,8,59842:0:0:0:0:
192,192,59499,1,0,0:0:0:0:
320,192,59671,128,0,59842:0:0:0:0:
192,192,59842,1,2,0:0:0:0:
448,192,59842,128,0,60185:0:0:0:0:
64,192,60013,1,0,0:0:0:0:
64,192,60185,1,8,0:0:0:0:
192,192,60185,128,0,60356:0:0:0:0:
320,192,60185,1,0,0:0:0:0:
320,192,60356,128,0,60699:0:0:0:0:
64,192,60528,1,2,0:0:0:0:
192,192,60528,128,0,60699:0:0:0:0:
448,192,60699,128,0,60871:0:0:0:0:
64,192,60871,1,8,0:0:0:0:
192,192,60871,1,0,0:0:0:0:
320,192,60871,1,0,0:0:0:0:
64,192,61042,128,0,61385:0:0:0:0:
192,192,61213,1,2,0:0:0:0:
448,192,61213,1,0,0:0:0:0:
320,192,61385,128,0,61556:0:0:0:0:
64,192,61556,1,8,0:0:0:0:
192,192,61556,128,0,61728:0:0:0:0:
448,192,61556,1,0,0:0:0:0:
448,192,61728,128,0,62071:0:0:0:0:
192,192,61899,1,2,0:0:0:0:
320,192,61899,1,0,0:0:0:0:
64,192,62071,128,0,62242:0:0:0:0:
192,192,62242,1,8,0:0:0:0:
320,192,62242,1,0,0:0:0:0:
448,192,62242,1,0,0:0:0:0:
320,192,62413,128,0,62585:0:0:0:0:
64,192,62585,1,2,0:0:0:0:
448,192,62585,1,0,0:0:0:0:
192,192,62756,128,0,63099:0:0:0:0:
64,192,62928,1,8,0:0:0:0:
320,192,62928,1,0,0:0:0:0:
448,192,62928,128,0,63099:0:0:0:0:
64,192,63099,128,0,63271:0:0:0:0:
320,192,63271,128,2,63442:0:0:0:0:
448,192,63271,128,0,63442:0:0:0:0:
64,192,63442,1,8,0:0:0:0:
192,192,63442,128,0,63613:0:0:0:0:
320,192,63613,128,2,63785:0:0:0:0:
448,192,63613,128,0,63785:0:0:0:0:
64,192,63785,1,8,0:0:0:0:
192,192,63785,128,0,63956:0:0:0:0:
320,192,63956,1,2,0:0:0:0:
448,192,63956,1,4,0:0:0:0:
64,192,64128,128,0,64299:0:0:0:0:
192,192,64299,1,8,0:0:0:0:
320,192,64299,128,0,64471:0:0:0:0:
448,192,64299,1,0,0:0:0:0:
448,192,64471,128,0,64642:0:0:0:0:
64,192,64642,1,2,0:0:0:0:
192,192,64642,1,0,0:0:0:0:
320,192,64813,128,0,64985:0:0:0:0:
64,192,64985,1,8,0:0:0:0:
192,192,64985,1,0,0:0:0:0:
448,192,64985,128,0,65156:0:0:0:0:
64,192,65156,128,0,65328:0:0:0:0:
320,192,65328,1,2,0:0:0:0:
448,192,65328,1,0,0:0:0:0:
192,192,65499,128,0,65671:0:0:0:0:
64,192,65671,1,8,0:0:0:0:
320,192,65671,128,0,66013:0:0:0:0:
448,192,65671,1,0,0:0:0:0:
192,192,65842,128,0,66013:0:0:0:0:
64,192,66013,1,2,0:0:0:0:
448,192,66013,128,0,66185:0:0:0:0:
192,192,66185,1,2,0:0:0:0:
320,192,66185,1,0,0:0:0:0:
64,192,66356,128,8,66528:0:0:0:0:
320,192,66356,1,0,0:0:0:0:
448,192,66356,1,0,0:0:0:0:
192,192,66485,1,0,0:0:0:0:
320,192,66528,1,2,0:0:0:0:
448,192,66528,128,4,66871:0:0:0:0:
64,192,66871,128,2,67042:0:0:0:0:
192,192,66871,1,0,0:0:0:0:
192,192,67042,1,8,0:0:0:0:
320,192,67042,1,0,0:0:0:0:
448,192,67042,128,0,67385:0:0:0:0:
64,192,67213,1,2,0:0:0:0:
320,192,67213,1,0,0:0:0:0:
64,192,67385,1,8,0:0:0:0:
192,192,67385,1,0,0:0:0:0:
320,192,67385,1,0,0:0:0:0:
64,192,67556,1,8,0:0:0:0:
192,192,67556,1,0,0:0:0:0:
320,192,67556,1,0,0:0:0:0:
192,192,67728,1,2,0:0:0:0:
448,192,67728,1,0,0:0:0:0:
64,192,67899,1,8,0:0:0:0:
320,192,67899,1,0,0:0:0:0:
448,192,67899,1,0,0:0:0:0:
192,192,68071,1,2,0:0:0:0:
320,192,68071,1,0,0:0:0:0:
64,192,68242,1,8,0:0:0:0:
192,192,68242,1,0,0:0:0:0:
448,192,68242,1,0,0:0:0:0:
64,192,68413,128,8,68756:0:0:0:0:
192,192,68413,1,0,0:0:0:0:
448,192,68413,1,0,0:0:0:0:
192,192,68585,1,2,0:0:0:0:
320,192,68585,1,0,0:0:0:0:
320,192,68756,1,8,0:0:0:0:
448,192,68756,1,0,0:0:0:0:
64,192,68842,1,8,0:0:0:0:
192,192,68842,1,0,0:0:0:0:
320,192,68928,1,8,0:0:0:0:
448,192,68928,1,0,0:0:0:0:
64,192,69013,1,8,0:0:0:0:
192,192,69013,1,0,0:0:0:0:
320,192,69099,1,8,0:0:0:0:
448,192,69099,1,0,0:0:0:0:
64,192,69185,1,8,0:0:0:0:
192,192,69185,1,0,0:0:0:0:
320,192,69271,1,2,0:0:0:0:
448,192,69271,128,4,69613:0:0:0:0:
64,192,69613,128,0,69785:0:0:0:0:
192,192,69785,1,8,0:0:0:0:
320,192,69785,128,0,69956:0:0:0:0:
448,192,69785,1,0,0:0:0:0:
192,192,69956,128,0,70128:0:0:0:0:
64,192,70128,1,2,0:0:0:0:
448,192,70128,128,0,70471:0:0:0:0:
320,192,70299,128,0,70471:0:0:0:0:
64,192,70471,128,8,70642:0:0:0:0:
192,192,70471,1,0,0:0:0:0:
448,192,70642,128,0,70813:0:0:0:0:
64,192,70813,1,2,0:0:0:0:
192,192,70813,128,0,70985:0:0:0:0:
320,192,70985,128,0,71156:0:0:0:0:
64,192,71156,1,8,0:0:0:0:
192,192,71156,1,0,0:0:0:0:
448,192,71156,128,0,71328:0:0:0:0:
64,192,71328,128,0,71671:0:0:0:0:
192,192,71499,128,2,71671:0:0:0:0:
320,192,71499,1,0,0:0:0:0:
448,192,71671,128,0,71842:0:0:0:0:
64,192,71842,1,8,0:0:0:0:
192,192,71842,1,0,0:0:0:0:
320,192,71842,1,0,0:0:0:0:
64,192,72013,128,0,72185:0:0:0:0:
320,192,72185,1,2,0:0:0:0:
448,192,72185,128,0,72356:0:0:0:0:
192,192,72356,128,0,72528:0:0:0:0:
64,192,72528,1,8,0:0:0:0:
320,192,72528,128,0,72699:0:0:0:0:
448,192,72528,1,0,0:0:0:0:
448,192,72699,128,0,72871:0:0:0:0:
192,192,72871,1,2,0:0:0:0:
320,192,72871,1,0,0:0:0:0:
64,192,73042,128,2,73213:0:0:0:0:
448,192,73042,1,0,0:0:0:0:
192,192,73213,1,8,0:0:0:0:
320,192,73213,1,0,0:0:0:0:
448,192,73213,128,0,73385:0:0:0:0:
64,192,73385,128,2,73728:0:0:0:0:
192,192,73385,1,4,0:0:0:0:
320,192,73385,1,0,0:0:0:0:
192,192,73556,128,0,73728:0:0:0:0:
320,192,73728,1,2,0:0:0:0:
448,192,73728,128,0,73899:0:0:0:0:
64,192,73899,1,8,0:0:0:0:
192,192,73899,1,0,0:0:0:0:
320,192,73899,1,0,0:0:0:0:
64,192,74071,1,2,0:0:0:0:
448,192,74071,1,0,0:0:0:0:
192,192,74242,128,8,74413:0:0:0:0:
320,192,74242,1,0,0:0:0:0:
448,192,74242,1,0,0:0:0:0:
64,192,74413,1,2,0:0:0:0:
320,192,74413,128,0,74585:0:0:0:0:
64,192,74585,1,8,0:0:0:0:
192,192,74585,1,0,0:0:0:0:
448,192,74585,1,0,0:0:0:0:
320,192,74671,1,0,0:0:0:0:
64,192,74756,128,2,75099:0:0:0:0:
192,192,74756,1,4,0:0:0:0:
448,192,74756,128,0,75099:0:0:0:0:
192,192,75099,1,2,0:0:0:0:
320,192,75099,1,0,0:0:0:0:
64,192,75271,1,8,0:0:0:0:
320,192,75271,1,0,0:0:0:0:
448,192,75271,1,0,0:0:0:0:
64,192,75442,1,2,0:0:0:0:
192,192,75442,1,0,0:0:0:0:
320,192,75528,1,2,3:0:0:50:drum-hitwhistle.wav
64,192,75613,1,2,0:0:0:0:
192,192,75613,1,0,0:0:0:0:
448,192,75613,1,0,0:0:0:0:
320,192,75785,1,2,0:0:0:0:
448,192,75785,1,0,0:0:0:0:
64,192,75956,1,8,0:0:0:0:
192,192,75956,1,0,0:0:0:0:
320,192,75956,1,0,0:0:0:0:
64,192,76128,128,2,76299:0:0:0:0:
192,192,76128,128,4,76299:0:0:0:0:
448,192,76128,128,0,76299:0:0:0:0:
64,192,76471,128,2,76642:0:0:0:0:
320,192,76471,128,4,76642:0:0:0:0:
448,192,76471,128,0,76642:0:0:0:0:
192,192,76642,1,8,0:0:0:0:
64,192,76813,128,2,76985:0:0:0:0:
192,192,76813,128,4,76985:0:0:0:0:
448,192,76813,128,0,76985:0:0:0:0:
64,192,77156,128,4,77328:0:0:0:0:
320,192,77156,128,2,77328:0:0:0:0:
448,192,77156,128,0,77328:0:0:0:0:
64,192,77499,128,2,77842:0:0:0:0:
192,192,77499,128,4,77671:0:0:0:0:
320,192,77499,128,0,77671:0:0:0:0:
448,192,77499,128,0,77842:0:0:0:0:
192,192,77842,1,2,0:0:0:0:
320,192,77842,1,0,0:0:0:0:
64,192,77928,1,0,0:0:0:0:
192,192,78013,1,8,0:0:0:0:
320,192,78013,1,0,0:0:0:0:
448,192,78013,1,0,0:0:0:0:
64,192,78185,128,0,78271:0:0:0:0:
192,192,78271,1,2,3:0:0:50:drum-hitwhistle.wav
320,192,78356,1,2,0:0:0:0:
448,192,78356,128,0,78528:0:0:0:0:
64,192,78528,128,2,78699:0:0:0:0:
192,192,78528,1,0,0:0:0:0:
192,192,78699,128,8,78871:0:0:0:0:
320,192,78699,1,0,0:0:0:0:
448,192,78699,1,0,0:0:0:0:
64,192,78871,1,2,0:0:0:0:
320,192,78871,128,4,79213:0:0:0:0:
448,192,78871,1,0,0:0:0:0:
192,192,79213,1,2,0:0:0:0:
448,192,79213,1,0,0:0:0:0:
64,192,79385,1,8,0:0:0:0:
192,192,79385,1,0,0:0:0:0:
320,192,79385,1,0,0:0:0:0:
64,192,79556,1,2,0:0:0:0:
448,192,79556,1,0,0:0:0:0:
192,192,79728,128,8,79899:0:0:0:0:
320,192,79728,1,0,0:0:0:0:
448,192,79728,1,0,0:0:0:0:
64,192,79899,1,2,0:0:0:0:
320,192,79899,128,0,80071:0:0:0:0:
64,192,80071,1,8,0:0:0:0:
192,192,80071,1,0,0:0:0:0:
448,192,80071,1,0,0:0:0:0:
192,192,80242,1,2,0:0:0:0:
320,192,80242,1,4,0:0:0:0:
448,192,80242,128,0,80585:0:0:0:0:
64,192,80585,1,8,0:0:0:0:
192,192,80585,1,2,0:0:0:0:
320,192,80585,1,0,0:0:0:0:
64,192,80756,1,8,0:0:0:0:
192,192,80756,1,2,0:0:0:0:
448,192,80756,1,0,0:0:0:0:
64,192,80928,1,8,0:0:0:0:
320,192,80928,1,2,0:0:0:0:
448,192,80928,1,0,0:0:0:0:
192,192,81099,1,8,0:0:0:0:
320,192,81099,1,2,0:0:0:0:
448,192,81099,1,0,0:0:0:0:
64,192,81271,1,8,0:0:0:0:
192,192,81271,1,2,0:0:0:0:
320,192,81271,1,0,0:0:0:0:
64,192,81442,1,8,0:0:0:0:
192,192,81442,1,2,0:0:0:0:
448,192,81442,1,0,0:0:0:0:
64,192,81613,128,2,81785:0:0:0:0:
320,192,81613,128,8,81785:0:0:0:0:
448,192,81613,128,0,81785:0:0:0:50:Tom1.wav
64,192,81956,128,0,82128:0:0:0:50:Tom2.wav
192,192,81956,128,2,82128:3:0:0:50:drum-hitwhistle.wav
448,192,81956,128,0,82128:0:0:0:0:
64,192,82299,128,0,82471:0:0:0:50:Tom3.wav
192,192,82299,128,2,82471:3:0:0:50:drum-hitwhistle.wav
320,192,82299,128,0,82471:0:0:0:0:
192,192,82642,128,0,83071:0:0:0:50:Tom4.wav
320,192,82642,128,2,83071:3:0:0:50:drum-hitwhistle.wav
448,192,82642,128,0,83071:0:0:0:0:
64,192,83156,1,2,0:0:0:0:
320,192,83156,1,4,0:0:0:0:
448,192,83156,1,0,0:0:0:0:
192,192,83328,1,0,0:0:0:0:
320,192,83499,1,2,0:0:0:0:
448,192,83499,1,0,0:0:0:0:
192,192,83585,1,0,0:0:0:0:
64,192,83671,128,0,83842:0:0:0:0:
192,192,83756,1,0,0:0:0:0:
320,192,83842,1,2,0:0:0:0:
448,192,83842,128,0,84013:0:0:0:0:
192,192,84013,128,0,84185:0:0:0:0:
320,192,84099,1,0,0:0:0:0:
64,192,84185,1,2,0:0:0:0:
448,192,84185,1,0,0:0:0:0:
320,192,84356,128,0,84528:0:0:0:0:
192,192,84442,1,0,0:0:0:0:
64,192,84528,1,2,0:0:0:0:
448,192,84528,1,0,0:0:0:0:
192,192,84699,128,0,84871:0:0:0:0:
64,192,84871,1,8,0:0:0:0:
320,192,84871,128,0,85042:0:0:0:0:
448,192,84871,1,0,0:0:0:0:
64,192,85042,1,2,0:0:0:0:
192,192,85042,1,4,0:0:0:0:
448,192,85042,1,0,0:0:0:0:
320,192,85599,1,0,0:0:0:0:
64,192,85642,128,8,86413:0:0:0:0:
192,192,85642,128,0,86328:0:0:0:50:Tom3.wav
448,192,85642,128,0,86242:0:0:0:0:
