osu file format v14

[General]
AudioFilename: audio.mp3
AudioLeadIn: 0
PreviewTime: 58299
Countdown: 0
SampleSet: Soft
StackLeniency: 0.7
Mode: 3
LetterboxInBreaks: 0
SpecialStyle: 0
WidescreenStoryboard: 0

[Editor]
DistanceSpacing: 1
BeatDivisor: 4
GridSize: 32
TimelineZoom: 1.4

[Metadata]
Title:Honey Jet Coaster (TV Size)
TitleUnicode:ハニージェットコースター (TV Size)
Artist:nasuo*
ArtistUnicode:なすお☆
Creator:Amiichii
Version:Hard
Source:可愛いだけじゃない式守さん
Tags:crisper kawaii dake ja nai shikimori-san shikimori's miss shikimoris is not just a cutie cute japanese pop j-pop jpop anime op opening theme みっちょん micchon janai
BeatmapID:3557291
BeatmapSetID:1739359

[Difficulty]
HPDrainRate:8
CircleSize:4
OverallDifficulty:7.5
ApproachRate:9.2
SliderMultiplier:1.9
SliderTickRate:1

[Events]
//Background and Video events
Video,-616,"video.avi"
0,0,"bg-hd.jpg",0,0
//Break Periods
//Storyboard Layer 0 (Background)
//Storyboard Layer 1 (Fail)
//Storyboard Layer 2 (Pass)
//Storyboard Layer 3 (Foreground)
//Storyboard Layer 4 (Overlay)
//Storyboard Sound Samples
Sample,27956,0,"drum-hitwhistle.wav",50

[TimingPoints]
871,342.857142857143,4,2,1,50,1,0
58299,-100,4,2,1,50,0,1
69099,-100,4,2,1,50,0,0
69271,-100,4,2,1,50,0,1
83156,-100,4,2,1,50,0,0

[HitObjects]
64,192,528,128,0,3356:0:0:0:0:
448,192,870,128,0,3356:0:0:0:0:
320,192,2585,128,0,3356:0:0:0:0:
64,192,3442,128,2,4642:0:0:0:0:
448,192,3442,1,0,0:0:0:0:
320,192,3785,1,0,0:0:0:0:
448,192,3956,1,0,0:0:0:0:
192,192,4128,1,0,0:0:0:0:
320,192,4299,1,0,0:0:0:0:
448,192,4471,1,0,0:0:0:0:
192,192,4642,1,2,0:0:0:0:
320,192,4642,1,0,0:0:0:0:
64,192,4813,128,2,4985:0:0:0:0:
448,192,4813,128,0,4985:0:0:0:50:Tom1.wav
64,192,5156,128,2,5328:0:0:0:0:
320,192,5156,128,0,5328:0:0:0:50:Tom2.wav
192,192,5499,128,2,5671:0:0:0:0:
448,192,5499,128,0,5671:0:0:0:50:Tom3.wav
320,192,5842,128,2,6185:0:0:0:0:
448,192,5842,128,0,6185:0:0:0:50:Tom4.wav
64,192,6356,1,2,0:0:0:0:
192,192,6356,1,4,0:0:0:0:
448,192,6356,1,0,0:0:0:50:Tom4.wav
64,192,6528,1,2,0:0:0:0:
448,192,6528,1,0,0:0:0:50:Tom4.wav
192,192,6699,1,2,0:0:0:0:
320,192,6699,1,0,0:0:0:0:
192,192,6871,1,8,0:0:0:0:
448,192,6871,1,0,0:0:0:0:
64,192,7042,1,2,0:0:0:0:
320,192,7042,1,0,0:0:0:0:
192,192,7213,1,0,0:0:0:50:Tom2.wav
320,192,7213,1,0,0:0:0:0:
64,192,7385,1,2,0:0:0:0:
448,192,7385,1,0,0:0:0:0:
192,192,7556,1,8,0:0:0:0:
320,192,7556,1,0,0:0:0:0:
448,192,7556,1,0,0:0:0:0:
64,192,7728,1,2,0:0:0:0:
192,192,7728,1,0,0:0:0:0:
320,192,7899,1,0,0:0:0:0:
64,192,8071,1,8,0:0:0:0:
448,192,8071,1,0,0:0:0:0:
192,192,8242,1,0,0:0:0:0:
320,192,8413,1,2,0:0:0:0:
448,192,8413,1,0,0:0:0:0:
64,192,8585,1,8,0:0:0:0:
192,192,8585,1,0,0:0:0:0:
320,192,8585,1,0,0:0:0:0:
64,192,8756,1,2,0:0:0:0:
448,192,8756,1,0,0:0:0:0:
192,192,8928,1,8,0:0:0:0:
320,192,8928,1,0,0:0:0:0:
448,192,8928,1,4,0:0:0:0:
64,192,9099,1,0,0:0:0:0:
192,192,9271,1,0,0:0:0:50:Tom2.wav
320,192,9271,1,0,0:0:0:0:
64,192,9442,1,8,0:0:0:0:
448,192,9442,1,0,0:0:0:0:
192,192,9613,1,2,0:0:0:0:
320,192,9699,1,2,0:0:0:0:
64,192,9785,1,8,0:0:0:0:
448,192,9785,1,0,0:0:0:0:
64,192,9956,1,2,0:0:0:0:
192,192,9956,1,0,0:0:0:0:
320,192,10128,1,0,0:0:0:0:
64,192,10299,1,8,0:0:0:0:
192,192,10299,1,0,0:0:0:0:
448,192,10299,1,4,0:0:0:0:
320,192,10471,1,0,0:0:0:0:
64,192,10642,1,2,0:0:0:0:
448,192,10642,1,8,0:0:0:0:
192,192,10813,1,8,0:0:0:0:
448,192,10813,1,2,0:0:0:0:
64,192,10985,1,8,0:0:0:0:
320,192,10985,1,2,0:0:0:0:
64,192,11156,1,2,0:0:0:0:
192,192,11156,1,8,0:0:0:0:
320,192,11242,1,8,0:0:0:0:
192,192,11328,1,8,0:0:0:0:
448,192,11413,1,8,0:0:0:0:
320,192,11499,1,8,0:0:0:0:
64,192,11585,1,8,0:0:0:0:
192,192,11671,1,2,0:0:0:0:
320,192,11671,1,4,0:0:0:0:
448,192,11671,128,0,13042:0:0:0:0:
64,192,12185,1,8,0:0:0:0:
192,192,12185,1,0,0:0:0:0:
192,192,12528,1,2,0:0:0:0:
320,192,12528,1,0,0:0:0:0:
64,192,12871,1,8,0:0:0:0:
320,192,12871,1,0,0:0:0:0:
64,192,13213,128,2,13556:0:0:0:0:
192,192,13213,1,0,0:0:0:0:
192,192,13556,1,8,0:0:0:0:
320,192,13556,128,0,13728:0:0:0:0:
448,192,13728,128,0,14071:0:0:0:0:
64,192,13899,1,2,0:0:0:0:
320,192,13899,1,0,0:0:0:0:
192,192,14071,128,0,14242:0:0:0:0:
320,192,14242,1,8,0:0:0:0:
448,192,14242,1,0,0:0:0:0:
64,192,14413,128,0,15271:0:0:0:0:
192,192,14585,1,2,0:0:0:0:
320,192,14585,1,0,0:0:0:0:
192,192,14928,1,8,0:0:0:0:
448,192,14928,1,0,0:0:0:0:
320,192,15271,1,2,0:0:0:0:
448,192,15271,1,0,0:0:0:0:
192,192,15442,128,0,15613:0:0:0:0:
448,192,15613,128,8,15785:0:0:0:0:
64,192,15785,128,0,16471:0:0:0:0:
192,192,15956,1,2,0:0:0:0:
320,192,15956,1,0,0:0:0:0:
448,192,16128,1,0,0:0:0:0:
192,192,16299,1,8,0:0:0:0:
320,192,16299,1,0,0:0:0:0:
448,192,16471,128,0,16642:0:0:0:0:
64,192,16642,1,2,0:0:0:0:
192,192,16642,128,0,16813:0:0:0:0:
320,192,16813,128,2,16985:0:0:0:0:
448,192,16813,1,0,0:0:0:0:
64,192,16985,128,8,17156:0:0:0:0:
192,192,16985,1,0,0:0:0:0:
192,192,17156,1,2,0:0:0:0:
320,192,17156,1,4,0:0:0:0:
448,192,17156,128,0,18013:0:0:0:0:
64,192,17499,1,2,0:0:0:0:
192,192,17499,1,0,0:0:0:0:
64,192,17671,1,8,0:0:0:0:
320,192,17671,1,0,0:0:0:0:
192,192,17928,1,8,0:0:0:0:
64,192,18013,1,2,0:0:0:0:
320,192,18013,1,0,0:0:0:0:
192,192,18185,128,2,18356:0:0:0:0:
448,192,18185,1,0,0:0:0:0:
64,192,18356,1,8,0:0:0:0:
320,192,18356,128,0,18528:0:0:0:0:
192,192,18528,1,2,0:0:0:0:
448,192,18528,128,4,19385:0:0:0:0:
64,192,18871,1,2,0:0:0:0:
320,192,18871,1,0,0:0:0:0:
64,192,19042,1,8,0:0:0:0:
192,192,19042,1,0,0:0:0:0:
320,192,19299,1,8,0:0:0:0:
64,192,19385,1,2,0:0:0:0:
192,192,19385,1,0,0:0:0:0:
320,192,19556,128,2,19728:0:0:0:0:
448,192,19556,1,0,0:0:0:0:
64,192,19728,128,8,19899:0:0:0:0:
192,192,19728,1,0,0:0:0:0:
320,192,19899,1,2,0:0:0:0:
448,192,19899,128,4,20242:0:0:0:0:
64,192,20242,1,2,0:0:0:0:
192,192,20242,128,0,20413:0:0:0:0:
320,192,20413,128,8,20585:0:0:0:0:
448,192,20413,1,0,0:0:0:0:
64,192,20585,128,2,20928:0:0:0:0:
192,192,20585,1,4,0:0:0:0:
320,192,20928,1,2,0:0:0:0:
448,192,20928,128,0,21099:0:0:0:0:
64,192,21099,1,8,0:0:0:0:
192,192,21099,128,0,21271:0:0:0:0:
320,192,21271,128,2,21442:0:0:0:0:
448,192,21271,128,4,21442:0:0:0:0:
192,192,21613,128,10,21785:0:0:0:0:
320,192,21613,128,4,21785:0:0:0:0:
64,192,21956,128,10,22128:0:0:0:0:
192,192,21956,128,4,22128:0:0:0:0:
64,192,22299,128,2,22728:0:0:0:0:
320,192,22299,1,8,0:0:0:0:
448,192,22299,128,4,22728:0:0:0:0:
64,192,22813,1,4,0:0:0:0:
320,192,22813,1,2,3:0:0:50:drum-hitwhistle.wav
448,192,22813,1,0,0:0:0:0:
192,192,22985,1,0,0:0:0:0:
320,192,23071,1,0,0:0:0:0:
64,192,23156,1,2,3:0:0:50:drum-hitwhistle.wav
448,192,23156,1,0,0:0:0:0:
192,192,23328,1,0,0:0:0:0:
320,192,23499,1,2,3:0:0:50:drum-hitwhistle.wav
448,192,23499,1,0,0:0:0:0:
64,192,23671,1,0,0:0:0:0:
192,192,23842,1,2,3:0:0:50:drum-hitwhistle.wav
320,192,23842,1,0,0:0:0:0:
448,192,24013,1,0,0:0:0:0:
64,192,24185,1,2,3:0:0:50:drum-hitwhistle.wav
192,192,24185,1,0,0:0:0:0:
320,192,24356,1,0,0:0:0:0:
64,192,24528,1,2,3:0:0:50:drum-hitwhistle.wav
448,192,24528,1,0,0:0:0:0:
192,192,24699,1,0,0:0:0:0:
320,192,24785,1,0,0:0:0:0:
192,192,24871,1,2,3:0:0:50:drum-hitwhistle.wav
448,192,24871,1,0,0:0:0:0:
64,192,25042,1,0,0:0:0:0:
64,192,25213,1,2,3:0:0:50:drum-hitwhistle.wav
320,192,25213,1,0,0:0:0:0:
448,192,25385,1,0,0:0:0:0:
64,192,25556,1,2,3:0:0:50:drum-hitwhistle.wav
192,192,25556,1,0,0:0:0:0:
320,192,25728,1,0,0:0:0:0:
320,192,25899,1,2,3:0:0:50:drum-hitwhistle.wav
448,192,25899,1,0,0:0:0:0:
192,192,26071,1,0,0:0:0:0:
64,192,26242,1,2,3:0:0:50:drum-hitwhistle.wav
448,192,26242,1,0,0:0:0:0:
320,192,26413,1,0,0:0:0:0:
64,192,26585,1,2,3:0:0:50:drum-hitwhistle.wav
192,192,26585,1,0,0:0:0:0:
448,192,26756,1,0,0:0:0:0:
192,192,26928,1,2,3:0:0:50:drum-hitwhistle.wav
320,192,26928,1,0,0:0:0:0:
64,192,27099,1,0,0:0:0:0:
320,192,27271,1,2,3:0:0:50:drum-hitwhistle.wav
448,192,27271,1,0,0:0:0:0:
64,192,27442,1,8,0:0:0:0:
192,192,27442,1,0,0:0:0:0:
320,192,27613,1,2,3:0:0:50:drum-hitwhistle.wav
448,192,27613,1,0,0:0:0:0:
64,192,27785,1,0,0:0:0:50:soft-hitclap99.wav
448,192,27785,1,0,0:0:0:0:
64,192,27956,1,0,0:0:0:50:soft-hitclap99.wav
192,192,28042,1,0,0:0:0:0:
320,192,28128,1,0,0:0:0:0:
448,192,28213,1,0,0:0:0:0:
64,192,28299,128,2,28385:3:0:0:50:drum-hitwhistle.wav
192,192,28299,1,0,0:0:0:0:
320,192,28471,1,0,0:0:0:0:
192,192,28556,1,0,0:0:0:0:
64,192,28642,1,2,3:0:0:50:drum-hitwhistle.wav
448,192,28642,1,0,0:0:0:0:
320,192,28813,128,0,28899:0:0:0:0:
192,192,28899,1,0,0:0:0:0:
64,192,28985,1,2,3:0:0:50:drum-hitwhistle.wav
448,192,28985,1,0,0:0:0:0:
320,192,29156,1,0,0:0:0:0:
64,192,29328,1,2,3:0:0:50:drum-hitwhistle.wav
192,192,29328,128,0,29413:0:0:0:0:
448,192,29499,1,0,0:0:0:0:
192,192,29671,1,2,3:0:0:50:drum-hitwhistle.wav
320,192,29671,128,0,29756:0:0:0:0:
64,192,29842,1,0,0:0:0:0:
320,192,30013,1,2,3:0:0:50:drum-hitwhistle.wav
448,192,30013,1,0,0:0:0:0:
192,192,30185,128,0,30271:0:0:0:0:
64,192,30356,1,2,3:0:0:50:drum-hitwhistle.wav
320,192,30356,1,0,0:0:0:0:
448,192,30528,128,0,30613:0:0:0:0:
64,192,30699,128,2,30785:3:0:0:50:drum-hitwhistle.wav
448,192,30699,1,0,0:0:0:0:
192,192,30871,1,8,0:0:0:0:
320,192,31042,128,2,31128:3:0:0:50:drum-hitwhistle.wav
448,192,31042,1,0,0:0:0:0:
64,192,31213,1,0,0:0:0:0:
192,192,31385,1,2,3:0:0:50:drum-hitwhistle.wav
320,192,31385,1,0,0:0:0:0:
448,192,31556,128,0,31642:0:0:0:0:
64,192,31728,1,2,3:0:0:50:drum-hitwhistle.wav
192,192,31728,1,0,0:0:0:0:
320,192,31899,1,0,0:0:0:0:
64,192,32071,128,2,32156:3:0:0:50:drum-hitwhistle.wav
448,192,32071,1,0,0:0:0:0:
192,192,32242,1,0,0:0:0:0:
64,192,32413,1,4,0:0:0:0:
320,192,32413,1,2,3:0:0:50:drum-hitwhistle.wav
448,192,32413,128,0,32756:0:0:0:0:
192,192,32585,1,0,0:0:0:0:
64,192,32756,1,0,0:0:0:0:
320,192,32756,1,8,0:0:0:0:
192,192,32928,128,2,33099:0:0:0:0:
448,192,32928,128,4,33099:0:0:0:0:
64,192,33271,1,0,0:0:0:50:soft-hitclap99.wav
448,192,33271,1,0,0:0:0:0:
64,192,33442,1,0,0:0:0:50:soft-hitclap99.wav
448,192,33442,1,0,0:0:0:0:
64,192,33785,1,2,0:0:0:0:
192,192,33785,1,4,0:0:0:0:
448,192,33785,128,0,33956:0:0:0:0:
320,192,33956,1,0,0:0:0:0:
64,192,34128,1,2,0:0:0:0:
192,192,34128,1,0,0:0:0:0:
320,192,34299,1,0,0:0:0:0:
192,192,34385,1,0,0:0:0:0:
64,192,34471,1,2,0:0:0:0:
448,192,34471,1,0,0:0:0:0:
448,192,34642,1,0,0:0:0:0:
64,192,34813,1,8,0:0:0:0:
320,192,34813,1,2,0:0:0:0:
64,192,34985,1,0,0:0:0:0:
192,192,35156,128,2,35328:0:0:0:0:
320,192,35156,1,0,0:0:0:0:
448,192,35328,1,0,0:0:0:0:
64,192,35499,1,2,0:0:0:0:
192,192,35499,1,0,0:0:0:0:
320,192,35671,1,0,0:0:0:0:
64,192,35842,1,2,0:0:0:0:
448,192,35842,1,0,0:0:0:0:
64,192,36013,1,0,0:0:0:0:
320,192,36185,1,2,0:0:0:0:
448,192,36185,1,8,0:0:0:0:
320,192,36356,1,0,0:0:0:0:
64,192,36528,128,2,36699:0:0:0:0:
192,192,36528,1,0,0:0:0:0:
448,192,36699,1,0,0:0:0:0:
192,192,36871,1,2,0:0:0:0:
320,192,36871,1,0,0:0:0:0:
64,192,37042,1,0,0:0:0:0:
320,192,37213,1,2,0:0:0:0:
448,192,37213,1,0,0:0:0:0:
320,192,37385,1,0,0:0:0:0:
64,192,37556,1,2,0:0:0:0:
192,192,37556,1,8,0:0:0:0:
64,192,37728,1,0,0:0:0:0:
192,192,37899,128,2,38071:3:0:0:50:drum-hitwhistle.wav
448,192,37899,128,0,38071:0:0:0:0:
64,192,38242,128,2,38413:3:0:0:50:drum-hitwhistle.wav
320,192,38242,128,0,38413:0:0:0:0:
64,192,38585,128,2,38756:3:0:0:50:drum-hitwhistle.wav
192,192,38585,128,0,38756:0:0:0:0:
64,192,38928,1,2,3:0:0:50:drum-hitwhistle.wav
448,192,38928,1,0,0:0:0:0:
192,192,39013,1,0,0:0:0:0:
320,192,39099,1,0,0:0:0:0:
448,192,39185,1,0,0:0:0:0:
64,192,39271,128,2,39442:0:0:0:0:
192,192,39271,1,4,0:0:0:0:
320,192,39271,1,0,0:0:0:0:
448,192,39442,1,0,0:0:0:0:
64,192,39613,1,2,0:0:0:0:
192,192,39613,1,0,0:0:0:0:
320,192,39785,1,0,0:0:0:0:
192,192,39871,1,0,0:0:0:0:
64,192,39956,1,2,0:0:0:0:
448,192,39956,1,0,0:0:0:0:
448,192,40128,1,0,0:0:0:0:
64,192,40299,1,8,0:0:0:0:
192,192,40299,1,2,0:0:0:0:
192,192,40471,1,0,0:0:0:0:
64,192,40642,1,2,0:0:0:0:
448,192,40642,128,0,40813:0:0:0:0:
320,192,40813,1,0,0:0:0:0:
64,192,40985,1,2,0:0:0:0:
192,192,40985,1,0,0:0:0:0:
448,192,41156,1,0,0:0:0:0:
192,192,41328,1,2,0:0:0:0:
320,192,41328,1,0,0:0:0:0:
192,192,41499,1,0,0:0:0:0:
64,192,41671,1,2,0:0:0:0:
448,192,41671,1,8,0:0:0:0:
448,192,41842,1,0,0:0:0:0:
64,192,42013,128,2,42185:0:0:0:0:
320,192,42013,1,0,0:0:0:0:
192,192,42185,1,0,0:0:0:0:
320,192,42356,1,2,0:0:0:0:
448,192,42356,1,0,0:0:0:0:
64,192,42528,1,0,0:0:0:0:
192,192,42699,1,2,0:0:0:0:
448,192,42699,1,0,0:0:0:0:
448,192,42871,1,0,0:0:0:0:
64,192,43042,1,2,0:0:0:0:
320,192,43042,1,0,0:0:0:0:
64,192,43213,1,0,0:0:0:0:
192,192,43385,1,4,0:0:0:0:
320,192,43385,1,2,3:0:0:50:drum-hitwhistle.wav
448,192,43385,128,0,43728:0:0:0:0:
64,192,43556,1,0,0:0:0:0:
192,192,43728,1,2,3:0:0:50:drum-hitwhistle.wav
320,192,43728,128,0,44071:0:0:0:0:
64,192,43899,1,0,0:0:0:50:Tom2.wav
192,192,44071,128,2,44413:3:0:0:50:drum-hitwhistle.wav
448,192,44071,1,0,0:0:0:0:
320,192,44242,1,0,0:0:0:50:Tom3.wav
64,192,44413,128,2,44756:3:0:0:50:drum-hitwhistle.wav
448,192,44413,1,0,0:0:0:0:
320,192,44585,1,0,0:0:0:50:Tom4.wav
192,192,44671,1,0,0:0:0:50:Tom4.wav
320,192,44756,1,2,0:0:0:0:
448,192,44756,128,4,46128:0:0:0:0:
64,192,45271,1,0,0:0:0:0:
320,192,45442,1,0,0:0:0:0:
192,192,45613,1,0,0:0:0:0:
64,192,45956,1,0,0:0:0:0:
320,192,46042,1,0,0:0:0:0:
64,192,46128,128,0,47499:0:0:0:0:
192,192,46128,1,0,0:0:0:0:
320,192,46299,1,0,0:0:0:0:
448,192,46642,128,0,47156:0:0:0:0:
192,192,47156,1,0,0:0:0:0:
320,192,47328,1,0,0:0:0:0:
192,192,47499,1,0,0:0:0:0:
448,192,47499,128,0,48871:0:0:0:0:
320,192,47671,1,0,0:0:0:0:
64,192,47842,1,0,0:0:0:0:
192,192,48013,1,0,0:0:0:0:
320,192,48185,1,0,0:0:0:0:
64,192,48356,1,0,0:0:0:0:
192,192,48699,1,0,0:0:0:0:
64,192,48871,128,0,50071:0:0:0:0:
320,192,48871,1,0,0:0:0:0:
192,192,49385,1,0,0:0:0:0:
448,192,49556,1,0,0:0:0:0:
320,192,49728,1,0,0:0:0:0:
192,192,50071,1,2,0:0:0:0:
320,192,50071,1,4,0:0:0:0:
448,192,50071,128,0,50413:0:0:0:0:
192,192,50413,1,2,0:0:0:0:
64,192,50585,1,8,0:0:0:0:
320,192,50585,1,0,0:0:0:0:
448,192,50756,1,0,0:0:0:0:
320,192,50842,1,0,0:0:0:0:
64,192,50928,1,2,0:0:0:0:
64,192,51099,1,2,0:0:0:0:
192,192,51271,1,8,0:0:0:0:
448,192,51271,1,0,0:0:0:0:
320,192,51442,1,2,0:0:0:0:
64,192,51613,1,0,0:0:0:0:
448,192,51785,1,2,0:0:0:0:
64,192,51956,1,8,0:0:0:0:
320,192,51956,1,0,0:0:0:0:
192,192,52128,1,0,0:0:0:0:
320,192,52213,1,0,0:0:0:0:
448,192,52299,1,2,0:0:0:0:
448,192,52471,1,2,0:0:0:0:
64,192,52642,1,8,0:0:0:0:
192,192,52642,1,0,0:0:0:0:
64,192,52813,1,2,0:0:0:0:
320,192,52813,1,4,0:0:0:0:
448,192,52813,128,0,53156:0:0:0:0:
192,192,53156,1,2,0:0:0:0:
64,192,53328,1,8,0:0:0:0:
320,192,53328,1,0,0:0:0:0:
448,192,53499,1,2,0:0:0:0:
192,192,53671,1,8,0:0:0:0:
320,192,53671,1,0,0:0:0:0:
64,192,53842,1,0,0:0:0:0:
192,192,54013,1,8,0:0:0:0:
448,192,54013,1,0,0:0:0:0:
320,192,54185,1,2,0:0:0:0:
64,192,54356,1,8,0:0:0:0:
448,192,54356,1,0,0:0:0:0:
192,192,54528,1,2,0:0:0:0:
320,192,54699,1,8,0:0:0:0:
448,192,54699,1,0,0:0:0:0:
192,192,54871,1,2,0:0:0:0:
320,192,54956,1,2,0:0:0:0:
64,192,55042,1,8,0:0:0:0:
448,192,55042,1,0,0:0:0:0:
192,192,55213,1,2,0:0:0:0:
64,192,55385,1,8,0:0:0:0:
320,192,55385,1,0,0:0:0:0:
192,192,55556,1,2,0:0:0:0:
448,192,55556,128,4,55899:0:0:0:0:
64,192,55899,1,2,0:0:0:0:
192,192,56071,1,8,0:0:0:0:
320,192,56071,1,0,0:0:0:0:
448,192,56242,1,2,0:0:0:0:
320,192,56328,1,2,0:0:0:0:
64,192,56413,1,0,0:0:0:50:Tom3.wav
192,192,56413,1,0,0:0:0:0:
448,192,56585,1,8,0:0:0:0:
320,192,56671,1,8,0:0:0:0:
64,192,56756,1,8,0:0:0:0:
192,192,56842,1,8,0:0:0:0:
320,192,56928,1,2,0:0:0:0:
448,192,56928,1,0,0:0:0:0:
64,192,57442,128,0,57956:0:0:0:0:
192,192,57613,128,0,57956:0:0:0:0:
448,192,57785,128,0,58213:0:0:0:0:
320,192,57956,128,0,58213:0:0:0:0:
64,192,58299,1,2,0:0:0:0:
192,192,58299,1,4,0:0:0:0:
448,192,58299,128,0,58642:0:0:0:0:
192,192,58642,1,0,0:0:0:0:
64,192,58813,1,8,0:0:0:0:
320,192,58813,1,0,0:0:0:0:
448,192,58985,1,0,0:0:0:0:
192,192,59156,1,2,0:0:0:0:
320,192,59156,1,0,0:0:0:0:
64,192,59328,1,0,0:0:0:0:
320,192,59499,1,8,0:0:0:0:
448,192,59499,1,0,0:0:0:0:
192,192,59671,1,0,0:0:0:0:
64,192,59842,128,2,60185:0:0:0:0:
448,192,59842,1,0,0:0:0:0:
320,192,60185,1,8,0:0:0:0:
448,192,60185,1,0,0:0:0:0:
192,192,60356,128,0,60528:0:0:0:0:
64,192,60528,1,2,0:0:0:0:
320,192,60528,1,0,0:0:0:0:
448,192,60699,128,0,60871:0:0:0:0:
64,192,60871,1,8,0:0:0:0:
192,192,60871,1,0,0:0:0:0:
320,192,61042,1,0,0:0:0:0:
64,192,61213,1,2,0:0:0:0:
448,192,61213,1,0,0:0:0:0:
192,192,61385,1,0,0:0:0:0:
320,192,61556,1,8,0:0:0:0:
448,192,61556,1,0,0:0:0:0:
64,192,61728,1,0,0:0:0:0:
192,192,61899,1,2,0:0:0:0:
320,192,61899,1,0,0:0:0:0:
448,192,62071,128,0,62242:0:0:0:0:
64,192,62242,1,8,0:0:0:0:
192,192,62242,1,0,0:0:0:0:
320,192,62413,128,0,62585:0:0:0:0:
64,192,62585,1,2,0:0:0:0:
448,192,62585,1,0,0:0:0:0:
192,192,62756,128,0,62928:0:0:0:0:
320,192,62928,128,8,63099:0:0:0:0:
448,192,62928,1,0,0:0:0:0:
64,192,63099,128,0,63271:0:0:0:0:
320,192,63271,1,2,0:0:0:0:
448,192,63271,1,0,0:0:0:0:
64,192,63442,1,8,0:0:0:0:
320,192,63613,1,2,0:0:0:0:
448,192,63613,1,0,0:0:0:0:
64,192,63785,1,8,0:0:0:0:
192,192,63956,1,2,0:0:0:0:
320,192,63956,1,4,0:0:0:0:
448,192,64128,1,0,0:0:0:0:
64,192,64299,1,8,0:0:0:0:
192,192,64299,1,0,0:0:0:0:
320,192,64471,1,0,0:0:0:0:
64,192,64642,1,2,0:0:0:0:
448,192,64642,1,0,0:0:0:0:
192,192,64813,1,0,0:0:0:0:
64,192,64985,1,8,0:0:0:0:
320,192,64985,1,0,0:0:0:0:
448,192,65156,1,0,0:0:0:0:
192,192,65328,1,2,0:0:0:0:
320,192,65328,1,0,0:0:0:0:
64,192,65499,1,0,0:0:0:0:
192,192,65671,1,8,0:0:0:0:
448,192,65671,1,0,0:0:0:0:
320,192,65842,1,0,0:0:0:0:
64,192,66013,1,2,0:0:0:0:
448,192,66013,1,0,0:0:0:0:
192,192,66185,1,2,0:0:0:0:
320,192,66185,1,0,0:0:0:0:
192,192,66356,1,8,0:0:0:0:
448,192,66356,1,0,0:0:0:0:
64,192,66528,128,2,66871:0:0:0:0:
448,192,66528,1,4,0:0:0:0:
192,192,66871,1,2,0:0:0:0:
320,192,67042,1,8,0:0:0:0:
448,192,67042,1,0,0:0:0:0:
64,192,67213,1,2,0:0:0:0:
320,192,67385,1,8,0:0:0:0:
448,192,67385,1,0,0:0:0:0:
320,192,67556,1,8,0:0:0:0:
448,192,67556,1,0,0:0:0:0:
192,192,67728,1,2,0:0:0:0:
64,192,67899,1,8,0:0:0:0:
448,192,67899,1,0,0:0:0:0:
320,192,68071,1,2,0:0:0:0:
64,192,68242,1,8,0:0:0:0:
192,192,68242,1,0,0:0:0:0:
64,192,68413,1,8,0:0:0:0:
192,192,68413,1,0,0:0:0:0:
320,192,68585,1,2,0:0:0:0:
64,192,68756,1,8,0:0:0:0:
192,192,68842,1,8,0:0:0:0:
448,192,68928,1,8,0:0:0:0:
320,192,69013,1,8,0:0:0:0:
64,192,69099,1,8,0:0:0:0:
192,192,69185,1,8,0:0:0:0:
64,192,69271,1,2,0:0:0:0:
320,192,69271,1,4,0:0:0:0:
448,192,69271,128,0,69613:0:0:0:0:
192,192,69613,1,0,0:0:0:0:
64,192,69785,1,8,0:0:0:0:
320,192,69785,1,0,0:0:0:0:
448,192,69956,1,0,0:0:0:0:
64,192,70128,1,2,0:0:0:0:
192,192,70128,1,0,0:0:0:0:
320,192,70299,1,0,0:0:0:0:
192,192,70471,1,8,0:0:0:0:
448,192,70471,1,0,0:0:0:0:
64,192,70642,1,0,0:0:0:0:
320,192,70813,1,2,0:0:0:0:
448,192,70813,1,0,0:0:0:0:
192,192,70985,1,0,0:0:0:0:
64,192,71156,1,8,0:0:0:0:
448,192,71156,1,0,0:0:0:0:
320,192,71328,128,0,71499:0:0:0:0:
64,192,71499,1,2,0:0:0:0:
192,192,71499,1,0,0:0:0:0:
448,192,71671,128,0,71842:0:0:0:0:
192,192,71842,1,8,0:0:0:0:
320,192,71842,1,0,0:0:0:0:
64,192,72013,1,0,0:0:0:0:
192,192,72185,1,2,0:0:0:0:
448,192,72185,1,0,0:0:0:0:
320,192,72356,1,0,0:0:0:0:
64,192,72528,1,8,0:0:0:0:
448,192,72528,1,0,0:0:0:0:
192,192,72699,1,0,0:0:0:0:
320,192,72871,1,2,0:0:0:0:
448,192,72871,1,0,0:0:0:0:
64,192,73042,1,2,0:0:0:0:
192,192,73042,1,0,0:0:0:0:
64,192,73213,1,8,0:0:0:0:
320,192,73213,1,0,0:0:0:0:
192,192,73385,1,2,0:0:0:0:
448,192,73385,128,4,73728:0:0:0:0:
64,192,73728,1,2,0:0:0:0:
192,192,73899,1,8,0:0:0:0:
448,192,73899,1,0,0:0:0:0:
320,192,74071,1,2,0:0:0:0:
64,192,74242,1,8,0:0:0:0:
192,192,74242,1,0,0:0:0:0:
448,192,74413,1,2,0:0:0:0:
64,192,74585,1,8,0:0:0:0:
320,192,74585,1,0,0:0:0:0:
64,192,74756,128,2,75099:0:0:0:0:
192,192,74756,1,4,0:0:0:0:
448,192,74756,1,0,0:0:0:0:
320,192,75099,1,2,0:0:0:0:
192,192,75271,1,8,0:0:0:0:
448,192,75271,1,0,0:0:0:0:
64,192,75442,1,2,0:0:0:0:
192,192,75528,1,2,3:0:0:50:drum-hitwhistle.wav
320,192,75613,1,2,0:0:0:0:
448,192,75613,1,0,0:0:0:0:
320,192,75785,1,2,0:0:0:0:
64,192,75956,1,8,0:0:0:0:
192,192,75956,1,0,0:0:0:0:
320,192,76128,128,2,76299:0:0:0:0:
448,192,76128,128,4,76299:0:0:0:0:
192,192,76471,128,2,76642:0:0:0:0:
320,192,76471,128,4,76642:0:0:0:0:
448,192,76642,1,8,0:0:0:0:
64,192,76813,128,2,76985:0:0:0:0:
192,192,76813,128,4,76985:0:0:0:0:
320,192,77156,128,4,77328:0:0:0:0:
448,192,77156,128,2,77328:0:0:0:0:
64,192,77499,128,2,77842:0:0:0:0:
192,192,77499,1,4,0:0:0:0:
448,192,77499,128,0,77842:0:0:0:0:
320,192,77842,1,2,0:0:0:0:
192,192,77928,1,0,0:0:0:0:
64,192,78013,1,8,0:0:0:0:
448,192,78013,1,0,0:0:0:0:
192,192,78185,1,0,0:0:0:0:
320,192,78271,1,2,3:0:0:50:drum-hitwhistle.wav
64,192,78356,1,2,0:0:0:0:
448,192,78356,1,0,0:0:0:0:
192,192,78528,1,2,0:0:0:0:
320,192,78699,1,8,0:0:0:0:
448,192,78699,1,0,0:0:0:0:
64,192,78871,128,2,79213:0:0:0:0:
192,192,78871,1,4,0:0:0:0:
320,192,78871,1,0,0:0:0:0:
448,192,79213,1,2,0:0:0:0:
192,192,79385,1,8,0:0:0:0:
320,192,79385,1,0,0:0:0:0:
64,192,79556,1,2,0:0:0:0:
320,192,79728,1,8,0:0:0:0:
448,192,79728,1,0,0:0:0:0:
192,192,79899,1,2,0:0:0:0:
64,192,80071,1,8,0:0:0:0:
320,192,80071,1,0,0:0:0:0:
64,192,80242,1,2,0:0:0:0:
192,192,80242,1,4,0:0:0:0:
448,192,80242,128,0,80585:0:0:0:0:
64,192,80585,1,8,0:0:0:0:
192,192,80585,1,2,0:0:0:0:
64,192,80756,1,8,0:0:0:0:
320,192,80756,1,2,0:0:0:0:
192,192,80928,1,8,0:0:0:0:
448,192,80928,1,2,0:0:0:0:
320,192,81099,1,8,0:0:0:0:
448,192,81099,1,2,0:0:0:0:
64,192,81271,1,8,0:0:0:0:
192,192,81271,1,2,0:0:0:0:
64,192,81442,1,8,0:0:0:0:
320,192,81442,1,2,0:0:0:0:
192,192,81613,128,10,81785:0:0:0:0:
448,192,81613,128,0,81785:0:0:0:50:Tom1.wav
64,192,81956,128,0,82128:0:0:0:50:Tom2.wav
320,192,81956,128,2,82128:3:0:0:50:drum-hitwhistle.wav
64,192,82299,128,0,82471:0:0:0:50:Tom3.wav
192,192,82299,128,2,82471:3:0:0:50:drum-hitwhistle.wav
64,192,82642,128,0,82985:0:0:0:50:Tom4.wav
448,192,82642,128,2,82985:3:0:0:50:drum-hitwhistle.wav
320,192,82813,1,0,0:0:0:0:
192,192,82985,1,0,0:0:0:0:
64,192,83156,1,2,0:0:0:0:
320,192,83156,1,4,0:0:0:0:
448,192,83156,1,0,0:0:0:0:
192,192,83328,1,0,0:0:0:0:
64,192,83499,1,2,0:0:0:0:
448,192,83499,1,0,0:0:0:0:
320,192,83671,1,0,0:0:0:0:
192,192,83756,1,0,0:0:0:0:
320,192,83842,1,2,0:0:0:0:
448,192,83842,1,0,0:0:0:0:
192,192,84013,1,0,0:0:0:0:
320,192,84099,1,0,0:0:0:0:
64,192,84185,1,2,0:0:0:0:
448,192,84185,1,0,0:0:0:0:
192,192,84356,1,0,0:0:0:0:
320,192,84442,1,0,0:0:0:0:
64,192,84528,1,2,0:0:0:0:
192,192,84528,1,0,0:0:0:0:
448,192,84699,1,0,0:0:0:0:
192,192,84871,1,8,0:0:0:0:
320,192,84871,1,0,0:0:0:0:
64,192,85042,1,2,0:0:0:0:
320,192,85042,1,4,0:0:0:0:
448,192,85042,1,0,0:0:0:0:
320,192,85599,1,0,0:0:0:0:
64,192,85642,128,8,86413:0:0:0:0:
192,192,85642,128,0,86413:0:0:0:50:Tom3.wav
448,192,85642,128,0,86413:0:0:0:0:
