osu file format v14

[General]
AudioFilename: audio.mp3
AudioLeadIn: 0
PreviewTime: 58299
Countdown: 0
SampleSet: Soft
StackLeniency: 0.7
Mode: 3
LetterboxInBreaks: 0
SpecialStyle: 0
WidescreenStoryboard: 0

[Editor]
DistanceSpacing: 1
BeatDivisor: 4
GridSize: 32
TimelineZoom: 1.4

[Metadata]
Title:Honey Jet Coaster (TV Size)
TitleUnicode:ハニージェットコースター (TV Size)
Artist:nasuo*
ArtistUnicode:なすお☆
Creator:Amiichii
Version:Easy
Source:可愛いだけじゃない式守さん
Tags:crisper kawaii dake ja nai shikimori-san shikimori's miss shikimoris is not just a cutie cute japanese pop j-pop jpop anime op opening theme みっちょん micchon janai
BeatmapID:3557290
BeatmapSetID:1739359

[Difficulty]
HPDrainRate:7
CircleSize:4
OverallDifficulty:7
ApproachRate:9.2
SliderMultiplier:1.9
SliderTickRate:1

[Events]
//Background and Video events
Video,-616,"video.avi"
0,0,"bg-ez.jpg",0,0
//Break Periods
//Storyboard Layer 0 (Background)
//Storyboard Layer 1 (Fail)
//Storyboard Layer 2 (Pass)
//Storyboard Layer 3 (Foreground)
//Storyboard Layer 4 (Overlay)
//Storyboard Sound Samples
Sample,27956,0,"drum-hitwhistle.wav",50
Sample,81613,0,"Tom1.wav",50
Sample,81956,0,"drum-hitwhistle.wav",50
Sample,82299,0,"drum-hitwhistle.wav",50
Sample,82642,0,"drum-hitwhistle.wav",50

[TimingPoints]
871,342.857142857143,4,2,1,50,1,0
58299,-100,4,2,1,50,0,1
69099,-100,4,2,1,50,0,0
69271,-100,4,2,1,50,0,1
83156,-100,4,2,1,50,0,0

[HitObjects]
448,192,528,128,0,3442:0:0:0:0:
64,192,3442,128,2,3785:0:0:0:0:
320,192,3785,1,0,0:0:0:0:
192,192,3956,128,0,4299:0:0:0:0:
448,192,4299,128,0,4642:0:0:0:0:
64,192,4642,1,2,0:0:0:0:
192,192,4813,1,2,0:0:0:0:
320,192,4813,1,0,0:0:0:50:Tom1.wav
64,192,5156,1,2,0:0:0:0:
448,192,5156,1,0,0:0:0:50:Tom2.wav
192,192,5499,1,2,0:0:0:0:
448,192,5499,1,0,0:0:0:50:Tom3.wav
64,192,5842,128,2,6356:0:0:0:0:
192,192,5842,1,0,0:0:0:50:Tom4.wav
320,192,6356,1,6,0:0:0:0:
448,192,6356,1,0,0:0:0:50:Tom4.wav
192,192,6699,1,2,0:0:0:0:
448,192,6871,1,8,0:0:0:0:
64,192,7042,1,2,0:0:0:0:
320,192,7213,1,0,0:0:0:50:Tom2.wav
64,192,7556,1,8,0:0:0:0:
192,192,7556,1,0,0:0:0:0:
448,192,7899,1,0,0:0:0:0:
64,192,8071,1,8,0:0:0:0:
320,192,8242,1,0,0:0:0:0:
192,192,8585,1,8,0:0:0:0:
448,192,8928,1,12,0:0:0:0:
64,192,9271,1,0,0:0:0:50:Tom2.wav
448,192,9442,1,8,0:0:0:0:
64,192,9613,1,2,0:0:0:0:
448,192,9785,1,8,0:0:0:0:
192,192,9956,1,2,0:0:0:0:
320,192,10299,1,12,0:0:0:0:
64,192,10642,1,10,0:0:0:0:
448,192,10813,1,10,0:0:0:0:
192,192,10985,1,10,0:0:0:0:
320,192,11156,128,10,11671:0:0:0:0:
64,192,11671,128,2,12185:0:0:0:0:
448,192,11671,1,4,0:0:0:0:
320,192,12185,1,8,0:0:0:0:
192,192,12528,1,2,0:0:0:0:
448,192,12871,1,8,0:0:0:0:
64,192,13213,1,2,0:0:0:0:
320,192,13556,1,8,0:0:0:0:
448,192,13899,1,2,0:0:0:0:
64,192,14242,1,8,0:0:0:0:
448,192,14585,1,2,0:0:0:0:
320,192,14928,1,8,0:0:0:0:
64,192,15271,1,2,0:0:0:0:
192,192,15613,1,8,0:0:0:0:
448,192,15956,1,2,0:0:0:0:
64,192,16299,1,8,0:0:0:0:
320,192,16642,1,2,0:0:0:0:
192,192,16985,1,8,0:0:0:0:
320,192,17156,1,2,0:0:0:0:
448,192,17156,1,4,0:0:0:0:
64,192,17499,1,2,0:0:0:0:
448,192,17671,1,8,0:0:0:0:
192,192,18013,1,2,0:0:0:0:
320,192,18356,1,8,0:0:0:0:
64,192,18528,1,2,0:0:0:0:
192,192,18528,1,4,0:0:0:0:
448,192,18871,1,2,0:0:0:0:
64,192,19042,1,8,0:0:0:0:
320,192,19385,1,2,0:0:0:0:
192,192,19556,1,2,0:0:0:0:
320,192,19728,1,8,0:0:0:0:
64,192,19899,1,2,0:0:0:0:
448,192,19899,1,4,0:0:0:0:
192,192,20242,1,2,0:0:0:0:
320,192,20413,1,8,0:0:0:0:
64,192,20585,1,6,0:0:0:0:
320,192,20928,1,2,0:0:0:0:
64,192,21099,1,8,0:0:0:0:
448,192,21271,1,6,0:0:0:0:
192,192,21613,1,14,0:0:0:0:
64,192,21956,1,14,0:0:0:0:
448,192,22299,128,14,22813:0:0:0:0:
64,192,22813,1,4,0:0:0:0:
192,192,22813,1,2,3:0:0:50:drum-hitwhistle.wav
320,192,23156,1,2,3:0:0:50:drum-hitwhistle.wav
192,192,23499,1,2,3:0:0:50:drum-hitwhistle.wav
448,192,23842,1,2,3:0:0:50:drum-hitwhistle.wav
64,192,24185,1,2,3:0:0:50:drum-hitwhistle.wav
320,192,24528,1,2,3:0:0:50:drum-hitwhistle.wav
448,192,24871,1,2,3:0:0:50:drum-hitwhistle.wav
192,192,25213,1,2,3:0:0:50:drum-hitwhistle.wav
64,192,25556,1,2,3:0:0:50:drum-hitwhistle.wav
320,192,25899,1,2,3:0:0:50:drum-hitwhistle.wav
192,192,26242,1,2,3:0:0:50:drum-hitwhistle.wav
448,192,26585,1,2,3:0:0:50:drum-hitwhistle.wav
320,192,26928,1,2,3:0:0:50:drum-hitwhistle.wav
64,192,27271,1,2,3:0:0:50:drum-hitwhistle.wav
320,192,27442,1,8,0:0:0:0:
192,192,27613,1,2,3:0:0:50:drum-hitwhistle.wav
448,192,27785,1,0,0:0:0:50:soft-hitclap99.wav
448,192,27956,1,0,0:0:0:50:soft-hitclap99.wav
64,192,28299,1,2,3:0:0:50:drum-hitwhistle.wav
192,192,28642,1,2,3:0:0:50:drum-hitwhistle.wav
320,192,28985,1,2,3:0:0:50:drum-hitwhistle.wav
448,192,29328,1,2,3:0:0:50:drum-hitwhistle.wav
64,192,29671,1,2,3:0:0:50:drum-hitwhistle.wav
320,192,30013,1,2,3:0:0:50:drum-hitwhistle.wav
192,192,30356,1,2,3:0:0:50:drum-hitwhistle.wav
320,192,30699,1,2,3:0:0:50:drum-hitwhistle.wav
64,192,30871,1,8,0:0:0:0:
448,192,31042,1,2,3:0:0:50:drum-hitwhistle.wav
192,192,31385,1,2,3:0:0:50:drum-hitwhistle.wav
320,192,31728,1,2,3:0:0:50:drum-hitwhistle.wav
64,192,32071,1,2,3:0:0:50:drum-hitwhistle.wav
320,192,32413,1,4,0:0:0:0:
448,192,32413,128,2,32756:3:0:0:50:drum-hitwhistle.wav
192,192,32756,1,8,0:0:0:0:
320,192,32928,1,6,0:0:0:0:
64,192,33271,1,0,0:0:0:50:soft-hitclap99.wav
64,192,33442,1,0,0:0:0:50:soft-hitclap99.wav
192,192,33785,1,2,0:0:0:0:
320,192,33785,1,4,0:0:0:0:
448,192,34128,1,2,0:0:0:0:
320,192,34299,1,0,0:0:0:0:
64,192,34471,128,2,34813:0:0:0:0:
448,192,34813,128,10,35156:0:0:0:0:
192,192,35156,1,2,0:0:0:0:
320,192,35156,1,0,0:0:0:0:
64,192,35499,1,2,0:0:0:0:
192,192,35671,1,0,0:0:0:0:
448,192,35842,128,2,36185:0:0:0:0:
192,192,36185,128,10,36528:0:0:0:0:
320,192,36528,1,2,0:0:0:0:
448,192,36528,1,0,0:0:0:0:
64,192,36871,1,2,0:0:0:0:
320,192,37042,1,0,0:0:0:0:
192,192,37213,128,2,37556:0:0:0:0:
448,192,37556,128,10,37899:0:0:0:0:
64,192,37899,1,2,3:0:0:50:drum-hitwhistle.wav
320,192,38242,1,2,3:0:0:50:drum-hitwhistle.wav
192,192,38585,1,2,3:0:0:50:drum-hitwhistle.wav
64,192,38928,1,2,3:0:0:50:drum-hitwhistle.wav
320,192,39271,1,2,0:0:0:0:
448,192,39271,1,4,0:0:0:0:
192,192,39613,1,2,0:0:0:0:
448,192,39785,1,0,0:0:0:0:
64,192,39956,128,2,40299:0:0:0:0:
320,192,40299,128,10,40642:0:0:0:0:
64,192,40642,1,2,0:0:0:0:
192,192,40642,1,0,0:0:0:0:
448,192,40985,1,2,0:0:0:0:
64,192,41156,1,0,0:0:0:0:
320,192,41328,128,2,41671:0:0:0:0:
192,192,41671,128,10,42013:0:0:0:0:
64,192,42013,1,2,0:0:0:0:
448,192,42013,1,0,0:0:0:0:
320,192,42356,1,2,0:0:0:0:
192,192,42528,1,0,0:0:0:0:
448,192,42699,128,2,43042:0:0:0:0:
64,192,43042,128,2,43385:0:0:0:0:
320,192,43385,128,4,43728:0:0:0:0:
448,192,43385,1,2,3:0:0:50:drum-hitwhistle.wav
192,192,43728,128,2,44071:3:0:0:50:drum-hitwhistle.wav
448,192,44071,128,2,44413:3:0:0:50:drum-hitwhistle.wav
64,192,44413,128,2,44756:3:0:0:50:drum-hitwhistle.wav
320,192,44756,128,2,46128:0:0:0:0:
448,192,44756,1,4,0:0:0:0:
192,192,46128,128,0,47499:0:0:0:0:
448,192,47499,128,0,48871:0:0:0:0:
64,192,48871,128,0,50071:0:0:0:0:
320,192,50071,1,2,0:0:0:0:
448,192,50071,1,4,0:0:0:0:
192,192,50413,1,2,0:0:0:0:
448,192,50585,1,8,0:0:0:0:
64,192,50928,1,2,0:0:0:0:
320,192,51099,1,2,0:0:0:0:
192,192,51271,1,8,0:0:0:0:
448,192,51442,1,2,0:0:0:0:
320,192,51785,1,2,0:0:0:0:
64,192,51956,1,8,0:0:0:0:
320,192,52299,1,2,0:0:0:0:
192,192,52471,1,2,0:0:0:0:
448,192,52642,1,8,0:0:0:0:
64,192,52813,128,6,53156:0:0:0:0:
192,192,53156,1,2,0:0:0:0:
320,192,53328,1,8,0:0:0:0:
448,192,53671,1,8,0:0:0:0:
64,192,54013,1,8,0:0:0:0:
448,192,54356,1,8,0:0:0:0:
320,192,54699,1,8,0:0:0:0:
64,192,55042,1,8,0:0:0:0:
192,192,55385,1,8,0:0:0:0:
320,192,55556,128,2,55899:0:0:0:0:
448,192,55556,1,4,0:0:0:0:
64,192,55899,1,2,0:0:0:0:
448,192,56071,1,8,0:0:0:0:
192,192,56413,1,0,0:0:0:50:Tom3.wav
320,192,56585,1,8,0:0:0:0:
448,192,56756,1,8,0:0:0:0:
64,192,56928,1,2,0:0:0:0:
192,192,57442,1,0,0:0:0:0:
448,192,57613,1,0,0:0:0:0:
320,192,57785,128,0,58299:0:0:0:0:
64,192,58299,1,2,0:0:0:0:
448,192,58299,1,4,0:0:0:0:
192,192,58813,1,8,0:0:0:0:
320,192,59156,1,2,0:0:0:0:
64,192,59499,1,8,0:0:0:0:
448,192,59842,1,2,0:0:0:0:
192,192,60185,1,8,0:0:0:0:
448,192,60528,1,2,0:0:0:0:
64,192,60871,1,8,0:0:0:0:
320,192,61213,1,2,0:0:0:0:
448,192,61556,1,8,0:0:0:0:
192,192,61899,1,2,0:0:0:0:
320,192,62242,1,8,0:0:0:0:
64,192,62585,1,2,0:0:0:0:
448,192,62928,1,8,0:0:0:0:
192,192,63271,1,2,0:0:0:0:
320,192,63442,1,8,0:0:0:0:
192,192,63613,1,2,0:0:0:0:
320,192,63785,1,8,0:0:0:0:
64,192,63956,1,6,0:0:0:0:
448,192,64299,1,8,0:0:0:0:
192,192,64642,1,2,0:0:0:0:
448,192,64985,1,8,0:0:0:0:
64,192,65328,1,2,0:0:0:0:
320,192,65671,1,8,0:0:0:0:
192,192,66013,1,2,0:0:0:0:
448,192,66356,1,8,0:0:0:0:
64,192,66528,1,6,0:0:0:0:
320,192,66871,1,2,0:0:0:0:
192,192,67042,1,8,0:0:0:0:
448,192,67385,128,8,67728:0:0:0:0:
64,192,67728,128,2,68071:0:0:0:0:
320,192,68071,1,2,0:0:0:0:
192,192,68242,1,8,0:0:0:0:
448,192,68413,128,8,68756:0:0:0:0:
64,192,68756,1,8,0:0:0:0:
320,192,68928,128,8,69271:0:0:0:0:
64,192,69271,1,2,0:0:0:0:
192,192,69271,1,4,0:0:0:0:
448,192,69613,1,0,0:0:0:0:
192,192,69785,1,8,0:0:0:0:
320,192,70128,1,2,0:0:0:0:
64,192,70471,1,8,0:0:0:0:
448,192,70813,1,2,0:0:0:0:
192,192,71156,1,8,0:0:0:0:
320,192,71499,1,2,0:0:0:0:
448,192,71842,1,8,0:0:0:0:
64,192,72185,1,2,0:0:0:0:
320,192,72528,1,8,0:0:0:0:
192,192,72871,1,2,0:0:0:0:
448,192,73042,1,2,0:0:0:0:
64,192,73213,1,8,0:0:0:0:
320,192,73385,1,2,0:0:0:0:
448,192,73385,1,4,0:0:0:0:
192,192,73728,1,2,0:0:0:0:
320,192,73899,1,8,0:0:0:0:
64,192,74242,1,8,0:0:0:0:
448,192,74585,1,8,0:0:0:0:
192,192,74756,128,6,75099:0:0:0:0:
320,192,75099,1,2,0:0:0:0:
64,192,75271,1,8,0:0:0:0:
448,192,75613,1,2,0:0:0:0:
192,192,75956,1,8,0:0:0:0:
448,192,76128,1,6,0:0:0:0:
320,192,76471,1,6,0:0:0:0:
192,192,76813,1,6,0:0:0:0:
64,192,77156,1,6,0:0:0:0:
448,192,77499,128,6,77842:0:0:0:0:
192,192,77842,1,2,0:0:0:0:
320,192,78013,1,8,0:0:0:0:
64,192,78356,1,2,0:0:0:0:
320,192,78528,1,2,0:0:0:0:
192,192,78699,1,8,0:0:0:0:
448,192,78871,128,6,79213:0:0:0:0:
64,192,79213,1,2,0:0:0:0:
320,192,79385,1,8,0:0:0:0:
192,192,79728,1,8,0:0:0:0:
448,192,80071,1,8,0:0:0:0:
64,192,80242,128,6,80585:0:0:0:0:
320,192,80585,1,10,0:0:0:0:
448,192,80756,128,10,81099:0:0:0:0:
192,192,81099,128,10,81442:0:0:0:0:
64,192,81442,1,10,0:0:0:0:
320,192,81613,1,10,0:0:0:0:
192,192,81956,1,0,0:0:0:50:Tom2.wav
320,192,82299,1,0,0:0:0:50:Tom3.wav
448,192,82642,128,0,83156:0:0:0:50:Tom4.wav
64,192,83156,1,2,0:0:0:0:
192,192,83156,1,4,0:0:0:0:
320,192,83499,1,2,0:0:0:0:
448,192,83671,1,0,0:0:0:0:
192,192,83842,1,2,0:0:0:0:
64,192,84013,1,0,0:0:0:0:
320,192,84356,1,0,0:0:0:0:
448,192,84699,1,0,0:0:0:0:
192,192,84871,1,8,0:0:0:0:
64,192,85042,1,6,0:0:0:0:
64,192,85642,128,8,86413:0:0:0:0:
448,192,85642,128,0,86413:0:0:0:50:Tom3.wav
