osu file format v14

[General]
AudioFilename: audio.mp3
AudioLeadIn: 0
PreviewTime: -1
Countdown: 1
SampleSet: Soft
StackLeniency: 0.7
Mode: 0
LetterboxInBreaks: 0
WidescreenStoryboard: 1

[Editor]
Bookmarks: 36818
DistanceSpacing: 0.9
BeatDivisor: 4
GridSize: 8
TimelineZoom: 1

[Metadata]
Title:Fragments (Short Ver.)
TitleUnicode:Fragments (Short Ver.)
Artist:narco & capo
ArtistUnicode:narco & capo
Creator:Mimasu
Version:Extreme
Source:narco & capo
Tags:Necrofantasia Yukari Yakumo Perfect Cherry Blossom Phantasm
BeatmapID:1745766
BeatmapSetID:833404

[Difficulty]
HPDrainRate:6
CircleSize:4
OverallDifficulty:5.7
ApproachRate:8.6
SliderMultiplier:1.4
SliderTickRate:1

[Events]
//Background and Video events
0,0,"bg.png",0,0
//Break Periods
//Storyboard Layer 0 (Background)
//Storyboard Layer 1 (Fail)
//Storyboard Layer 2 (Pass)
//Storyboard Layer 3 (Foreground)
//Storyboard Sound Samples

[TimingPoints]
818,375,4,2,1,30,1,0
818,-133.333333333333,4,2,1,30,0,0
1943,-66.6666666666667,4,2,1,30,0,0
3068,-100,4,2,1,30,0,0
3630,-133.333333333333,4,2,1,30,0,0
5318,-100,4,2,1,30,0,0
6630,-66.6666666666667,4,2,1,30,0,0
7380,-100,4,2,1,30,0,0
7943,-133.333333333333,4,2,1,30,0,0
8880,-100,4,2,1,30,0,0
9443,-133.333333333333,4,2,1,30,0,0
10380,-100,4,2,1,30,0,0
10943,-133.333333333333,4,2,1,30,0,0
11880,-100,4,2,1,30,0,0
12443,-133.333333333333,4,2,1,30,0,0
13742,-100,4,2,1,30,0,0
14318,-100,4,2,1,30,0,0
14880,-100,4,2,1,30,0,0
15068,-133.333333333333,4,2,1,30,0,0
15630,-100,4,2,1,30,0,0
16755,-66.6666666666667,4,2,1,30,0,0
17318,-100,4,2,1,30,0,0
18068,-133.333333333333,4,2,1,30,0,0
18630,-100,4,2,1,30,0,0
19352,-66.6666666666667,4,2,1,30,0,0
19568,-100,4,2,1,30,0,0
19943,-66.6666666666667,4,2,1,30,0,0
20130,-66.6666666666667,4,2,1,30,0,1
24818,-100,4,2,1,30,0,0
36818,-133.333333333333,4,2,1,30,0,0
37193,-153.846153846154,4,2,1,30,0,0
37568,-181.818181818182,4,2,1,30,0,0
37943,-222.222222222222,4,2,1,30,0,0

[HitObjects]
48,272,818,6,0,B|160:232|112:296|264:256,1,210.000008010865
392,88,1943,2,0,L|448:48,1,52.5000020027161
392,168,2130,2,0,L|336:208,1,52.5000020027161
200,328,2318,5,4,0:0:0:0:
320,112,2505,1,0,0:0:0:0:
328,344,2693,5,8,0:0:0:0:
224,152,2880,1,0,0:0:0:0:
151,281,3068,6,0,P|183:321|207:329,1,70
288,184,3443,5,8,0:0:0:0:
261,299,3630,2,0,L|261:354,1,52.5000020027161
152,128,4005,5,0,0:0:0:0:
256,344,4193,1,8,0:0:0:0:
288,136,4380,5,0,0:0:0:0:
184,312,4568,1,0,0:0:0:0:
216,104,4755,5,0,0:0:0:0:
280,304,4943,1,8,0:0:0:0:
136,136,5130,5,0,0:0:0:0:
376,264,5318,2,0,P|416:232|424:184,1,70
312,120,5693,5,8,0:0:0:0:
400,336,5880,1,0,0:0:0:0:
224,200,6068,6,0,P|189:214|160:240,1,70
128,136,6443,1,8,0:0:0:0:
296,144,6630,6,0,P|360:168|384:216,1,105.000004005432
192,272,7005,1,0,0:0:0:0:
400,96,7193,5,8,0:0:0:0:
336,288,7380,1,0,0:0:0:0:
232,144,7568,5,0,0:0:0:0:
232,144,7661,1,0,0:0:0:0:
232,144,7755,1,0,0:0:0:0:
368,224,7943,1,8,0:0:0:0:
216,200,8130,2,0,B|128:152|56:232,1,157.500006008148,0|8,0:0|0:0,0:0:0:0:
168,304,8880,5,0,0:0:0:0:
72,96,9068,1,0,0:0:0:0:
72,96,9161,1,0,0:0:0:0:
72,96,9255,1,0,0:0:0:0:
56,296,9443,1,8,0:0:0:0:
264,80,9630,2,0,B|344:112|352:224,1,157.500006008148,0|8,0:0|0:0,0:0:0:0:
368,24,10380,1,0,0:0:0:0:
256,248,10568,1,0,0:0:0:0:
256,248,10661,1,0,0:0:0:0:
256,248,10755,1,0,0:0:0:0:
160,48,10943,1,8,0:0:0:0:
96,224,11130,2,0,P|128:264|192:280,1,105.000004005432
136,152,11693,5,8,0:0:0:0:
152,352,11880,1,0,0:0:0:0:
248,184,12068,5,0,0:0:0:0:
80,288,12255,1,0,0:0:0:0:
248,280,12443,5,8,0:0:0:0:
232,88,12630,2,0,P|208:64|16:176,1,315.000012016297
16,248,13943,1,8,0:0:0:0:
24,280,14036,1,8,0:0:0:0:
48,304,14130,1,8,0:0:0:0:
80,320,14224,1,8,0:0:0:0:
104,320,14318,2,0,P|144:312|176:272,1,70,8|0,0:0|0:0,0:0:0:0:
272,104,14693,1,8,0:0:0:0:
112,256,14880,1,0,0:0:0:0:
120,64,15068,5,0,0:0:0:0:
232,264,15255,1,0,0:0:0:0:
352,128,15443,1,8,0:0:0:0:
80,176,15630,2,0,P|48:232|136:344,1,210,0|8,0:0|0:0,0:0:0:0:
359,149,16380,5,0,0:0:0:0:
168,287,16568,1,0,0:0:0:0:
182,72,16755,5,0,0:0:0:0:
321,281,16943,1,8,0:0:0:0:
304,56,17130,5,0,0:0:0:0:
216,312,17318,1,0,0:0:0:0:
152,192,17505,5,0,0:0:0:0:
248,232,17693,1,8,0:0:0:0:
240,120,17880,5,0,0:0:0:0:
176,272,18068,1,0,0:0:0:0:
152,104,18255,5,0,0:0:0:0:
312,176,18443,1,8,0:0:0:0:
40,240,18630,2,0,P|32:264|88:352,1,140
192,136,19193,1,8,0:0:0:0:
80,288,19380,1,0,0:0:0:0:
192,304,19568,1,0,0:0:0:0:
224,296,19661,1,0,0:0:0:0:
248,280,19755,1,0,0:0:0:0:
264,256,19849,1,0,0:0:0:0:
280,208,19943,1,8,0:0:0:0:
272,160,20036,1,0,0:0:0:0:
200,184,20130,5,0,0:0:0:0:
312,48,20318,1,0,0:0:0:0:
328,240,20505,5,0,0:0:0:0:
192,56,20693,1,8,0:0:0:0:
264,240,20880,5,0,0:0:0:0:
416,56,21068,1,0,0:0:0:0:
416,56,21161,1,0,0:0:0:0:
416,56,21255,1,0,0:0:0:0:
152,104,21443,1,8,0:0:0:0:
240,312,21630,5,0,0:0:0:0:
200,24,21818,1,0,0:0:0:0:
104,280,22005,5,0,0:0:0:0:
328,88,22193,1,8,0:0:0:0:
280,296,22380,5,0,0:0:0:0:
72,216,22568,1,0,0:0:0:0:
72,216,22661,1,0,0:0:0:0:
72,216,22755,1,0,0:0:0:0:
288,40,22943,1,8,0:0:0:0:
232,328,23130,1,0,0:0:0:0:
256,192,23224,12,4,24630,0:0:0:0:
392,40,24818,5,4,0:0:0:0:
312,160,25005,1,4,0:0:0:0:
264,40,25193,1,8,0:0:0:0:
392,136,25380,2,0,P|408:184|360:264,1,140
336,184,25943,5,8,0:0:0:0:
464,248,26130,1,0,0:0:0:0:
488,112,26318,2,0,P|456:144|432:192,1,70
352,288,26693,1,8,0:0:0:0:
168,208,26880,2,0,P|96:176|56:120,1,140
200,48,27443,5,8,0:0:0:0:
120,296,27630,1,0,0:0:0:0:
40,184,27818,2,0,P|88:136|184:120,1,140,0|8,0:0|0:0,0:0:0:0:
240,248,28380,2,0,P|288:240|344:144,1,140
112,288,28943,5,8,0:0:0:0:
280,192,29130,1,0,0:0:0:0:
112,112,29318,1,0,0:0:0:0:
112,112,29505,1,0,0:0:0:0:
88,264,29693,2,0,P|112:304|152:312,1,70,8|0,0:0|0:0,0:0:0:0:
352,232,30068,1,0,0:0:0:0:
352,232,30255,1,0,0:0:0:0:
336,88,30443,2,0,P|288:64|264:72,1,70,8|0,0:0|0:0,0:0:0:0:
168,264,30818,1,2,0:0:0:0:
200,200,31005,5,0,0:0:0:0:
384,152,31193,1,8,0:0:0:0:
176,96,31380,2,0,P|136:112|104:208,1,140
328,288,31943,5,8,0:0:0:0:
432,160,32130,1,0,0:0:0:0:
288,184,32318,5,0,0:0:0:0:
432,304,32505,1,0,0:0:0:0:
336,120,32693,5,8,0:0:0:0:
184,64,32880,2,0,P|128:56|48:96,1,140
88,200,33443,5,8,0:0:0:0:
16,48,33630,1,0,0:0:0:0:
24,152,33818,5,0,0:0:0:0:
120,80,34005,1,0,0:0:0:0:
112,0,34193,1,8,0:0:0:0:
72,168,34380,2,0,P|40:120|72:32,1,140
224,176,34943,5,8,0:0:0:0:
168,256,35130,1,0,0:0:0:0:
160,152,35318,5,0,0:0:0:0:
280,232,35505,1,0,0:0:0:0:
296,120,35693,5,8,0:0:0:0:
232,304,35880,1,0,0:0:0:0:
160,216,36068,5,0,0:0:0:0:
336,168,36255,1,8,0:0:0:0:
328,216,36349,1,8,0:0:0:0:
320,264,36443,1,8,0:0:0:0:
208,128,36630,5,12,0:0:0:0:
154,244,36818,2,0,P|132:230|120:208,1,52.5000020027161
296,208,37193,2,0,P|280:240|256:256,1,45.4999979171754
181,255,37568,2,0,P|167:242|168:224,1,38.5000011749268
264,208,37943,1,0,0:0:0:0:
256,192,38130,12,0,39630,0:0:0:0:
