osu file format v14

[General]
AudioFilename: audio.mp3
AudioLeadIn: 0
PreviewTime: 186391
Countdown: 0
SampleSet: Soft
StackLeniency: 0.7
Mode: 0
LetterboxInBreaks: 0
WidescreenStoryboard: 0

[Editor]
Bookmarks: 15610,17586,26952,45683,55049,63098,64415,84171,85488,94854,104220,113586,122952,133488,140732,153244,154561,177976,187342,196708,201391,207098,208708,228171,238854,245732
DistanceSpacing: 1.3
BeatDivisor: 4
GridSize: 32
TimelineZoom: 1.4

[Metadata]
Title:Ukigumo
TitleUnicode:浮雲
Artist:nao feat. isui
ArtistUnicode:夏央 feat. 倚水
Creator:Sarawatlism
Version:xHappy-'s Hard
Source:
Tags:japanese rock j-rock jrock jpop pop j-pop サマーライト summer light pnky [_lost_] conner c_o_n_n_e_r centrak_ xhappy- p_kung
BeatmapID:4049702
BeatmapSetID:1876775

[Difficulty]
HPDrainRate:5
CircleSize:3.6
OverallDifficulty:6
ApproachRate:8
SliderMultiplier:1.5
SliderTickRate:1

[Events]
//Background and Video events
0,0,"BG.jpg",0,0
//Break Periods
2,85688,93811
2,113786,115031
2,116127,117519
2,118469,119714
2,120810,121470
2,157103,163177
//Storyboard Layer 0 (Background)
//Storyboard Layer 1 (Fail)
//Storyboard Layer 2 (Pass)
//Storyboard Layer 3 (Foreground)
//Storyboard Layer 4 (Overlay)
//Storyboard Sound Samples

[TimingPoints]
1196,292.682926829268,4,2,1,50,1,0
17586,-111.111111111111,4,2,4,60,0,0
17878,-111.111111111111,4,2,3,60,0,0
26659,-111.111111111111,4,2,4,60,0,0
26952,-125,4,2,4,60,0,0
27244,-125,4,2,3,60,0,0
31635,-125,4,2,5,60,0,0
31927,-125,4,2,3,60,0,0
36317,-125,4,2,4,60,0,0
36609,-125,4,2,3,60,0,0
45391,-125,4,2,2,60,0,0
45683,-111.111111111111,4,2,1,60,0,0
45975,-111.111111111111,4,2,3,60,0,0
49049,-111.111111111111,4,2,4,60,0,0
49488,-111.111111111111,4,2,3,60,0,0
50366,-111.111111111111,4,2,5,60,0,0
50658,-111.111111111111,4,2,3,60,0,0
53439,-111.111111111111,4,2,4,60,0,0
54170,-111.111111111111,4,2,5,60,0,0
54756,-111.111111111111,4,2,1,60,0,0
55049,-100,4,2,1,70,0,0
55341,-100,4,2,6,70,0,0
62513,-100,4,2,5,70,0,0
63098,-100,4,2,6,70,0,0
64415,-90.9090909090909,4,2,6,85,0,1
64707,-90.9090909090909,4,2,4,85,0,1
72903,-90.9090909090909,4,2,3,85,0,1
73707,-90.9090909090909,4,2,2,85,0,1
73781,-90.9090909090909,4,2,4,85,0,1
80952,-111.111111111111,4,2,4,85,0,1
83293,-111.111111111111,4,2,6,85,0,1
84171,-111.111111111111,4,2,4,85,0,0
85488,-111.111111111111,4,2,4,50,0,0
94561,-111.111111111111,4,2,2,50,0,0
94854,-125,4,2,4,60,0,0
95146,-125,4,2,3,60,0,0
102756,-125,4,2,4,60,0,0
103049,-125,4,2,3,60,0,0
103635,-125,4,2,6,60,0,0
104220,-100,4,2,6,70,0,0
108171,-100,4,2,5,70,0,0
108610,-100,4,2,3,70,0,0
108756,-100,4,2,4,70,0,0
109195,-100,4,2,6,70,0,0
113073,-100,4,2,1,70,0,0
113219,-100,4,2,2,70,0,0
113293,-100,4,2,6,70,0,0
113366,-100,4,2,1,70,0,0
113586,-100,4,2,1,60,0,0
115781,-100,4,2,4,60,0,0
118269,-100,4,2,5,60,0,0
120464,-100,4,2,6,60,0,0
122513,-100,4,2,2,60,0,0
122805,-100,4,2,1,60,0,0
122952,-100,4,2,1,70,0,0
123244,-100,4,2,6,70,0,0
130415,-100,4,2,5,70,0,0
131000,-100,4,2,6,70,0,0
132390,-100,4,2,1,70,0,0
132463,-100,4,2,2,70,0,0
132610,-100,4,2,6,70,0,0
132683,-100,4,2,1,70,0,0
132903,-100,4,2,4,70,0,0
133488,-90.9090909090909,4,2,4,85,0,1
141976,-90.9090909090909,4,2,3,85,0,1
142780,-90.9090909090909,4,2,2,85,0,1
142854,-90.9090909090909,4,2,4,85,0,1
150025,-111.111111111111,4,2,4,85,0,1
152366,-111.111111111111,4,2,6,85,0,1
153244,-111.111111111111,4,2,4,85,0,0
154561,-111.111111111111,4,2,4,50,0,0
164366,-111.111111111111,4,2,1,50,0,0
165098,-111.111111111111,4,2,4,50,0,0
165537,-111.111111111111,4,2,3,50,0,0
165829,-111.111111111111,4,2,4,50,0,0
165976,-111.111111111111,4,2,3,50,0,0
166269,-111.111111111111,4,2,1,50,0,0
167439,-111.111111111111,4,2,4,50,0,0
167878,-111.111111111111,4,2,3,50,0,0
168170,-111.111111111111,4,2,4,50,0,0
168317,-111.111111111111,4,2,3,50,0,0
168610,-111.111111111111,4,2,1,50,0,0
169049,-111.111111111111,4,2,3,50,0,0
169341,-111.111111111111,4,2,1,50,0,0
169488,-111.111111111111,4,2,3,50,0,0
169781,-111.111111111111,4,2,1,50,0,0
170659,-111.111111111111,4,2,3,50,0,0
170952,-111.111111111111,4,2,1,50,0,0
171244,-111.111111111111,4,2,3,50,0,0
171391,-111.111111111111,4,2,4,50,0,0
171830,-111.111111111111,4,2,1,50,0,0
171976,-111.111111111111,4,2,4,50,0,0
173000,-111.111111111111,4,2,2,50,0,0
173293,-111.111111111111,4,2,4,50,0,0
173732,-111.111111111111,4,2,1,50,0,0
174464,-111.111111111111,4,2,4,50,0,0
174903,-111.111111111111,4,2,3,50,0,0
175195,-111.111111111111,4,2,4,50,0,0
175342,-111.111111111111,4,2,3,50,0,0
175635,-111.111111111111,4,2,4,50,0,0
176366,-111.111111111111,4,2,5,50,0,0
177098,-111.111111111111,4,2,3,50,0,0
177391,-111.111111111111,4,2,6,50,0,0
177976,-100,4,2,6,70,0,0
180317,-125,4,2,6,70,0,0
182659,-100,4,2,6,70,0,0
183098,-100,4,2,1,70,0,0
184415,-100,4,2,2,70,0,0
184708,-100,4,2,1,70,0,0
185732,-100,4,2,2,70,0,0
186025,-100,4,2,5,70,0,0
186464,-100,4,2,4,70,0,0
187342,-166.666666666667,4,2,4,50,0,0
195976,-142.857142857143,4,2,4,50,0,0
196708,-111.111111111111,4,2,4,60,0,0
201391,-100,4,2,4,70,0,0
206952,-100,4,2,3,70,0,0
208708,-90.9090909090909,4,2,4,85,0,1
216903,-90.9090909090909,4,2,3,85,0,1
217561,-90.9090909090909,4,2,2,85,0,1
217634,-90.9090909090909,4,2,3,85,0,1
217707,-90.9090909090909,4,2,2,85,0,1
217781,-90.9090909090909,4,2,4,85,0,1
224952,-111.111111111111,4,2,4,85,0,1
226707,-111.111111111111,4,2,3,85,0,1
227000,-111.111111111111,4,2,7,85,0,1
227147,-111.111111111111,4,2,6,85,0,1
227585,-111.111111111111,4,2,5,85,0,1
228171,-111.111111111111,4,2,6,85,0,0
229488,-111.111111111111,4,2,6,50,0,0
229780,-111.111111111111,4,2,3,50,0,0
238561,-111.111111111111,4,2,5,50,0,0
238854,-125,4,2,4,50,0,0
239146,-125,4,2,3,50,0,0
245586,-125,4,2,4,50,0,0
245732,-125,4,2,5,50,0,0

[Colours]
Combo1 : 218,181,143
Combo2 : 201,146,146
Combo3 : 253,179,225
Combo4 : 164,175,221

[HitObjects]
37,49,17586,6,0,L|55:192,1,134.999995880127,6|2,1:0|1:2,2:0:0:0:
15,246,18025,2,0,P|62:199|128:197,1,134.999995880127,2|0,2:0|2:0,2:0:0:0:
184,245,18464,2,0,P|231:291|297:293,1,134.999995880127,2|0,1:2|1:0,2:0:0:0:
323,362,18903,2,0,L|341:219,1,134.999995880127,2|2,2:0|2:0,2:0:0:0:
351,154,19342,1,2,1:2:0:0:
455,68,19635,1,0,1:0:0:0:
475,50,19927,6,0,B|442:40|399:55|430:64|388:79|345:69,1,134.999995880127,2|0,1:2|1:0,2:0:0:0:
283,27,20366,2,0,P|217:16|155:42,1,134.999995880127,2|0,2:0|2:0,2:0:0:0:
85,15,20805,2,0,B|126:48|126:48|110:128,1,134.999995880127,2|0,1:2|1:0,2:0:0:0:
49,172,21244,2,0,P|107:203|167:176,1,134.999995880127,2|2,2:0|2:0,2:0:0:0:
220,124,21683,1,2,1:2:0:0:
241,109,21976,2,0,L|307:117,1,67.4999979400635,2|2,1:2|2:0,2:0:0:0:
362,66,22269,6,0,P|381:129|344:184,1,134.999995880127,2|2,1:2|1:2,2:0:0:0:
298,241,22708,2,0,P|364:228|430:216,1,134.999995880127,2|0,2:0|2:0,2:0:0:0:
500,189,23147,2,0,B|510:232|495:274|486:243|471:286|481:319,1,134.999995880127,2|0,1:2|1:0,2:0:0:0:
418,359,23586,2,0,P|365:320|302:336,1,134.999995880127,2|0,2:0|2:0,2:0:0:0:
233,365,24025,1,2,1:2:0:0:
99,348,24317,1,2,1:2:0:0:
72,341,24610,6,0,B|37:306|37:306|57:202,1,134.999995880127,2|0,1:2|1:0,2:0:0:0:
80,152,25049,2,0,B|123:142|165:157|134:166|177:181|210:171,1,134.999995880127,2|0,2:0|2:0,2:0:0:0:
249,234,25488,2,0,P|282:173|258:115,1,134.999995880127,2|2,1:2|1:2,2:0:0:0:
207,62,25927,2,0,P|235:45|269:43,1,67.4999979400635,2|2,2:0|1:2,2:0:0:0:
339,17,26220,2,0,P|406:24|472:35,1,134.999995880127,2|2,2:0|2:0,2:0:0:0:
508,100,26659,1,6,1:2:0:0:
449,235,26952,6,0,P|390:241|340:210,1,120,6|0,1:0|1:0,2:0:0:0:
258,122,27537,2,0,P|199:115|149:146,1,120,2|0,1:2|1:0,2:0:0:0:
71,148,27976,2,0,P|76:119|92:93,2,60,2|0|0,2:0|1:0|2:0,2:0:0:0:
29,214,28415,2,0,P|56:267|65:326,1,120,2|0,1:2|1:0,2:0:0:0:
138,366,28854,1,2,2:0:0:0:
138,366,29000,1,0,1:0:0:0:
265,279,29293,6,0,P|318:305|377:313,1,120,2|0,1:2|1:0,2:0:0:0:
452,337,29732,2,0,P|444:276|422:221,1,120,0|0,2:0|2:0,2:0:0:0:
405,147,30171,1,2,1:2:0:0:
405,147,30317,2,0,P|356:181|320:229,2,120,2|2|2,2:0|2:0|2:0,2:0:0:0:
496,35,31195,1,2,2:0:0:0:
353,66,31488,5,2,2:0:0:0:
353,66,31561,1,2,2:0:0:0:
353,66,31635,2,0,P|296:72|257:29,1,120,2|0,1:0|1:0,2:0:0:0:
182,2,32074,2,0,B|163:65|163:65|176:92|170:118,1,120,0|0,2:0|2:0,2:0:0:0:
104,160,32513,1,2,1:2:0:0:
104,160,32659,2,0,P|48:171|21:223,2,120,2|2|2,2:0|2:0|2:0,2:0:0:0:
205,244,33537,1,2,2:0:0:0:
305,158,33830,1,2,2:0:0:0:
378,131,33976,6,0,P|435:130|468:177,1,120,2|2,1:2|1:2,2:0:0:0:
470,256,34415,2,0,B|436:259|415:243|415:243|379:244|361:269,1,120,2|2,2:0|2:0,2:0:0:0:
327,339,34854,1,2,1:2:0:0:
262,297,35000,2,0,P|235:283|205:280,1,60,2|0,2:1|1:0,2:0:0:0:
148,333,35293,1,2,2:0:0:0:
148,333,35439,1,2,1:2:0:0:
88,281,35586,2,0,P|79:252|63:153,1,120,2|2,2:1|2:1,2:0:0:0:
66,83,36025,1,2,1:2:0:0:
82,65,36317,6,0,B|119:59|148:73|132:82|161:95|195:90,1,120,6|0,1:0|1:0,2:0:0:0:
292,17,36903,2,0,P|346:-3|395:28,1,120,2|0,1:2|1:0,2:0:0:0:
442,90,37342,2,0,P|463:68|474:40,2,60,2|0|0,2:0|1:0|2:0,2:0:0:0:
373,128,37781,2,0,P|371:187|394:242,1,120,2|0,1:2|1:0,2:0:0:0:
344,302,38220,2,0,P|316:291|286:289,1,60,2|0,2:0|1:0,2:0:0:0:
228,338,38513,5,0,2:0:0:0:
228,338,38586,1,0,2:0:0:0:
228,338,38659,2,0,P|171:351|125:315,1,120,2|0,1:2|1:0,2:0:0:0:
58,215,39244,2,0,P|29:206|1:200,2,60,2|2|2,1:2|2:0|1:2,2:0:0:0:
120,167,39683,2,0,L|114:99,1,60,2|0,2:0|1:0,2:0:0:0:
40,81,39976,1,2,2:0:0:0:
69,8,40122,2,0,P|96:-3|126:-1,1,60,2|2,1:2|2:0,2:0:0:0:
188,46,40415,2,0,P|217:49|245:38,1,60,2|2,1:2|2:0,2:0:0:0:
315,3,40708,1,2,1:2:0:0:
436,54,41000,6,0,P|422:80|396:95,1,60,2|0,1:0|2:0,2:0:0:0:
319,106,41293,2,0,L|331:236,1,120,2|2,1:2|1:2,2:0:0:0:
405,248,41732,2,0,P|423:271|428:300,1,60,2|0,2:0|1:0,2:0:0:0:
398,373,42025,2,0,P|339:358|280:350,1,120,2|2,2:0|2:0,2:0:0:0:
222,305,42464,1,2,1:2:0:0:
222,305,42610,1,2,2:0:0:0:
158,350,42756,2,0,P|141:293|168:241,1,120,2|2,1:2|1:2,2:0:0:0:
220,183,43195,1,2,2:0:0:0:
150,126,43342,6,0,P|90:131|30:138,1,120,0|0,1:0|1:0,2:0:0:0:
26,60,43781,2,0,P|85:54|145:47,1,120,0|0,2:0|2:0,2:0:0:0:
154,46,44147,1,0,2:0:0:0:
162,45,44220,2,0,P|191:48|218:36,1,60,0|2,1:0|2:0,2:0:0:0:
293,14,44513,2,0,P|351:8|395:46,1,120,2|0,1:2|1:0,2:0:0:0:
426,118,44952,1,0,2:0:0:0:
367,172,45098,2,0,P|354:199|349:228,1,60,2|0,1:2|2:0,2:0:0:0:
352,236,45317,1,0,2:0:0:0:
357,243,45391,1,2,1:2:0:0:
301,349,45683,6,0,P|238:358|212:301,1,134.999995880127,4|2,1:0|1:2,2:0:0:0:
241,225,46122,1,2,2:0:0:0:
176,174,46269,2,0,P|114:183|43:196,1,134.999995880127,2|2,1:2|1:2,2:0:0:0:
5,128,46708,1,10,2:0:0:0:
5,128,46781,1,8,2:0:0:0:
5,128,46854,1,0,1:0:0:0:
43,57,47000,2,0,P|76:52|109:47,1,67.4999979400635,2|0,2:0|1:0,2:0:0:0:
186,73,47293,2,0,P|242:101|286:56,1,134.999995880127,2|0,2:0|2:0,2:0:0:0:
351,6,47732,1,2,1:2:0:0:
351,6,47878,1,2,2:0:0:0:
439,40,48025,6,0,B|468:78|468:78|457:164,1,134.999995880127,2|2,1:2|1:2,2:0:0:0:
489,237,48464,2,0,P|456:246|423:238,1,67.4999979400635,2|0,2:0|1:0,2:0:0:0:
366,189,48756,1,2,2:0:0:0:
366,189,48903,1,2,1:2:0:0:
288,210,49049,2,0,B|259:220|212:204|239:186|195:171|162:181,1,134.999995880127,10|0,2:0|2:0,2:0:0:0:
103,124,49488,2,0,P|87:153|81:186,1,67.4999979400635,2|0,1:2|2:0,2:0:0:0:
47,260,49781,1,2,1:2:0:0:
97,322,49927,2,0,L|91:361,2,33.7499989700318,0|0|2,2:0|2:0|1:2,2:0:0:0:
279,368,50366,6,0,P|271:304|326:271,1,134.999995880127,2|0,1:2|1:0,2:0:0:0:
391,318,50805,1,2,2:0:0:0:
456,269,50952,2,0,L|440:134,1,134.999995880127,2|2,1:2|1:2,2:0:0:0:
436,61,51391,1,10,2:0:0:0:
436,61,51464,1,8,2:0:0:0:
436,61,51537,1,0,1:0:0:0:
358,84,51683,2,0,P|326:94|293:91,1,67.4999979400635,2|0,2:0|1:0,2:0:0:0:
218,56,51976,2,0,P|154:38|96:69,1,134.999995880127,2|0,2:0|2:0,2:0:0:0:
39,126,52415,1,2,1:2:0:0:
39,126,52561,1,2,2:0:0:0:
52,219,52708,6,0,B|97:245|97:245|178:229,1,134.999995880127,2|2,1:2|1:2,2:0:0:0:
231,166,53147,2,0,P|251:194|258:226,1,67.4999979400635,2|0,2:0|1:0,2:0:0:0:
222,298,53439,2,0,P|202:326|195:358,1,67.4999979400635,10|2,2:0|1:2,2:0:0:0:
276,360,53732,1,10,2:0:0:0:
356,365,53878,2,0,P|394:314|362:259,1,134.999995880127,0|2,1:0|1:0,2:0:0:0:
384,183,54317,1,0,2:0:0:0:
384,183,54464,2,0,P|406:158|426:130,1,67.4999979400635,2|0,1:0|2:0,2:0:0:0:
419,50,54756,1,4,2:3:0:0:
401,33,55049,6,0,B|362:21|321:41|346:56|303:75|260:62,1,150,4|10,1:0|2:0,2:0:0:0:
191,26,55488,1,2,2:0:0:0:
191,26,55635,2,0,P|154:27|124:49,1,75,2|0,2:0|1:0,2:0:0:0:
82,120,55927,1,10,2:0:0:0:
137,181,56074,2,0,L|223:170,1,75,2|0,2:0|1:0,2:0:0:0:
277,221,56366,2,0,L|351:230,1,75,2|10,1:2|2:0,2:0:0:0:
418,181,56659,2,0,P|436:251|383:306,1,150,2|0,2:0|1:0,2:0:0:0:
334,368,57098,1,10,2:0:0:0:
334,368,57244,1,2,2:0:0:0:
244,327,57391,6,0,B|197:301|197:301|102:317,1,150,2|10,1:2|2:0,2:0:0:0:
45,376,57830,2,0,P|53:303|27:233,1,150,2|2,2:0|1:2,2:0:0:0:
54,155,58269,1,10,2:0:0:0:
130,186,58415,2,0,P|204:187|277:169,1,150,2|0,2:0|1:0,2:0:0:0:
326,235,58854,2,0,P|349:207|360:171,1,75,10|2,2:0|2:0,2:0:0:0:
442,160,59147,2,0,P|429:125|403:98,1,75,2|0,2:0|1:0,2:0:0:0:
340,44,59439,1,10,2:0:0:0:
316,53,59732,6,0,P|252:90|179:81,1,150,6|8,1:0|2:0,2:0:0:0:
109,35,60171,2,0,L|90:183,1,150,2|0,2:0|1:0,2:0:0:0:
138,250,60610,1,10,2:0:0:0:
164,264,60903,2,0,P|224:222|297:230,1,150,0|8,1:0|2:0,2:0:0:0:
382,250,61342,1,0,2:0:0:0:
382,250,61488,2,0,P|402:205|400:171,1,75,0|0,2:0|1:0,2:0:0:0:
356,110,61781,1,10,2:0:0:0:
400,40,61927,1,2,2:0:0:0:
497,55,62074,6,0,B|522:96|522:96|504:195,1,150,6|10,1:0|2:0,2:0:0:0:
475,274,62513,1,2,1:2:0:0:
325,305,62805,1,2,1:2:0:0:
177,333,63098,2,0,P|61:231|209:186,1,375,10|2,2:0|2:0,2:0:0:0:
464,300,64415,6,0,B|418:286|366:308|406:317|353:340|307:328,1,165.000005035401,6|10,1:0|2:0,2:0:0:0:
241,265,64854,1,0,2:0:0:0:
165,315,65000,2,0,P|150:278|155:237,1,82.5000025177003,2|0,1:2|1:0,2:0:0:0:
208,162,65293,1,10,2:0:0:0:
124,106,65439,6,0,P|158:35|236:33,1,165.000005035401,2|2,1:2|1:2,2:0:0:0:
289,107,65878,1,10,2:0:0:0:
345,35,66025,2,0,P|385:25|424:38,1,82.5000025177003,2|0,2:0|1:0,2:0:0:0:
488,108,66317,1,2,1:2:0:0:
488,108,66464,1,10,2:0:0:0:
459,194,66610,1,2,2:0:0:0:
362,182,66756,6,0,B|305:186|305:186|264:204|264:204|201:210,1,165.000005035401,2|10,1:2|2:0,2:0:0:0:
137,144,67195,1,2,2:0:0:0:
65,200,67342,2,0,P|43:234|42:275,1,82.5000025177003,2|0,1:2|1:0,2:0:0:0:
74,360,67635,1,10,2:0:0:0:
171,315,67781,6,0,P|253:320|335:328,1,165.000005035401,2|2,1:2|1:2,2:0:0:0:
412,376,68220,1,8,2:1:0:0:
492,332,68366,1,2,1:2:0:0:
492,332,68513,2,0,P|513:298|512:257,1,82.5000025177003,2|2,2:0|1:2,2:0:0:0:
421,242,68806,2,0,P|399:207|399:166,1,82.5000025177003,14|2,2:1|2:0,2:0:0:0:
400,64,69098,6,0,B|339:40|339:40|240:55,1,165.000005035401,6|10,1:0|2:0,2:0:0:0:
170,5,69537,1,2,2:0:0:0:
170,5,69683,2,0,P|153:42|159:82,1,82.5000025177003,0|0,1:0|1:0,2:0:0:0:
207,159,69976,1,10,2:0:0:0:
103,184,70122,6,0,P|80:259|136:313,1,165.000005035401,2|0,1:2|1:0,2:0:0:0:
223,341,70561,2,0,L|395:329,1,165.000005035401,8|0,2:1|1:0,2:0:0:0:
473,360,71000,1,0,1:0:0:0:
506,277,71147,1,10,2:0:0:0:
506,277,71293,1,2,2:0:0:0:
415,224,71439,6,0,P|377:210|336:214,1,82.5000025177003,12|0,2:1|1:0,2:0:0:0:
255,257,71732,1,0,1:0:0:0:
193,181,71878,2,0,P|233:184|272:170,2,82.5000025177003,12|0|0,2:0|1:0|1:0,2:0:0:0:
120,125,72317,1,14,2:1:0:0:
180,36,72464,6,0,B|226:22|276:43|242:57|291:76|337:64,1,165.000005035401,6|0,1:0|1:0,2:0:0:0:
409,10,72903,2,0,P|449:9|482:33,1,82.5000025177003,8|8,2:0|2:0,2:0:0:0:
490,42,73122,1,8,2:0:0:0:
497,52,73195,1,8,2:0:0:0:
451,131,73342,1,10,2:0:0:0:
451,131,73415,1,8,2:0:0:0:
451,131,73488,2,0,L|457:175,3,41.2500012588501,10|8|6|4,2:0|2:0|2:0|2:3,2:0:0:0:
464,217,73781,6,0,B|418:231|366:209|402:196|353:177|307:189,1,165.000005035401,6|10,1:0|2:0,2:0:0:0:
229,142,74220,2,0,P|219:181|225:222,1,82.5000025177003,2|0,2:0|1:0,2:0:0:0:
281,293,74513,1,2,1:2:0:0:
230,368,74659,1,10,2:0:0:0:
134,359,74805,6,0,P|62:325|53:247,1,165.000005035401,2|2,1:2|1:2,2:0:0:0:
79,159,75244,1,10,2:0:0:0:
10,98,75391,2,0,P|41:72|82:69,1,82.5000025177003,2|0,2:0|1:0,2:0:0:0:
162,119,75683,1,2,1:2:0:0:
162,119,75830,2,0,P|202:115|234:90,1,82.5000025177003,10|0,2:0|2:0,2:0:0:0:
311,24,76122,5,2,1:2:0:0:
376,87,76269,1,2,2:0:0:0:
453,39,76415,2,0,B|490:75|490:75|468:186,1,165.000005035401,10|2,2:0|1:2,2:0:0:0:
445,277,76854,1,2,1:2:0:0:
445,277,77000,1,10,2:0:0:0:
345,235,77147,6,0,P|266:209|184:198,1,165.000005035401,2|2,1:2|1:2,2:0:0:0:
145,115,77586,2,0,P|112:139|95:177,1,82.5000025177003,8|2,2:1|1:2,2:0:0:0:
4,170,77878,2,0,P|9:210|33:243,1,82.5000025177003,2|0,2:0|1:0,2:0:0:0:
99,306,78171,1,14,2:1:0:0:
121,329,78464,6,0,B|164:293|164:293|273:307,1,165.000005035401,6|8,1:0|2:1,2:0:0:0:
340,367,78903,1,2,2:0:0:0:
424,335,79049,2,0,P|444:299|444:258,1,82.5000025177003,8|0,2:1|1:0,2:0:0:0:
394,181,79342,1,10,2:0:0:0:
443,105,79488,1,2,1:2:0:0:
361,38,79635,6,0,L|196:51,1,165.000005035401,12|8,2:1|2:1,2:0:0:0:
109,78,80074,1,2,1:2:0:0:
31,30,80220,2,0,P|16:69|23:109,1,82.5000025177003,10|0,2:0|1:0,2:0:0:0:
62,189,80513,1,10,2:0:0:0:
151,205,80659,1,2,1:2:0:0:
221,143,80805,5,4,1:0:0:0:
221,143,80952,2,0,L|379:164,1,134.999995880127,2|0,1:2|1:0,2:0:0:0:
428,150,81391,2,0,P|410:213|349:235,1,134.999995880127,8|0,2:1|1:0,2:0:0:0:
274,235,81830,2,0,P|319:279|296:339,1,134.999995880127,0|8,1:0|2:1,2:0:0:0:
221,350,82269,1,0,1:0:0:0:
197,362,82561,2,0,L|129:355,1,67.4999979400635,10|10,2:0|2:0,2:0:0:0:
55,345,82854,2,0,L|61:277,1,67.4999979400635,10|10,2:0|2:0,2:0:0:0:
71,203,83147,5,2,1:2:0:0:
135,154,83293,1,10,2:0:0:0:
135,154,83366,1,8,2:0:0:0:
135,154,83439,2,0,L|129:120,2,33.7499989700318,10|8|2,2:0|2:0|1:2,2:0:0:0:
206,268,83878,1,2,1:2:0:0:
340,256,84171,1,10,2:0:0:0:
448,96,85488,5,4,1:0:0:0:
448,64,94561,5,2,1:2:0:0:
430,84,94854,6,0,P|366:94|328:52,1,120,6|0,1:0|1:0,2:0:0:0:
220,8,95439,2,0,L|95:26,1,120,2|0,1:2|1:0,2:0:0:0:
33,65,95878,2,0,P|21:34|23:7,2,60,2|0|0,2:0|1:0|2:0,2:0:0:0:
91,117,96317,2,0,P|66:169|9:183,1,120,2|0,1:2|1:0,2:0:0:0:
4,264,96756,1,2,2:0:0:0:
4,264,96903,1,0,1:0:0:0:
147,251,97195,6,0,P|200:225|259:217,1,120,2|0,1:2|1:0,2:0:0:0:
334,193,97634,2,0,P|326:254|304:309,1,120,0|0,2:0|2:0,2:0:0:0:
287,383,98073,1,2,1:2:0:0:
287,383,98219,2,0,P|238:349|202:301,2,120,2|2|2,2:0|2:0|2:0,2:0:0:0:
400,341,99098,1,2,2:0:0:0:
446,230,99391,1,2,2:0:0:0:
408,162,99537,6,0,L|288:174,1,120,0|0,1:0|1:0,2:0:0:0:
243,110,99976,2,0,L|123:97,1,120,0|0,2:0|2:0,2:0:0:0:
93,171,100415,1,2,1:2:0:0:
93,171,100561,2,0,P|51:135|47:73,2,120,2|2|2,2:0|2:0|2:0,2:0:0:0:
205,213,101439,1,2,2:0:0:0:
207,330,101732,1,2,2:0:0:0:
126,369,101878,6,0,B|100:331|100:331|111:256,1,120,0|0,1:0|1:0,2:0:0:0:
47,212,102317,2,0,B|92:199|92:199|123:203|123:203|163:193,1,120,0|0,2:0|2:0,2:0:0:0:
193,188,102683,1,0,3:0:0:0:
193,188,102756,1,2,1:2:0:0:
252,239,102903,2,0,P|270:183|246:129,1,120,2|2,2:0|2:0,2:0:0:0:
185,80,103342,2,0,P|182:50|194:23,1,60,2|2,1:2|2:0,2:0:0:0:
269,0,103635,1,2,1:2:0:0:
336,37,103781,2,0,L|339:80,2,30,8|8|2,2:0|2:0|1:2,2:0:0:0:
432,29,104074,5,10,2:0:0:0:
432,29,104147,1,8,2:0:0:0:
432,29,104220,2,0,B|424:126|424:126|397:129|375:160,1,150,4|10,1:0|2:0,2:0:0:0:
434,309,104805,2,0,P|450:276|447:239,1,75,2|0,2:0|1:0,2:0:0:0:
366,259,105098,1,10,2:0:0:0:
366,259,105244,2,0,L|291:251,1,75,2|0,2:0|1:0,2:0:0:0:
230,307,105537,2,0,L|155:314,1,75,2|8,1:2|2:0,2:0:0:0:
90,364,105830,2,0,P|71:294|122:235,1,150,2|0,2:0|1:0,2:0:0:0:
182,187,106269,1,10,2:0:0:0:
182,187,106415,1,2,2:0:0:0:
111,120,106561,6,0,P|180:94|249:119,1,150,0|10,1:0|2:0,2:0:0:0:
331,114,107000,1,2,2:0:0:0:
380,47,107147,2,0,L|458:56,1,75,2|0,2:0|1:0,2:0:0:0:
497,131,107439,1,10,2:0:0:0:
497,131,107586,2,0,L|419:140,1,75,2|0,2:0|1:0,2:0:0:0:
376,208,107878,2,0,L|298:199,1,75,2|10,1:2|2:0,2:0:0:0:
233,247,108171,2,0,P|203:182|132:178,1,150,2|2,1:2|1:2,2:0:0:0:
59,218,108610,1,10,2:0:0:0:
66,299,108756,1,6,1:2:0:0:
152,336,108903,6,0,P|226:326|301:323,1,150,6|8,1:0|2:0,2:0:0:0:
376,358,109342,2,0,P|378:283|388:208,1,150,0|0,2:0|1:0,2:0:0:0:
430,136,109781,1,8,2:0:0:0:
283,72,110074,1,0,1:0:0:0:
283,72,110220,1,2,1:2:0:0:
206,101,110366,2,0,P|207:139|206:175,1,75,10|2,2:0|2:0,2:0:0:0:
140,226,110659,2,0,P|68:227|37:164,1,150,2|10,2:0|2:0,2:0:0:0:
65,86,111098,1,2,2:0:0:0:
133,16,111244,6,0,B|178:42|178:42|276:28,1,150,0|8,1:0|2:0,2:0:0:0:
356,12,111683,2,0,B|382:57|382:57|368:155,1,150,0|0,2:0|1:0,2:0:0:0:
315,218,112122,2,0,P|347:235|384:234,1,75,8|2,2:0|2:0,2:0:0:0:
462,207,112415,1,2,1:2:0:0:
489,284,112561,1,8,2:0:0:0:
489,284,112635,1,8,2:0:0:0:
489,284,112708,2,0,L|485:334,3,37.5,8|8|8|8,1:2|2:0|2:0|2:0,2:0:0:0:
449,341,113000,2,0,L|399:345,3,37.5,10|4|4|4,1:2|2:3|2:3|2:3,2:0:0:0:
371,331,113293,2,0,L|321:327,3,37.5,6|8|8|8,1:2|2:3|2:3|2:3,2:0:0:0:
300,326,113586,5,4,1:0:0:0:
186,353,115781,5,2,1:2:0:0:
186,353,115927,1,2,1:2:0:0:
104,265,118269,5,2,1:2:0:0:
172,166,120464,5,2,1:2:0:0:
172,166,120610,1,2,1:2:0:0:
285,206,122220,5,8,2:0:0:0:
384,138,122513,1,4,2:3:0:0:
292,58,122805,5,4,2:3:0:0:
292,58,122878,1,4,2:3:0:0:
292,58,122952,2,0,B|254:71|212:50|237:35|194:16|151:29,1,150,4|10,1:0|2:0,2:0:0:0:
73,39,123391,1,2,2:0:0:0:
73,39,123537,2,0,L|82:125,1,75,2|0,2:0|1:0,2:0:0:0:
31,180,123830,1,10,2:0:0:0:
13,260,123976,2,0,P|49:261|81:242,1,75,2|0,2:0|1:0,2:0:0:0:
142,186,124269,2,0,P|178:184|210:203,1,75,2|10,1:2|2:0,2:0:0:0:
252,274,124561,2,0,P|300:326|369:307,1,150,2|0,2:0|1:0,2:0:0:0:
429,250,125000,1,10,2:0:0:0:
429,250,125147,1,2,2:0:0:0:
506,307,125293,6,0,P|503:232|492:157,1,150,2|10,1:2|2:0,2:0:0:0:
433,100,125732,2,0,P|368:137|294:139,1,150,2|2,2:0|1:2,2:0:0:0:
251,68,126171,1,10,2:0:0:0:
251,68,126317,2,0,P|186:30|112:28,1,150,2|2,2:0|1:2,2:0:0:0:
39,66,126756,1,10,2:0:0:0:
0,139,126903,2,0,P|4:176|12:212,1,75,2|0,2:0|2:0,2:0:0:0:
91,249,127195,1,2,1:2:0:0:
91,249,127342,2,0,P|95:211|103:175,1,75,10|2,2:0|2:0,2:0:0:0:
198,150,127635,6,0,B|255:165|255:165|282:197|282:197|329:210,1,150,6|0,1:0|1:0,2:0:0:0:
405,177,128074,2,0,P|401:252|329:291,1,150,8|0,2:0|1:0,2:0:0:0:
264,316,128513,2,0,B|195:305|195:305|168:334|121:331,1,150,12|0,2:1|1:0,2:0:0:0:
48,293,128952,1,0,1:0:0:0:
29,269,129244,2,0,L|51:108,1,150,8|0,2:0|1:0,2:0:0:0:
28,40,129683,2,0,P|65:37|100:52,1,75,14|2,2:1|2:0,2:0:0:0:
163,125,129976,5,2,1:2:0:0:
249,85,130122,1,8,2:0:0:0:
249,85,130195,1,8,2:0:0:0:
249,85,130269,1,10,2:0:0:0:
249,85,130342,1,8,2:0:0:0:
249,85,130415,1,2,1:2:0:0:
393,126,130708,1,2,1:2:0:0:
451,263,131000,6,0,B|400:284|400:284|306:268,1,150,6|8,1:0|2:0,2:0:0:0:
244,213,131439,2,0,P|226:245|226:282,1,75,8|8,1:2|2:0,2:0:0:0:
267,360,131732,1,8,1:2:0:0:
267,360,131878,1,8,2:0:0:0:
189,379,132025,1,8,1:2:0:0:
189,379,132171,1,8,2:0:0:0:
111,351,132317,6,0,L|103:310,3,37.5,8|4|4|4,1:2|2:3|2:3|2:3,2:0:0:0:
70,288,132610,2,0,L|78:247,3,37.5,6|4|4|4,1:2|2:3|2:3|2:3,2:0:0:0:
84,210,132903,1,10,1:2:0:0:
101,129,133049,1,8,2:1:0:0:
324,22,133488,6,0,L|337:186,1,165.000005035401,6|10,1:0|2:0,2:0:0:0:
414,234,133927,1,0,2:0:0:0:
414,325,134074,2,0,P|384:352|343:356,1,82.5000025177003,2|2,1:2|1:2,2:0:0:0:
275,297,134366,1,10,2:0:0:0:
181,350,134513,6,0,P|105:331|93:254,1,165.000005035401,2|2,1:2|1:2,2:0:0:0:
158,191,134952,1,8,2:1:0:0:
101,120,135098,2,0,L|18:125,1,82.5000025177003,2|0,2:0|1:0,2:0:0:0:
12,38,135391,1,2,1:2:0:0:
12,38,135537,2,0,L|94:32,1,82.5000025177003,10|2,2:0|2:0,2:0:0:0:
192,16,135830,5,2,1:2:0:0:
238,93,135976,2,0,P|278:95|315:78,1,82.5000025177003,2|8,2:0|2:1,2:0:0:0:
381,14,136269,2,0,P|458:30|482:105,1,165.000005035401,2|2,2:0|1:2,2:0:0:0:
427,178,136708,1,10,2:0:0:0:
461,271,136854,6,0,B|404:267|404:267|363:249|363:249|300:243,1,165.000005035401,2|2,1:2|1:2,2:0:0:0:
252,321,137293,1,8,2:1:0:0:
171,293,137439,1,2,1:2:0:0:
171,293,137586,2,0,P|138:318|98:324,1,82.5000025177003,2|2,2:0|1:2,2:0:0:0:
31,263,137878,2,0,P|63:238|103:232,1,82.5000025177003,14|2,2:0|2:0,2:0:0:0:
161,139,138171,6,0,P|83:130|57:56,1,165.000005035401,6|10,1:0|2:0,2:0:0:0:
134,6,138610,1,2,2:0:0:0:
134,6,138756,2,0,L|227:13,1,82.5000025177003,0|0,1:0|1:0,2:0:0:0:
280,76,139049,1,10,2:0:0:0:
359,4,139195,6,0,B|399:43|399:43|382:150,1,165.000005035401,2|0,1:2|1:0,2:0:0:0:
307,203,139635,2,0,P|384:177|449:233,1,165.000005035401,8|0,2:1|1:0,2:0:0:0:
475,309,140074,1,0,1:0:0:0:
401,360,140220,1,10,2:0:0:0:
401,360,140366,1,2,2:0:0:0:
305,328,140513,6,0,P|267:343|226:344,1,82.5000025177003,12|0,2:1|1:0,2:0:0:0:
160,281,140805,1,0,1:0:0:0:
212,194,140952,2,0,P|253:195|291:210,2,82.5000025177003,12|0|0,2:0|1:0|1:0,2:0:0:0:
135,143,141391,1,14,2:1:0:0:
49,206,141537,6,0,P|24:131|64:61,1,165.000005035401,6|0,1:0|1:0,2:0:0:0:
149,27,141976,2,0,P|189:31|230:39,1,82.5000025177003,8|8,2:0|2:0,2:0:0:0:
238,41,142195,1,8,2:0:0:0:
245,43,142269,1,8,2:0:0:0:
318,108,142415,1,10,2:0:0:0:
318,108,142488,1,8,2:0:0:0:
318,108,142561,2,0,L|368:96,3,41.2500012588501,10|8|6|4,2:0|2:0|2:0|2:3,2:0:0:0:
402,87,142854,6,0,P|479:98|504:172,1,165.000005035401,6|10,1:0|2:0,2:0:0:0:
484,262,143293,2,0,L|391:254,1,82.5000025177003,2|0,2:0|1:0,2:0:0:0:
310,256,143586,1,2,1:2:0:0:
255,184,143732,1,10,2:0:0:0:
147,187,143878,6,0,B|98:185|83:229|83:229|95:309,1,165.000005035401,2|2,1:2|1:2,2:0:0:0:
158,375,144317,1,10,2:0:0:0:
242,341,144464,2,0,P|283:333|321:346,1,82.5000025177003,2|0,2:0|1:0,2:0:0:0:
409,381,144756,1,2,1:2:0:0:
409,381,144903,1,10,2:0:0:0:
466,310,145049,1,2,2:0:0:0:
410,218,145195,6,0,B|349:247|349:247|304:221|255:226,1,165.000005035401,2|10,1:2|2:0,2:0:0:0:
180,279,145635,1,2,2:0:0:0:
104,229,145781,2,0,P|84:193|86:152,1,82.5000025177003,2|2,1:2|1:2,2:0:0:0:
149,88,146074,1,10,2:0:0:0:
63,38,146220,6,0,B|117:61|117:61|218:30,1,165.000005035401,2|2,1:2|1:2,2:0:0:0:
305,1,146659,2,0,P|344:9|376:35,1,82.5000025177003,8|2,2:1|1:2,2:0:0:0:
466,21,146952,2,0,P|478:59|471:100,1,82.5000025177003,2|0,2:0|1:0,2:0:0:0:
400,157,147244,1,14,2:1:0:0:
368,143,147537,6,0,B|322:129|275:153|308:158|261:185|211:171,1,165.000005035401,6|8,1:0|2:1,2:0:0:0:
150,103,147976,1,2,2:0:0:0:
60,115,148122,2,0,P|41:151|40:192,1,82.5000025177003,8|0,2:1|1:0,2:0:0:0:
88,269,148415,1,10,2:0:0:0:
177,256,148561,1,2,1:2:0:0:
259,325,148708,6,0,P|338:332|389:272,1,165.000005035401,12|8,2:1|2:1,2:0:0:0:
432,190,149147,1,2,1:2:0:0:
376,118,149293,2,0,P|337:106|298:118,1,82.5000025177003,10|0,2:0|1:0,2:0:0:0:
237,185,149586,1,10,2:0:0:0:
176,117,149732,1,2,1:2:0:0:
87,158,149878,5,4,1:0:0:0:
87,158,150025,2,0,P|33:119|29:54,1,134.999995880127,2|0,1:2|1:0,2:0:0:0:
86,6,150464,2,0,B|126:40|126:40|207:26,1,134.999995880127,8|0,2:1|1:0,2:0:0:0:
281,19,150903,2,0,P|345:13|383:65,1,134.999995880127,0|8,1:0|2:1,2:0:0:0:
391,140,151342,1,0,1:0:0:0:
370,157,151635,2,0,L|380:241,1,67.4999979400635,10|10,2:0|2:0,2:0:0:0:
442,261,151927,2,0,L|432:345,1,67.4999979400635,10|10,2:0|2:0,2:0:0:0:
368,363,152220,5,2,1:2:0:0:
295,313,152366,1,10,2:0:0:0:
295,313,152439,1,8,2:0:0:0:
295,313,152513,2,0,L|290:272,2,33.7499989700318,10|8|2,2:0|2:0|1:2,2:0:0:0:
165,350,152952,1,2,1:2:0:0:
102,230,153244,1,10,2:0:0:0:
32,352,154561,5,4,1:0:0:0:
256,192,154635,12,2,156903,1:2:0:0:
32,352,163927,6,0,L|180:338,1,134.999995880127,4|0,1:2|2:0,2:0:0:0:
177,265,164366,2,0,L|29:251,1,134.999995880127,0|0,3:0|1:0,2:0:0:0:
30,178,164805,1,0,3:0:0:0:
127,84,165098,2,0,P|158:71|191:75,2,67.4999979400635,2|0|2,1:2|2:0|2:0,2:0:0:0:
168,146,165537,2,0,P|232:168|323:141,1,134.999995880127,2|2,3:2|1:2,2:0:0:0:
346,100,165976,1,2,3:2:0:0:
472,179,166269,6,0,P|492:243|475:307,1,134.999995880127,0|0,1:0|2:0,2:0:0:0:
406,335,166708,2,0,L|267:310,1,134.999995880127,0|0,3:0|1:0,2:0:0:0:
228,250,167147,1,0,3:0:0:0:
98,288,167439,2,0,L|102:358,2,67.4999979400635,2|0|2,1:2|1:0|2:0,2:0:0:0:
49,231,167878,2,0,L|60:91,1,134.999995880127,2|2,3:2|1:2,2:0:0:0:
91,28,168317,1,0,3:0:0:0:
222,74,168610,6,0,P|284:60|310:117,1,134.999995880127,0|0,1:0|2:0,2:0:0:0:
260,172,169049,2,0,P|244:237|238:304,1,134.999995880127,2|0,3:2|1:0,2:0:0:0:
296,351,169488,1,2,3:2:0:0:
398,262,169781,2,0,P|366:250|333:241,2,67.4999979400635,0|0|0,1:0|1:0|2:0,2:0:0:0:
462,224,170220,2,0,P|493:173|462:104,1,134.999995880127,0|0,3:0|1:0,2:0:0:0:
405,65,170659,1,2,3:2:0:0:
258,89,170952,6,0,B|213:104|213:104|113:91,1,134.999995880127,0|2,1:0|3:2,2:0:0:0:
62,53,171391,2,0,P|109:98|102:163,1,134.999995880127,2|2,1:2|1:2,2:0:0:0:
51,217,171830,1,0,3:0:0:0:
94,277,171976,2,0,L|253:252,1,134.999995880127,2|0,1:2|2:0,2:0:0:0:
267,192,172415,1,2,2:0:0:0:
337,216,172561,2,0,P|401:200|450:242,1,134.999995880127,2|2,1:2|1:2,2:0:0:0:
457,316,173000,1,2,2:0:0:0:
314,357,173293,6,0,B|272:338|272:338|184:352,1,134.999995880127,4|0,1:0|2:0,2:0:0:0:
110,363,173732,2,0,P|56:326|52:261,1,134.999995880127,0|0,3:0|1:0,2:0:0:0:
79,191,174171,1,0,3:0:0:0:
114,60,174464,2,0,P|80:55|47:57,2,67.4999979400635,2|0|2,1:2|1:0|2:0,2:0:0:0:
157,120,174903,2,0,P|221:130|269:86,1,134.999995880127,2|2,3:2|1:2,2:0:0:0:
317,29,175342,1,2,3:2:0:0:
460,55,175635,6,0,L|478:192,1,134.999995880127,0|2,1:0|2:0,2:0:0:0:
439,252,176074,2,0,P|374:262|326:218,1,134.999995880127,2|2,2:0|1:2,2:0:0:0:
226,127,176659,1,2,1:2:0:0:
112,197,176952,1,0,1:0:0:0:
112,197,177098,2,0,L|100:272,1,67.4999979400635,2|2,3:2|2:0,2:0:0:0:
167,297,177391,2,0,L|179:372,1,67.4999979400635,0|2,1:0|1:2,2:0:0:0:
251,366,177683,1,10,2:0:0:0:
276,349,177976,6,0,B|315:361|356:341|331:326|374:307|417:320,1,150,4|10,1:0|2:0,2:0:0:0:
488,360,178415,2,0,B|509:322|509:322|497:216,1,150,0|0,2:0|1:0,2:0:0:0:
487,134,178854,1,8,2:0:0:0:
367,42,179147,2,0,L|363:116,2,75,0|0|8,1:0|1:0|2:0,2:0:0:0:
286,22,179586,2,0,P|214:6|155:48,1,150,0|2,2:0|1:2,2:0:0:0:
109,117,180025,1,10,2:0:0:0:
109,117,180171,1,2,2:0:0:0:
112,206,180317,6,0,L|250:195,1,120,6|2,1:0|2:0,2:0:0:0:
280,134,180756,1,2,1:2:0:0:
280,134,180903,2,0,P|306:186|293:243,1,120,8|2,2:0|1:2,2:0:0:0:
238,300,181342,1,2,2:0:0:0:
206,318,181635,2,0,L|68:307,1,120,8|2,2:0|2:0,2:0:0:0:
34,257,182074,1,8,2:0:0:0:
34,257,182220,1,8,2:0:0:0:
66,187,182366,2,0,P|67:157|62:127,1,60,6|6,2:0|2:0,2:0:0:0:
14,49,182659,6,0,P|70:96|139:77,1,150,4|0,1:0|1:0,2:0:0:0:
203,23,183098,2,0,B|266:28|266:28|288:48|288:48|344:53,1,150,8|0,2:1|1:0,2:0:0:0:
413,7,183537,2,0,B|449:49|449:49|428:141,1,150,8|0,2:1|1:0,2:0:0:0:
375,204,183976,1,8,2:1:0:0:
375,204,184122,1,8,2:1:0:0:
307,155,184269,2,0,B|272:149|227:165|257:181|207:201|167:195,1,150,4|4,2:3|2:3,2:0:0:0:
101,145,184708,1,8,2:1:0:0:
17,269,185000,1,0,1:0:0:0:
153,331,185293,5,8,2:1:0:0:
230,304,185439,2,0,L|226:266,2,37.5,8|8|8,2:0|2:0|2:0,2:0:0:0:
302,344,185732,2,0,P|339:347|374:335,1,75,4|4,2:3|2:3,2:0:0:0:
442,288,186025,1,2,1:0:0:0:
388,158,186317,1,0,1:0:0:0:
388,158,186391,1,0,1:0:0:0:
388,158,186464,2,0,B|333:168|283:137|283:137|213:166|213:166|161:139|101:153,1,300,10|2,2:0|2:0,2:0:0:0:
19,188,187342,6,0,L|32:327,1,134.999995880127,2|2,2:0|2:0,2:0:0:0:
191,164,188513,6,0,L|178:25,1,134.999995880127,2|2,2:0|2:0,2:0:0:0:
371,143,189683,6,0,L|384:282,1,134.999995880127,2|2,2:0|2:0,2:0:0:0:
494,354,190561,5,2,2:0:0:0:
511,265,190854,2,0,L|498:130,1,134.999995880127,2|2,2:0|2:0,2:0:0:0:
473,93,191439,2,0,P|450:94|429:102,1,44.999998626709,2|2,2:0|2:0,2:0:0:0:
398,135,191732,1,2,2:0:0:0:
324,82,192025,6,0,L|189:68,1,134.999995880127,2|2,2:0|2:0,2:0:0:0:
63,195,193049,5,2,2:0:0:0:
63,195,193195,2,0,L|197:181,1,134.999995880127,2|2,2:0|2:0,2:0:0:0:
331,309,194220,5,2,2:0:0:0:
331,309,194366,2,0,L|197:295,1,134.999995880127,2|2,2:0|2:0,2:0:0:0:
62,283,195244,1,2,2:0:0:0:
7,211,195537,6,0,P|32:174|74:162,1,89.9999972534181,2|2,2:0|2:0,2:0:0:0:
121,187,195976,2,0,L|123:213,2,26.2499991989136,2|0|2,2:0|2:0|2:0,2:0:0:0:
166,159,196269,1,0,2:0:0:0:
166,159,196415,1,2,2:0:0:0:
261,45,196708,6,0,L|328:51,1,67.4999979400635,4|2,1:0|2:0,2:0:0:0:
396,78,197000,2,0,L|399:145,1,67.4999979400635,2|0,1:2|2:0,2:0:0:0:
443,206,197293,2,0,P|483:259|469:323,1,134.999995880127,2|2,1:2|1:2,2:0:0:0:
400,293,197732,2,0,L|332:299,1,67.4999979400635,2|0,2:0|1:0,2:0:0:0:
266,332,198025,1,2,2:0:0:0:
266,332,198171,2,0,L|198:325,1,67.4999979400635,2|2,1:2|2:0,2:0:0:0:
128,350,198464,2,0,P|88:297|102:233,1,134.999995880127,0|2,1:0|1:2,2:0:0:0:
156,95,199049,6,0,L|23:70,2,134.999995880127,2|2|2,1:2|1:2|1:2,2:0:0:0:
208,42,199781,1,0,2:0:0:0:
208,42,199927,2,0,P|238:28|271:31,1,67.4999979400635,2|0,1:2|2:0,2:0:0:0:
331,76,200220,2,0,L|317:210,2,134.999995880127,2|2|2,1:2|1:2|1:2,2:0:0:0:
391,32,200952,1,0,1:0:0:0:
454,69,201098,1,2,1:2:0:0:
481,80,201391,6,0,L|495:229,1,150,14|0,2:1|1:0,2:0:0:0:
435,285,201830,2,0,L|427:359,2,75,12|0|0,2:0|1:0|1:0,2:0:0:0:
370,232,202269,2,0,L|362:157,2,75,14|2|0,2:1|1:2|1:0,2:0:0:0:
303,281,202708,2,0,L|295:355,2,75,12|0|0,2:0|1:0|1:0,2:0:0:0:
253,214,203147,2,0,P|223:192|186:192,1,75,12|0,2:1|1:0,2:0:0:0:
176,198,203366,1,0,1:0:0:0:
165,203,203439,2,0,P|135:224|98:224,1,75,12|0,2:0|1:0,2:0:0:0:
28,166,203732,5,4,1:0:0:0:
28,166,203878,2,0,P|41:94|106:61,1,150,0|0,1:0|1:0,2:0:0:0:
178,83,204317,2,0,B|225:103|225:103|323:86,1,150,12|2,2:0|1:2,2:0:0:0:
381,39,204756,1,2,1:2:0:0:
483,149,205049,2,0,P|491:185|481:220,2,75,10|2|2,2:0|1:2|2:0,2:0:0:0:
415,183,205488,2,0,B|368:163|368:163|270:180,1,150,8|2,2:1|2:0,2:0:0:0:
195,187,205927,1,2,1:2:0:0:
114,145,206074,6,0,P|72:204|94:274,1,150,14|8,2:1|1:0,2:0:0:0:
165,325,206513,1,8,2:1:0:0:
165,325,206659,2,0,L|251:309,1,75,8|8,2:1|2:1,2:0:0:0:
313,347,206952,1,12,2:1:0:0:
373,291,207098,1,12,2:1:0:0:
256,192,207171,12,0,208415,2:0:0:0:
270,179,208708,6,0,L|352:170,1,82.5000025177003,6|0,1:0|2:0,2:0:0:0:
430,214,209000,2,0,L|512:222,1,82.5000025177003,2|0,1:2|1:0,2:0:0:0:
497,311,209293,1,10,2:0:0:0:
397,347,209439,6,0,P|319:371|247:335,1,165.000005035401,2|2,1:2|1:2,2:0:0:0:
216,249,209878,1,8,2:1:0:0:
128,274,210025,2,0,P|89:287|48:283,1,82.5000025177003,2|0,2:0|1:0,2:0:0:0:
8,208,210317,1,2,1:2:0:0:
8,208,210464,1,10,2:0:0:0:
12,117,210610,1,2,2:0:0:0:
109,72,210756,6,0,B|166:68|166:68|207:50|207:50|270:44,1,165.000005035401,2|10,1:2|2:0,2:0:0:0:
360,56,211195,1,2,2:0:0:0:
437,8,211342,2,0,P|449:47|445:88,1,82.5000025177003,2|0,1:2|1:0,2:0:0:0:
406,170,211635,1,10,2:0:0:0:
301,149,211781,6,0,P|221:137|160:189,1,165.000005035401,2|2,1:2|1:2,2:0:0:0:
104,260,212220,1,8,2:1:0:0:
36,208,212366,1,2,1:2:0:0:
36,208,212513,2,0,P|20:245|25:286,1,82.5000025177003,2|2,2:0|1:2,2:0:0:0:
88,350,212805,2,0,L|170:343,1,82.5000025177003,14|2,2:0|2:0,2:0:0:0:
252,273,213098,6,0,B|298:259|348:280|314:294|363:313|409:301,1,165.000005035401,6|10,1:0|2:0,2:0:0:0:
479,366,213537,1,2,2:0:0:0:
479,366,213683,2,0,P|502:328|503:284,1,82.5000025177003,0|0,1:0|1:0,2:0:0:0:
454,214,213976,1,10,2:0:0:0:
511,123,214122,6,0,B|460:97|460:97|353:114,1,165.000005035401,2|0,1:2|1:0,2:0:0:0:
262,121,214561,2,0,B|211:147|211:147|104:129,1,165.000005035401,8|0,2:1|1:0,2:0:0:0:
16,106,215000,1,0,1:0:0:0:
4,199,215147,1,10,2:0:0:0:
4,199,215293,1,2,2:0:0:0:
29,302,215439,6,0,P|54:333|93:342,1,82.5000025177003,12|0,2:1|1:0,2:0:0:0:
184,328,215732,1,0,1:0:0:0:
161,226,215878,2,0,P|121:234|96:266,2,82.5000025177003,12|0|0,2:0|1:0|1:0,2:0:0:0:
251,240,216317,1,14,2:1:0:0:
342,297,216464,6,0,P|420:306|465:242,1,165.000005035401,6|0,1:0|1:0,2:0:0:0:
433,155,216903,2,0,L|350:149,1,82.5000025177003,8|8,2:0|2:0,2:0:0:0:
338,148,217122,1,8,2:0:0:0:
325,148,217195,2,0,L|283:145,3,41.2500012588501,8|8|10|8,2:0|2:0|2:0|2:0,2:0:0:0:
250,113,217488,2,0,L|208:115,3,41.2500012588501,6|4|6|4,2:0|2:3|2:0|2:3,2:0:0:0:
171,141,217781,6,0,P|93:131|62:59,1,165.000005035401,6|10,1:0|2:0,2:0:0:0:
136,4,218220,2,0,L|218:8,1,82.5000025177003,2|0,2:0|1:0,2:0:0:0:
298,51,218513,1,2,1:2:0:0:
376,5,218659,1,10,2:0:0:0:
470,54,218805,6,0,B|508:100|508:100|486:203,1,165.000005035401,2|2,1:2|1:2,2:0:0:0:
405,245,219244,1,10,2:0:0:0:
340,180,219391,2,0,P|306:158|266:157,1,82.5000025177003,2|0,2:0|1:0,2:0:0:0:
187,200,219683,1,2,1:2:0:0:
187,200,219830,2,0,P|152:222|112:223,1,82.5000025177003,10|0,2:0|2:0,2:0:0:0:
13,181,220122,5,2,1:2:0:0:
1,271,220269,1,2,2:0:0:0:
8,361,220415,2,0,B|49:358|72:326|72:326|157:352,1,165.000005035401,10|2,2:0|1:2,2:0:0:0:
250,374,220854,1,2,1:2:0:0:
250,374,221000,1,10,2:0:0:0:
354,348,221147,6,0,B|387:241|387:241|362:193,1,165.000005035401,2|2,1:2|1:2,2:0:0:0:
390,107,221586,2,0,P|349:100|311:115,1,82.5000025177003,8|2,2:1|1:2,2:0:0:0:
302,124,221805,1,0,2:0:0:0:
291,131,221878,2,0,L|242:140,3,41.2500012588501,2|2|0|0,1:2|1:2|1:0|1:0,2:0:0:0:
238,140,222171,2,0,L|155:131,1,82.5000025177003,14|0,2:1|2:0,2:0:0:0:
49,148,222464,6,0,P|4:84|49:21,1,165.000005035401,6|8,1:0|2:1,2:0:0:0:
138,35,222903,1,2,2:0:0:0:
223,4,223049,2,0,L|304:14,1,82.5000025177003,8|0,2:1|1:0,2:0:0:0:
395,26,223342,1,10,2:0:0:0:
456,92,223488,1,2,1:2:0:0:
386,174,223635,6,0,B|345:201|345:201|229:185,1,165.000005035401,12|8,2:1|2:1,2:0:0:0:
176,111,224074,1,2,1:2:0:0:
87,131,224220,2,0,P|68:167|72:207,1,82.5000025177003,10|0,2:0|1:0,2:0:0:0:
130,277,224513,1,10,2:0:0:0:
81,353,224659,1,2,1:2:0:0:
199,362,224805,5,4,1:0:0:0:
199,362,224952,2,0,L|353:340,1,134.999995880127,2|0,1:2|1:0,2:0:0:0:
400,372,225391,2,0,P|397:306|344:268,1,134.999995880127,8|0,2:1|1:0,2:0:0:0:
270,272,225830,2,0,P|333:254|363:194,1,134.999995880127,0|8,1:0|2:1,2:0:0:0:
341,124,226269,1,0,1:0:0:0:
346,97,226561,2,0,L|359:22,1,67.4999979400635,10|6,2:0|2:0,2:0:0:0:
432,28,226854,2,0,L|445:103,1,67.4999979400635,6|6,2:0|2:0,2:0:0:0:
462,166,227147,5,4,1:0:0:0:
451,255,227293,1,8,2:0:0:0:
451,255,227366,1,8,2:0:0:0:
451,255,227439,2,0,L|491:263,2,33.7499989700318,10|0|2,2:0|2:0|1:2,2:0:0:0:
363,358,227878,1,2,1:2:0:0:
263,266,228171,1,6,2:0:0:0:
56,348,229488,6,0,L|48:213,1,134.999995880127,4|2,1:0|1:2,2:0:0:0:
48,138,229927,2,0,B|82:138|105:160|105:160|172:136,1,134.999995880127,2|0,2:0|2:0,2:0:0:0:
238,171,230366,2,0,P|188:130|204:68,1,134.999995880127,2|0,1:2|1:0,2:0:0:0:
266,26,230805,2,0,L|400:37,1,134.999995880127,2|0,2:0|2:0,2:0:0:0:
474,41,231244,1,2,1:2:0:0:
507,185,231537,1,2,1:2:0:0:
486,202,231830,6,0,P|425:226|366:197,1,134.999995880127,2|0,1:2|1:0,2:0:0:0:
328,132,232269,2,0,L|193:141,1,134.999995880127,2|0,2:0|2:0,2:0:0:0:
136,92,232708,2,0,P|75:67|16:96,1,134.999995880127,2|0,1:2|1:0,2:0:0:0:
4,170,233147,2,0,L|19:248,1,67.4999979400635,2|2,2:0|1:2,2:0:0:0:
42,312,233439,1,2,2:0:0:0:
42,312,233586,2,0,P|100:340|161:316,1,134.999995880127,0|2,1:0|1:2,2:0:0:0:
257,202,234171,6,0,B|238:284|238:284|268:324,1,134.999995880127,2|2,1:2|1:2,2:0:0:0:
334,359,234610,2,0,B|367:369|413:354|390:345|432:330|464:340,1,134.999995880127,2|0,2:0|2:0,2:0:0:0:
511,283,235049,2,0,P|507:216|470:161,1,134.999995880127,2|0,1:2|1:0,2:0:0:0:
400,133,235488,2,0,B|347:124|347:124|329:129|329:129|267:118,1,134.999995880127,2|2,2:0|2:0,2:0:0:0:
193,111,235927,1,2,1:2:0:0:
103,229,236220,1,2,1:2:0:0:
20,105,236513,6,0,P|33:40|88:5,1,134.999995880127,2|0,1:2|1:0,2:0:0:0:
162,15,236952,2,0,B|206:35|206:35|291:19,1,134.999995880127,2|0,2:0|2:0,2:0:0:0:
365,16,237391,2,0,B|433:35|433:35|460:56|453:92,1,134.999995880127,2|0,1:2|1:0,2:0:0:0:
407,151,237830,2,0,L|332:168,1,67.4999979400635,2|2,2:0|1:2,2:0:0:0:
274,198,238122,2,0,P|207:195|151:159,1,134.999995880127,2|2,2:0|2:0,2:0:0:0:
111,96,238561,1,2,1:2:0:0:
9,180,238854,6,0,P|16:239|20:299,1,120,6|0,1:0|1:0,2:0:0:0:
122,362,239439,2,0,P|126:302|133:242,1,120,2|0,1:2|1:0,2:0:0:0:
197,197,239878,2,0,P|209:224|210:253,2,60,2|0|0,2:0|1:0|2:0,2:0:0:0:
141,142,240317,2,0,P|200:139|251:109,1,120,2|0,1:2|1:0,2:0:0:0:
296,45,240756,1,2,2:0:0:0:
296,45,240903,1,0,1:0:0:0:
449,70,241195,6,0,P|475:123|483:182,1,120,2|0,1:2|1:0,2:0:0:0:
507,257,241634,2,0,P|446:248|391:226,1,120,0|0,2:0|2:0,2:0:0:0:
317,209,242073,1,2,1:2:0:0:
317,209,242219,2,0,P|351:160|399:124,1,120,2|2,2:0|2:0,2:0:0:0:
379,47,242659,1,2,1:2:0:0:
378,47,242805,2,0,P|320:60|260:65,1,120,2|2,2:0|2:0,2:0:0:0:
110,22,243391,5,2,2:0:0:0:
110,22,243464,1,2,2:0:0:0:
110,22,243537,2,0,B|79:61|79:61|91:130,1,120,2|0,1:0|1:0,2:0:0:0:
169,135,243976,2,0,P|114:155|96:210,1,120,0|0,2:0|2:0,2:0:0:0:
141,281,244415,1,2,1:2:0:0:
141,281,244561,2,0,L|265:295,1,120,2|0,2:0|2:0,2:0:0:0:
323,340,245000,1,0,1:0:0:0:
433,292,245293,1,0,1:0:0:0:
350,165,245586,5,2,1:2:0:0:
350,165,245732,1,2,1:2:0:0:
