osu file format v14

[General]
AudioFilename: audio.mp3
AudioLeadIn: 0
PreviewTime: 186391
Countdown: 0
SampleSet: Soft
StackLeniency: 0.7
Mode: 0
LetterboxInBreaks: 0
WidescreenStoryboard: 0

[Editor]
Bookmarks: 17586,26952,45683,55049,63098,64415,84171,85488,94854,104220,113586,122952,133488,153244,154561,177976,187342,196708,201391,207098,208708,228171,238854,245732
DistanceSpacing: 0.6
BeatDivisor: 4
GridSize: 32
TimelineZoom: 1.4

[Metadata]
Title:Ukigumo
TitleUnicode:浮雲
Artist:nao feat. isui
ArtistUnicode:夏央 feat. 倚水
Creator:Sarawatlism
Version:pnky's Insane
Source:
Tags:japanese rock j-rock jrock jpop pop j-pop サマーライト summer light pnky [_lost_] conner c_o_n_n_e_r centrak_ xhappy- p_kung
BeatmapID:3969715
BeatmapSetID:1876775

[Difficulty]
HPDrainRate:5
CircleSize:4
OverallDifficulty:8
ApproachRate:9
SliderMultiplier:1.62
SliderTickRate:1

[Events]
//Background and Video events
0,0,"BG.jpg",0,0
//Break Periods
2,85688,93961
2,118269,121620
2,157103,162610
//Storyboard Layer 0 (Background)
//Storyboard Layer 1 (Fail)
//Storyboard Layer 2 (Pass)
//Storyboard Layer 3 (Foreground)
//Storyboard Layer 4 (Overlay)
//Storyboard Sound Samples

[TimingPoints]
1196,292.682926829268,4,2,1,50,1,0
17586,-100,4,2,4,60,0,0
17878,-100,4,2,3,60,0,0
22269,-142.857142857143,4,2,3,60,0,0
26659,-142.857142857143,4,2,4,60,0,0
27537,-142.857142857143,4,2,3,60,0,0
28122,-133.333333333333,4,2,3,60,0,0
31635,-133.333333333333,4,2,5,60,0,0
31927,-133.333333333333,4,2,3,60,0,0
36317,-133.333333333333,4,2,4,60,0,0
36903,-133.333333333333,4,2,3,60,0,0
45391,-133.333333333333,4,2,2,60,0,0
45683,-125,4,2,1,60,0,0
45975,-125,4,2,3,60,0,0
49049,-125,4,2,4,60,0,0
49488,-125,4,2,3,60,0,0
50366,-125,4,2,5,60,0,0
50659,-125,4,2,3,60,0,0
53439,-125,4,2,4,60,0,0
54171,-125,4,2,5,60,0,0
54756,-125,4,2,1,60,0,0
55049,-117.647058823529,4,2,1,70,0,0
55341,-117.647058823529,4,2,6,70,0,0
62513,-117.647058823529,4,2,5,70,0,0
63098,-500,4,2,6,70,0,0
64415,-95.2380952380952,4,2,6,85,0,1
64708,-95.2380952380952,4,2,4,85,0,1
72903,-64.5161290322581,4,2,3,85,0,1
73342,-80,4,2,3,85,0,1
73708,-80,4,2,2,85,0,1
73781,-95.2380952380952,4,2,4,85,0,1
80952,-100,4,2,4,85,0,1
83293,-100,4,2,6,85,0,1
84171,-100,4,2,4,85,0,0
85488,-100,4,2,4,50,0,0
94561,-100,4,2,2,50,0,0
94854,-133.333333333333,4,2,4,60,0,0
95146,-133.333333333333,4,2,3,60,0,0
95439,-200,4,2,3,60,0,0
96025,-133.333333333333,4,2,3,60,0,0
96756,-200,4,2,3,60,0,0
97195,-133.333333333333,4,2,3,60,0,0
98074,-200,4,2,3,60,0,0
98366,-133.333333333333,4,2,3,60,0,0
100415,-200,4,2,3,60,0,0
100708,-133.333333333333,4,2,3,60,0,0
101439,-200,4,2,3,60,0,0
101878,-133.333333333333,4,2,3,60,0,0
102756,-200,4,2,4,60,0,0
103049,-133.333333333333,4,2,3,60,0,0
103635,-133.333333333333,4,2,6,60,0,0
104220,-125,4,2,6,70,0,0
108171,-125,4,2,5,70,0,0
108610,-125,4,2,3,70,0,0
108756,-125,4,2,4,70,0,0
109195,-125,4,2,6,70,0,0
113073,-125,4,2,1,70,0,0
113219,-125,4,2,2,70,0,0
113293,-125,4,2,6,70,0,0
113366,-125,4,2,1,70,0,0
113586,-250,4,2,1,60,0,0
113878,-250,4,2,4,60,0,0
122220,-250,4,2,6,60,0,0
122513,-250,4,2,2,60,0,0
122805,-250,4,2,1,60,0,0
122952,-117.647058823529,4,2,1,70,0,0
123244,-117.647058823529,4,2,6,70,0,0
130415,-117.647058823529,4,2,5,70,0,0
131000,-117.647058823529,4,2,6,70,0,0
132903,-117.647058823529,4,2,4,70,0,0
133488,-95.238095238095,4,2,4,85,0,1
141976,-64.5161290322581,4,2,3,85,0,1
142415,-80,4,2,3,85,0,1
142781,-80,4,2,2,85,0,1
142854,-80,4,2,4,85,0,1
143293,-95.2380952380952,4,2,4,85,0,1
150025,-100,4,2,4,85,0,1
152366,-100,4,2,6,85,0,1
153244,-100,4,2,4,85,0,0
154561,-100,4,2,4,50,0,0
163927,-142.857142857143,4,2,4,50,0,0
164366,-142.857142857143,4,2,1,50,0,0
165098,-142.857142857143,4,2,4,50,0,0
165537,-142.857142857143,4,2,3,50,0,0
165829,-142.857142857143,4,2,4,50,0,0
165976,-142.857142857143,4,2,3,50,0,0
166269,-142.857142857143,4,2,1,50,0,0
167439,-142.857142857143,4,2,4,50,0,0
167878,-142.857142857143,4,2,3,50,0,0
168170,-142.857142857143,4,2,4,50,0,0
168317,-142.857142857143,4,2,3,50,0,0
168610,-142.857142857143,4,2,1,50,0,0
169049,-142.857142857143,4,2,3,50,0,0
169341,-142.857142857143,4,2,1,50,0,0
169488,-142.857142857143,4,2,3,50,0,0
169781,-142.857142857143,4,2,1,50,0,0
170659,-142.857142857143,4,2,3,50,0,0
170952,-142.857142857143,4,2,1,50,0,0
171244,-142.857142857143,4,2,3,50,0,0
171391,-142.857142857143,4,2,4,50,0,0
171830,-142.857142857143,4,2,1,50,0,0
171976,-142.857142857143,4,2,4,50,0,0
173000,-142.857142857143,4,2,2,50,0,0
173146,-142.857142857143,4,2,4,50,0,0
173732,-142.857142857143,4,2,1,50,0,0
174464,-142.857142857143,4,2,4,50,0,0
174902,-142.857142857143,4,2,3,50,0,0
175195,-142.857142857143,4,2,4,50,0,0
175342,-142.857142857143,4,2,3,50,0,0
175635,-142.857142857143,4,2,4,50,0,0
176366,-142.857142857143,4,2,5,50,0,0
176513,-142.857142857143,4,2,1,50,0,0
176659,-142.857142857143,4,2,5,50,0,0
177098,-142.857142857143,4,2,3,50,0,0
177391,-142.857142857143,4,2,6,50,0,0
177976,-117.647058823529,4,2,6,70,0,0
180464,-125,4,2,6,70,0,0
182659,-100,4,2,6,70,0,0
183098,-83.3333333333333,4,2,1,70,0,0
183537,-71.4285714285714,4,2,1,70,0,0
184269,-100,4,2,1,70,0,0
184415,-100,4,2,2,70,0,0
184708,-83.3333333333333,4,2,1,70,0,0
185732,-83.3333333333333,4,2,2,70,0,0
186025,-83.3333333333333,4,2,5,70,0,0
186464,-83.3333333333333,4,2,4,70,0,0
187342,-83.3333333333333,4,2,4,50,0,0
188513,-500,4,2,4,50,0,0
195830,-250,4,2,4,50,0,0
196415,-357.142857142857,4,2,4,50,0,0
196708,-125,4,2,4,60,0,0
201098,-188.679245283019,4,2,4,60,0,0
201391,-100,4,2,4,70,0,0
202269,-90.9090909090909,4,2,4,70,0,0
203878,-100,4,2,4,70,0,0
206952,-100,4,2,3,70,0,0
208708,-95.2380952380952,4,2,4,85,0,1
216903,-64.5161290322581,4,2,3,85,0,1
217195,-80,4,2,3,85,0,1
217561,-80,4,2,2,85,0,1
217635,-80,4,2,3,85,0,1
217708,-80,4,2,2,85,0,1
217781,-95.2380952380952,4,2,4,85,0,1
225098,-100,4,2,4,85,0,1
226414,-100,4,2,7,85,0,1
226561,-100,4,2,4,85,0,1
226708,-100,4,2,3,85,0,1
227000,-100,4,2,7,85,0,1
227147,-100,4,2,6,85,0,1
227585,-100,4,2,5,85,0,1
228171,-100,4,2,6,85,0,0
229488,-100,4,2,6,50,0,0
229781,-100,4,2,3,50,0,0
234171,-142.857142857143,4,2,3,50,0,0
236952,-166.666666666667,4,2,3,50,0,0
237391,-200,4,2,3,50,0,0
238561,-166.666666666667,4,2,5,50,0,0
238853,-166.666666666667,4,2,4,50,0,0
239439,-166.666666666667,4,2,3,50,0,0
245586,-166.666666666667,4,2,4,50,0,0
245732,-166.666666666667,4,2,5,50,0,0

[Colours]
Combo1 : 218,181,143
Combo2 : 201,146,146
Combo3 : 253,179,225
Combo4 : 164,175,221

[HitObjects]
141,5,17586,5,6,1:0:0:0:
48,109,17878,1,2,1:2:0:0:
48,109,18025,1,2,2:0:0:0:
142,196,18317,1,0,2:0:0:0:
142,196,18464,1,2,1:2:0:0:
80,285,18756,1,0,1:0:0:0:
80,285,18903,1,2,2:0:0:0:
148,341,19195,1,2,2:0:0:0:
148,341,19342,1,2,1:2:0:0:
113,377,19635,1,0,1:0:0:0:
329,376,19927,5,2,1:2:0:0:
225,282,20219,1,0,1:0:0:0:
225,282,20366,1,2,2:0:0:0:
310,185,20658,1,0,2:0:0:0:
310,185,20805,1,2,1:2:0:0:
239,103,21097,1,0,1:0:0:0:
239,103,21244,1,2,2:0:0:0:
300,41,21536,1,2,2:0:0:0:
300,41,21683,1,2,1:2:0:0:
262,8,21976,1,2,1:2:0:0:
402,147,22269,6,0,P|411:91|446:45,1,113.399996539307,2|2,1:2|1:2,2:0:0:0:
505,113,22708,2,0,P|458:143|402:147,1,113.399996539307,2|0,2:0|2:0,2:0:0:0:
337,246,23147,2,0,P|328:190|293:144,1,113.399996539307,2|0,1:2|1:0,2:0:0:0:
233,212,23586,2,0,P|280:241|336:245,1,113.399996539307,2|0,2:0|2:0,2:0:0:0:
213,218,24025,2,0,P|165:188|109:184,1,113.399996539307,2|2,1:2|1:2,2:0:0:0:
0,62,24610,6,0,P|82:46|177:2,2,170.09999480896,2|2|2,1:2|2:0|1:2,2:0:0:0:
256,133,25927,2,0,P|313:139|381:172,1,113.399996539307,2|2,2:0|2:0,2:0:0:0:
435,121,26366,2,0,P|444:91|460:67,1,56.6999982696534,2|2,1:2|2:0,2:0:0:0:
364,160,26659,2,0,P|319:194|266:214,1,113.399996539307,6|6,1:2|1:0,2:0:0:0:
52,383,27537,5,2,1:2:0:0:
95,314,27976,1,2,2:0:0:0:
45,247,28122,2,0,P|23:206|34:123,1,121.500004634857,0|2,1:0|1:2,2:0:0:0:
202,106,28708,1,0,1:0:0:0:
202,106,28854,2,0,P|177:145|100:177,1,121.500004634857,2|0,2:0|2:0,2:0:0:0:
1,40,29293,2,0,P|47:41|113:92,1,121.500004634857,2|0,1:2|1:0,2:0:0:0:
43,146,29732,2,0,P|6:99|1:40,1,121.500004634857,0|0,2:0|2:0,2:0:0:0:
107,82,30171,6,0,P|126:115|131:146,1,60.7500023174287,2|2,1:2|2:0,2:0:0:0:
212,201,30464,1,0,1:0:0:0:
212,201,30610,2,0,P|219:141|236:108,1,91.125003476143,2|0,2:0|2:0,2:0:0:0:
247,106,30903,2,0,B|292:96|317:135|317:135|297:133|283:114,2,121.500004634857,2|2|2,2:0|2:0|2:0,2:0:0:0:
367,60,31635,2,0,P|429:62|485:36,1,121.500004634857,2|0,1:0|1:0,2:0:0:0:
473,135,32074,2,0,P|494:163|463:263,1,121.500004634857,0|0,2:0|2:0,2:0:0:0:
424,309,32513,6,0,P|404:276|400:248,1,60.7500023174287,2|2,1:2|2:0,2:0:0:0:
508,326,32805,1,0,1:0:0:0:
400,254,32952,2,0,P|402:215|415:190,1,60.7500023174287,2|2,2:0|1:2,2:0:0:0:
319,297,33244,2,0,P|296:333|224:368,2,121.500004634857,2|2|2,2:0|2:0|2:0,2:0:0:0:
265,227,33976,2,0,P|209:249|173:297,1,121.500004634857,2|2,1:2|1:2,2:0:0:0:
227,367,34415,2,0,P|282:344|319:297,1,121.500004634857,2|2,2:0|2:0,2:0:0:0:
312,152,34854,5,2,1:2:0:0:
265,227,35000,1,2,2:1:0:0:
312,152,35293,5,2,2:0:0:0:
255,84,35439,1,2,1:2:0:0:
172,117,35586,1,2,2:1:0:0:
180,206,35732,1,2,1:2:0:0:
265,227,35878,1,2,2:1:0:0:
312,152,36025,2,0,P|370:122|441:113,1,121.500004634857,2|6,1:2|1:0,2:0:0:0:
116,0,36903,5,2,1:2:0:0:
58,67,37342,1,2,2:0:0:0:
117,134,37488,2,0,P|136:189|140:259,1,121.500004634857,0|2,1:0|1:2,2:0:0:0:
54,340,38074,1,0,1:0:0:0:
54,340,38220,2,0,P|35:285|31:215,1,121.500004634857,2|0,2:0|2:0,2:0:0:0:
117,134,38659,2,0,P|136:189|140:259,1,121.500004634857,2|0,1:2|1:0,2:0:0:0:
255,384,39098,5,0,2:0:0:0:
255,384,39244,2,0,P|259:323|278:266,1,121.500004634857,2|2,1:2|1:2,2:0:0:0:
387,236,39683,2,0,P|383:296|364:354,1,121.500004634857,2|2,2:0|2:0,2:0:0:0:
277,266,40122,2,0,P|245:252|220:230,1,60.7500023174287,2|2,1:2|2:0,2:0:0:0:
387,236,40415,2,0,P|402:204|407:171,1,60.7500023174287,2|2,1:2|2:0,2:0:0:0:
285,96,40708,2,0,L|296:130,3,30.3750011587143,2|2|2|2,1:2|2:0|2:0|2:0,2:0:0:0:
318,196,41000,1,2,1:0:0:0:
318,196,41293,6,0,L|330:120,1,60.7500023174287,2|0,1:2|2:0,2:0:0:0:
227,36,41586,1,2,1:2:0:0:
227,36,41732,2,0,P|277:67|290:146,2,121.500004634857,2|2|2,2:0|2:0|2:0,2:0:0:0:
210,138,42464,2,0,P|244:147|271:141,1,60.7500023174287,2|2,1:2|2:0,2:0:0:0:
125,153,42756,2,0,P|67:141|3:133,1,121.500004634857,2|2,1:2|1:2,2:0:0:0:
5,133,43342,6,0,P|39:148|64:166,1,60.7500023174287,0|0,1:0|2:0,2:0:0:0:
161,247,43635,1,0,1:0:0:0:
93,284,43781,2,0,P|114:223|148:162,2,121.500004634857,0|0|2,2:0|2:0|2:0,2:0:0:0:
209,368,44513,6,0,P|228:310|256:256,1,121.500004634857,2|0,1:2|1:0,2:0:0:0:
337,233,44952,1,0,2:0:0:0:
253,146,45098,2,0,P|282:140|312:130,1,60.7500023174287,2|0,1:2|2:0,2:0:0:0:
283,93,45317,1,0,2:0:0:0:
283,93,45391,2,0,P|266:118|253:146,1,60.7500023174287,2|2,1:2|2:0,2:0:0:0:
158,266,45683,6,0,P|140:182|116:131,1,129.6,4|2,1:0|1:2,2:0:0:0:
151,54,46122,1,2,2:0:0:0:
74,101,46269,2,0,P|89:121|132:145,2,64.8,2|0|2,1:2|2:0|1:2,2:0:0:0:
210,119,46708,1,10,2:0:0:0:
219,117,46781,1,8,2:0:0:0:
228,115,46854,2,0,B|328:106|254:127|363:116,2,129.6,0|0|0,1:0|1:0|1:0,2:0:0:0:
228,115,47732,6,0,P|263:120|292:136,1,64.8,2|2,1:2|2:0,2:0:0:0:
278,222,48025,2,0,P|234:180|231:103,1,129.6,2|2,1:2|1:2,2:0:0:0:
160,243,48464,2,0,P|211:211|287:228,1,129.6,2|2,2:0|2:0,2:0:0:0:
277,221,48903,1,2,1:2:0:0:
227,114,49049,2,0,P|235:77|254:46,1,64.8,10|0,2:0|1:0,2:0:0:0:
304,0,49488,6,0,L|167:21,2,129.6,2|2|2,1:2|1:2|1:2,2:0:0:0:
512,160,50366,2,0,P|419:132|304:116,1,194.4,2|2,1:2|2:0,2:0:0:0:
390,206,50952,2,0,P|418:244|412:329,1,129.6,2|2,1:2|1:2,2:0:0:0:
312,235,51391,1,10,2:0:0:0:
313,246,51465,1,8,2:0:0:0:
314,257,51537,2,0,P|353:307|415:323,2,129.6,0|0|2,1:0|1:0|1:2,2:0:0:0:
314,257,52415,6,0,P|288:287|260:301,1,64.8,2|2,1:2|2:0,2:0:0:0:
189,246,52708,2,0,P|152:209|115:129,1,129.6,2|2,1:2|1:2,2:0:0:0:
117,140,53147,1,2,2:0:0:0:
121,308,53439,2,0,P|133:343|136:374,1,64.8,10|2,2:0|1:2,2:0:0:0:
266,298,53732,2,0,P|292:268|320:254,1,64.8,10|0,2:0|1:0,2:0:0:0:
401,241,54171,6,0,P|363:230|290:176,2,129.6,2|2|4,1:0|1:0|2:3,2:0:0:0:
230,39,55049,6,0,B|163:48|178:104|100:110,1,137.700002626419,4|10,1:0|2:0,2:0:0:0:
38,75,55488,1,2,2:0:0:0:
114,108,55635,2,0,P|142:152|146:190,1,68.8500013132096,2|0,2:0|1:0,2:0:0:0:
31,279,55927,2,0,P|3:235|-1:197,1,68.8500013132096,10|2,2:0|2:0,2:0:0:0:
76,198,56220,5,0,1:0:0:0:
76,198,56366,1,2,1:2:0:0:
184,249,56513,2,0,B|251:258|236:314|314:320,1,137.700002626419,10|0,2:0|2:0,2:0:0:0:
219,376,56952,1,0,1:0:0:0:
299,318,57098,2,0,P|342:297|376:289,1,68.8500013132096,10|2,2:0|2:0,2:0:0:0:
457,350,57391,6,0,P|412:304|416:222,1,137.700002626419,2|10,1:2|2:0,2:0:0:0:
492,250,57830,2,0,P|459:239|428:223,1,68.8500013132096,2|0,2:0|2:0,2:0:0:0:
375,159,58122,1,2,1:2:0:0:
231,198,58269,2,0,P|263:187|294:171,1,68.8500013132096,10|2,2:0|2:0,2:0:0:0:
231,198,58561,5,0,1:0:0:0:
149,209,58708,1,0,1:0:0:0:
67,220,58854,2,0,P|34:230|3:246,1,68.8500013132096,10|2,2:0|2:0,2:0:0:0:
139,129,59147,5,2,2:0:0:0:
149,209,59293,1,0,1:0:0:0:
159,291,59439,2,0,P|157:325|149:358,1,68.8500013132096,10|0,2:0|2:0,2:0:0:0:
67,220,59732,6,0,P|33:169|60:94,1,137.700002626419,6|8,1:0|2:0,2:0:0:0:
139,129,60171,1,2,2:0:0:0:
57,16,60317,2,0,P|94:26|118:47,1,68.8500013132096,0|0,2:0|1:0,2:0:0:0:
229,148,60610,2,0,P|229:75|268:45,1,103.275001969814,10|0,2:0|2:0,2:0:0:0:
256,68,60903,5,0,1:0:0:0:
241,159,61049,1,0,1:0:0:0:
226,250,61195,2,0,P|255:189|331:182,1,137.700002626419,8|0,2:0|2:0,2:0:0:0:
247,340,61635,1,0,1:0:0:0:
247,340,61781,2,0,P|228:273|203:240,1,103.275001969814,10|0,2:0|2:0,2:0:0:0:
131,256,62074,6,0,P|107:304|25:325,1,137.700002626419,6|10,1:0|2:0,2:0:0:0:
0,246,62513,1,2,1:2:0:0:
136,384,62805,1,2,1:2:0:0:
232,115,63098,6,0,P|242:67|253:33,1,81,10|2,2:0|2:0,2:0:0:0:
251,36,64415,6,0,P|286:92|281:162,1,127.57499610672,6|0,1:0|2:0,2:0:0:0:
209,107,64708,2,0,P|222:66|255:33,1,85.0499974044801,10|0,2:0|2:0,2:0:0:0:
186,218,65000,1,2,1:2:0:0:
120,87,65147,1,0,1:0:0:0:
62,167,65293,1,10,2:0:0:0:
128,298,65439,6,0,B|213:277|214:327|300:310,1,170.09999480896,2|2,1:2|1:2,2:0:0:0:
374,169,65878,2,0,P|347:216|346:249,1,85.0499974044801,10|2,2:0|2:0,2:0:0:0:
484,376,66171,1,0,1:0:0:0:
484,376,66317,1,2,1:2:0:0:
484,376,66464,2,0,P|511:329|512:296,1,85.0499974044801,10|2,2:0|2:0,2:0:0:0:
345,245,66756,6,0,P|304:282|228:290,1,127.57499610672,2|0,1:2|2:0,2:0:0:0:
315,359,67049,2,0,P|287:322|252:303,1,85.0499974044801,10|2,2:0|2:0,2:0:0:0:
159,229,67342,1,2,1:2:0:0:
30,285,67488,1,0,1:0:0:0:
106,345,67635,1,10,2:0:0:0:
83,169,67781,6,0,B|45:121|64:66|64:66|90:93|84:128,1,170.09999480896,2|2,1:2|1:2,2:0:0:0:
200,17,68220,2,0,P|176:57|168:101,1,85.0499974044801,8|2,2:1|1:2,2:0:0:0:
241,271,68513,2,0,P|218:230|184:201,1,85.0499974044801,2|2,2:0|1:2,2:0:0:0:
0,180,68805,2,0,P|46:180|88:165,1,85.0499974044801,14|2,2:1|2:0,2:0:0:0:
278,81,69098,6,0,P|359:43|451:36,1,170.09999480896,6|10,1:0|2:0,2:0:0:0:
300,159,69537,1,2,2:0:0:0:
369,203,69683,2,0,P|418:218|464:219,1,85.0499974044801,0|0,1:0|1:0,2:0:0:0:
238,215,69976,2,0,P|223:264|222:310,1,85.0499974044801,10|2,2:0|1:2,2:0:0:0:
152,152,70269,6,0,P|136:79|104:4,1,127.57499610672,0|0,2:0|2:0,2:0:0:0:
75,118,70561,2,0,P|115:144|159:151,1,85.0499974044801,8|0,2:1|2:0,2:0:0:0:
8,335,70854,1,0,1:0:0:0:
81,285,71000,1,0,1:0:0:0:
158,244,71147,2,0,P|194:227|245:213,1,85.0499974044801,10|2,2:0|2:0,2:0:0:0:
380,294,71439,5,12,2:1:0:0:
463,214,71586,2,0,P|479:161|480:126,1,85.0499974044801,0|0,1:0|1:0,2:0:0:0:
387,279,71878,5,12,2:0:0:0:
480,131,72025,2,0,P|472:76|458:44,1,85.0499974044801,0|0,1:0|1:0,2:0:0:0:
395,264,72317,5,14,2:1:0:0:
460,49,72464,2,0,P|388:10|299:17,1,170.09999480896,6|0,1:0|1:0,2:0:0:0:
237,120,72903,6,0,B|219:168|175:172|175:172|188:152|211:152,1,125.55000095787,8|8,2:0|2:0,2:0:0:0:
207,152,73122,1,8,2:0:0:0:
207,152,73195,1,8,2:0:0:0:
96,68,73342,6,0,L|33:52,1,50.625,10|8,2:0|2:0,2:0:0:0:
45,188,73488,2,0,L|62:250,1,50.625,10|8,2:0|2:0,2:0:0:0:
175,172,73635,2,0,L|220:125,1,50.625,6|4,2:0|2:3,2:0:0:0:
106,143,73781,6,0,P|91:205|170:272,1,170.09999480896,6|10,1:0|2:0,2:0:0:0:
5,299,74220,2,0,P|41:246|91:230,1,85.0499974044801,2|0,2:0|1:0,2:0:0:0:
211,342,74513,1,2,1:2:0:0:
162,271,74659,1,10,2:0:0:0:
295,325,74805,6,0,P|356:344|474:358,1,170.09999480896,2|2,1:2|1:2,2:0:0:0:
306,234,75244,1,10,2:0:0:0:
391,262,75391,2,0,P|432:248|470:230,1,85.0499974044801,2|0,2:0|1:0,2:0:0:0:
306,234,75683,1,2,1:2:0:0:
484,178,75830,2,0,P|455:217|388:263,1,127.57499610672,10|0,2:0|2:0,2:0:0:0:
306,234,76122,6,0,P|305:188|314:149,1,85.0499974044801,2|2,1:2|2:0,2:0:0:0:
175,73,76415,2,0,P|194:110|204:152,1,85.0499974044801,10|2,2:0|2:0,2:0:0:0:
165,309,76708,1,2,1:2:0:0:
81,256,76854,1,2,1:2:0:0:
105,159,77000,1,10,2:0:0:0:
204,152,77147,6,0,P|201:194|189:234,1,85.0499974044801,2|0,1:2|2:0,2:0:0:0:
152,305,77439,1,2,1:2:0:0:
22,384,77586,2,0,P|9:343|6:301,1,85.0499974044801,8|2,2:1|1:2,2:0:0:0:
165,309,77878,2,0,P|233:330|306:336,1,127.57499610672,2|0,2:0|2:0,2:0:0:0:
373,312,78171,1,14,2:1:0:0:
143,26,78464,1,6,1:0:0:0:
143,26,78756,6,0,L|56:14,1,85.0499974044801,8|2,2:1|2:0,2:0:0:0:
246,165,79049,2,0,L|159:153,1,85.0499974044801,8|0,2:1|1:0,2:0:0:0:
331,91,79342,1,10,2:0:0:0:
84,330,79635,1,12,2:1:0:0:
84,330,79927,6,0,L|-3:318,1,85.0499974044801,8|2,2:1|1:2,2:0:0:0:
273,259,80220,2,0,L|186:247,1,85.0499974044801,10|0,2:0|1:0,2:0:0:0:
300,384,80513,1,10,2:0:0:0:
300,384,80659,1,2,1:2:0:0:
206,354,80805,5,4,1:0:0:0:
354,307,80952,2,0,P|432:288|531:275,1,162,2|0,1:2|1:0,2:0:0:0:
512,276,81317,1,0,1:0:0:0:
512,276,81391,1,8,2:1:0:0:
368,216,81537,1,0,2:0:0:0:
473,119,81683,2,0,P|455:165|450:200,1,81,0|0,1:0|1:0,2:0:0:0:
257,167,81976,5,0,2:0:0:0:
257,167,82122,2,0,P|328:138|388:60,1,162,8|2,2:1|2:0,2:0:0:0:
228,61,82561,2,0,L|217:13,1,40.5,10|0,2:0|2:0,2:0:0:0:
166,113,82708,2,0,L|175:152,1,40.5,10|0,2:0|2:0,2:0:0:0:
94,75,82854,2,0,L|83:27,1,40.5,10|0,2:0|2:0,2:0:0:0:
38,167,83000,1,10,2:0:0:0:
51,161,83074,1,2,2:0:0:0:
63,155,83147,1,2,1:2:0:0:
200,230,83293,5,10,2:0:0:0:
194,259,83366,1,8,2:0:0:0:
189,289,83439,1,10,2:0:0:0:
185,319,83512,1,8,2:0:0:0:
182,350,83585,1,2,1:2:0:0:
200,230,83878,1,2,1:2:0:0:
230,112,84171,1,10,2:0:0:0:
182,350,85488,5,4,1:0:0:0:
263,166,94561,5,2,1:2:0:0:
56,69,94854,6,0,L|48:5,2,60.7500023174287,6|0|0,1:0|2:0|1:0,2:0:0:0:
67,159,95293,1,0,2:0:0:0:
82,279,95439,6,0,L|67:159,1,121.5,2|2,1:2|2:0,2:0:0:0:
146,83,96025,6,0,L|138:19,2,60.7500023174287,0|0|2,1:0|2:0|1:2,2:0:0:0:
157,173,96464,1,0,2:0:0:0:
167,253,96756,6,0,L|157:173,1,81,2|0,2:0|2:0,2:0:0:0:
236,97,97195,6,0,L|228:33,2,60.7500023174287,2|0|0,1:2|2:0|1:0,2:0:0:0:
247,187,97634,1,0,2:0:0:0:
252,227,98074,6,0,L|247:187,1,40.5,2|2,1:2|2:0,2:0:0:0:
326,111,98366,6,0,L|318:47,2,60.7500023174287,0|2|0,1:0|2:0|1:0,2:0:0:0:
337,201,98805,1,2,2:0:0:0:
326,111,99098,2,0,L|318:47,2,60.7500023174287,2|0|2,2:0|1:0|2:0,2:0:0:0:
424,167,99537,6,0,L|432:103,2,60.7500023174287,0|0|0,1:0|2:0|1:0,2:0:0:0:
413,257,99976,1,0,2:0:0:0:
407,297,100415,6,0,L|413:257,1,40.5,2|2,1:2|2:0,2:0:0:0:
337,201,100708,6,0,L|345:137,2,60.7500023174287,0|2|0,1:0|2:0|1:0,2:0:0:0:
326,291,101147,1,2,2:0:0:0:
315,371,101439,6,0,L|326:291,1,81,2|2,2:0|2:0,2:0:0:0:
250,235,101878,6,0,L|258:171,2,60.7500023174287,0|0|0,1:0|2:0|1:0,2:0:0:0:
239,325,102317,1,0,2:0:0:0:
233,365,102756,6,0,L|239:325,1,40.5,2|2,1:2|2:0,2:0:0:0:
163,269,103049,6,0,L|171:205,2,60.7500023174287,0|2|2,1:0|2:0|1:2,2:0:0:0:
152,359,103488,1,2,2:0:0:0:
76,302,103635,6,0,L|82:258,3,30.3750011587143,2|8|8|8,1:2|2:0|2:0|2:0,2:0:0:0:
87,197,103927,1,2,1:2:0:0:
0,128,104074,5,10,2:0:0:0:
1,136,104147,1,8,2:0:0:0:
2,144,104220,2,0,P|61:114|141:97,1,129.6,4|10,1:0|2:0,2:0:0:0:
21,19,104659,2,0,P|67:65|139:105,1,129.6,0|0,2:0|1:0,2:0:0:0:
225,0,105098,2,0,P|197:17|165:44,1,64.8,10|2,2:0|2:0,2:0:0:0:
277,223,105391,5,0,1:0:0:0:
344,177,105537,1,2,1:2:0:0:
322,98,105683,1,8,2:0:0:0:
240,95,105830,2,0,P|225:125|212:163,1,64.8,2|0,2:0|2:0,2:0:0:0:
277,223,106122,1,0,1:0:0:0:
211,338,106269,2,0,P|198:284|177:227,1,97.2,10|0,2:0|2:0,2:0:0:0:
153,246,106561,6,0,P|154:305|218:337,1,129.6,0|10,1:0|2:0,2:0:0:0:
20,252,107000,2,0,P|70:221|66:150,1,129.6,2|0,2:0|1:0,2:0:0:0:
11,354,107439,2,0,P|48:333|87:331,1,64.8,10|2,2:0|2:0,2:0:0:0:
219,353,107732,5,0,1:0:0:0:
283,301,107878,1,2,1:2:0:0:
220,365,108025,1,10,2:0:0:0:
365,309,108171,2,0,P|394:293|424:279,1,64.8,2|0,1:2|2:0,2:0:0:0:
211,221,108464,2,0,P|195:192|181:162,1,64.8,2|10,1:2|2:0,2:0:0:0:
332,16,108756,5,6,1:2:0:0:
410,73,108903,2,0,P|417:123|382:200,1,129.6,6|8,1:0|2:0,2:0:0:0:
316,153,109342,2,0,P|351:99|409:72,1,129.6,0|0,2:0|1:0,2:0:0:0:
449,191,109781,2,0,P|400:198|379:190,1,64.8,8|0,2:0|2:0,2:0:0:0:
248,95,110074,5,0,1:0:0:0:
177,145,110220,1,2,1:2:0:0:
95,117,110366,2,0,P|99:82|110:53,1,64.8,10|2,2:0|2:0,2:0:0:0:
199,218,110659,2,0,P|195:183|184:154,1,64.8,2|0,2:0|1:0,2:0:0:0:
44,318,110952,2,0,P|48:272|65:223,1,97.2,10|0,2:0|2:0,2:0:0:0:
38,207,111244,6,0,P|55:270|67:352,1,129.6,0|8,1:0|2:0,2:0:0:0:
0,384,111683,1,0,2:0:0:0:
158,322,111830,2,0,P|146:352|137:391,1,64.8,0|0,2:0|1:0,2:0:0:0:
257,259,112122,2,0,P|237:233|207:206,1,64.8,8|2,2:0|2:0,2:0:0:0:
262,377,112415,6,0,P|293:372|332:360,1,64.8,2|8,1:2|2:0,2:0:0:0:
394,318,112635,1,8,2:0:0:0:
407,311,112708,2,0,P|411:290|415:272,3,32.4,8|8|8|8,1:2|2:0|2:0|2:0,2:0:0:0:
381,193,113000,2,0,P|385:172|389:154,3,32.4,10|4|4|4,1:2|2:3|2:3|2:3,2:0:0:0:
459,111,113293,2,0,P|463:90|467:72,3,32.4,6|8|8|8,1:2|2:3|2:3|2:3,2:0:0:0:
384,0,113586,6,0,P|428:213|0:247,1,777.6,4|0,1:0|2:0,2:0:0:0:
319,10,122220,5,8,2:0:0:0:
357,90,122513,1,4,2:3:0:0:
302,160,122805,1,4,2:3:0:0:
302,160,122878,1,4,2:3:0:0:
302,160,122952,2,0,B|234:150|243:211|163:200,1,137.700002626419,4|10,1:0|2:0,2:0:0:0:
105,150,123391,1,2,2:0:0:0:
175,201,123537,2,0,P|194:245|195:282,1,68.8500013132096,2|0,2:0|1:0,2:0:0:0:
57,384,123830,2,0,P|38:340|37:303,1,68.8500013132096,10|2,2:0|2:0,2:0:0:0:
117,292,124122,5,0,1:0:0:0:
117,292,124269,1,2,1:2:0:0:
231,352,124415,2,0,P|307:323|379:318,1,137.700002626419,10|0,2:0|2:0,2:0:0:0:
440,375,124854,1,0,1:0:0:0:
362,317,125000,2,0,P|339:271|337:234,1,68.8500013132096,10|2,2:0|2:0,2:0:0:0:
493,166,125293,6,0,P|499:223|416:261,1,137.700002626419,2|10,1:2|2:0,2:0:0:0:
433,136,125732,2,0,P|463:142|492:165,1,68.8500013132096,2|0,2:0|2:0,2:0:0:0:
338,202,126025,1,2,1:2:0:0:
272,107,126171,2,0,P|278:77|301:48,1,68.8500013132096,10|2,2:0|2:0,2:0:0:0:
272,107,126464,5,0,1:0:0:0:
202,164,126610,1,2,1:2:0:0:
113,150,126756,2,0,P|81:139|41:133,1,68.8500013132096,10|2,2:0|2:0,2:0:0:0:
190,75,127049,5,0,2:0:0:0:
202,164,127195,1,2,1:2:0:0:
274,213,127341,2,0,P|304:226|338:249,1,68.8500013132096,10|2,2:0|2:0,2:0:0:0:
166,370,127635,2,0,P|201:331|191:244,1,137.700002626419,6|0,1:0|1:0,2:0:0:0:
124,199,128074,1,8,2:0:0:0:
120,320,128220,2,0,P|142:354|181:374,1,68.8500013132096,0|0,2:0|1:0,2:0:0:0:
274,213,128513,6,0,P|372:174|493:152,1,206.550003939629,12|0,2:1|1:0,2:0:0:0:
364,90,129098,2,0,P|331:62|317:36,1,68.8500013132096,0|8,2:0|2:0,2:0:0:0:
470,154,129391,1,0,2:0:0:0:
460,57,129537,1,0,1:0:0:0:
377,180,129683,2,0,P|349:230|346:288,1,103.275001969814,14|0,2:1|2:0,2:0:0:0:
414,313,129976,6,0,L|500:290,1,68.8500013132096,2|8,1:2|2:0,2:0:0:0:
480,295,130195,1,8,2:0:0:0:
480,295,130269,1,10,2:0:0:0:
480,295,130342,1,8,2:0:0:0:
480,295,130415,1,2,1:2:0:0:
356,384,130708,1,2,1:2:0:0:
217,138,131000,5,6,1:0:0:0:
256,192,131074,12,10,132903,1:2:0:0:
87,243,133488,6,0,P|148:235|200:170,1,127.57499610672,6|0,1:0|2:0,2:0:0:0:
155,291,133781,2,0,P|120:258|81:241,1,85.0499974044801,10|0,2:0|2:0,2:0:0:0:
137,64,134074,1,2,1:2:0:0:
108,150,134220,1,2,1:2:0:0:
280,186,134366,1,10,2:0:0:0:
309,100,134513,6,0,P|228:116|193:198,1,170.09999480896,2|2,1:2|1:2,2:0:0:0:
366,157,134952,2,0,P|344:121|309:100,1,85.0499974044801,8|2,2:1|2:0,2:0:0:0:
192,189,135244,1,0,1:0:0:0:
192,189,135391,1,2,1:2:0:0:
192,189,135537,2,0,P|209:236|241:264,1,85.0499974044801,10|2,2:0|2:0,2:0:0:0:
466,314,135830,6,0,P|440:272|349:249,1,127.57499610672,2|0,1:2|2:0,2:0:0:0:
386,331,136122,2,0,P|429:332|472:308,1,85.0499974044801,8|2,2:1|2:0,2:0:0:0:
165,342,136415,1,2,1:2:0:0:
233,259,136561,1,2,1:2:0:0:
300,384,136708,1,10,2:0:0:0:
144,250,136854,6,0,B|64:271|94:329|-5:346,1,170.09999480896,2|2,1:2|1:2,2:0:0:0:
82,184,137293,2,0,P|51:144|41:97,1,85.0499974044801,8|2,2:1|1:2,2:0:0:0:
275,187,137586,2,0,P|255:233|220:266,1,85.0499974044801,2|2,2:0|1:2,2:0:0:0:
181,18,137878,2,0,P|231:11|276:25,1,85.0499974044801,14|2,2:0|2:0,2:0:0:0:
360,236,138171,6,0,P|444:229|515:177,1,170.09999480896,6|10,1:0|2:0,2:0:0:0:
387,76,138610,2,0,P|351:152|360:239,1,170.09999480896,2|0,2:0|1:0,2:0:0:0:
482,88,139049,2,0,P|479:37|459:7,1,85.0499974044801,10|2,2:0|1:2,2:0:0:0:
263,113,139342,6,0,P|218:149|132:155,1,127.57499610672,0|0,2:0|2:0,2:0:0:0:
197,66,139635,2,0,P|242:84|265:118,1,85.0499974044801,8|0,2:1|2:0,2:0:0:0:
67,211,139927,1,0,1:0:0:0:
64,116,140074,1,0,1:0:0:0:
150,158,140220,2,0,P|166:201|156:248,1,85.0499974044801,10|2,2:0|2:0,2:0:0:0:
83,360,140513,5,12,2:1:0:0:
217,304,140659,2,0,P|259:287|301:280,1,85.0499974044801,0|0,1:0|1:0,2:0:0:0:
99,352,140952,5,12,2:0:0:0:
297,280,141098,2,0,P|342:282|383:293,1,85.0499974044801,0|0,1:0|1:0,2:0:0:0:
116,344,141391,5,14,2:1:0:0:
380,292,141537,2,0,B|420:309|449:340|449:340|408:338|366:305,1,170.09999480896,6|0,1:0|1:0,2:0:0:0:
486,176,141976,6,0,B|509:142|503:102|503:102|487:127|470:140,1,125.55000095787,8|8,2:0|2:0,2:0:0:0:
472,138,142195,1,8,2:0:0:0:
472,138,142269,1,8,2:0:0:0:
407,16,142415,6,0,L|423:80,1,50.625,10|8,2:0|2:0,2:0:0:0:
313,74,142561,2,0,L|329:138,1,50.625,10|8,2:0|2:0,2:0:0:0:
219,132,142708,2,0,L|235:196,1,50.625,6|4,2:0|2:3,2:0:0:0:
319,219,142854,6,0,L|104:201,1,202.5,6|10,1:0|2:0,2:0:0:0:
187,362,143293,2,0,P|206:322|248:299,1,85.0499974044801,2|0,2:0|1:0,2:0:0:0:
405,268,143586,1,2,1:2:0:0:
319,219,143732,1,10,2:0:0:0:
482,205,143878,6,0,P|425:164|396:51,1,170.09999480896,2|2,1:2|1:2,2:0:0:0:
478,33,144317,1,10,2:0:0:0:
311,108,144464,2,0,P|273:131|219:135,1,85.0499974044801,2|0,2:0|1:0,2:0:0:0:
478,33,144756,1,2,1:2:0:0:
233,136,144903,2,0,P|156:110|115:58,1,127.57499610672,10|0,2:0|2:0,2:0:0:0:
3,66,145195,6,0,P|61:124|82:212,1,170.09999480896,2|10,1:2|2:0,2:0:0:0:
125,77,145635,1,2,2:0:0:0:
0,240,145781,1,2,1:2:0:0:
69,294,145927,1,2,1:2:0:0:
151,261,146074,1,10,2:0:0:0:
163,173,146220,6,0,P|191:142|246:127,1,85.0499974044801,2|0,1:2|2:0,2:0:0:0:
301,173,146513,1,2,1:2:0:0:
196,328,146659,2,0,P|165:300|150:245,1,85.0499974044801,8|2,2:1|1:2,2:0:0:0:
338,307,146952,2,0,B|407:291|403:343|477:321,1,127.57499610672,2|0,2:0|2:0,2:0:0:0:
512,264,147244,2,0,P|492:207|499:171,1,85.0499974044801,14|0,2:1|2:0,2:0:0:0:
267,84,147537,1,6,1:0:0:0:
267,84,147830,6,0,L|254:0,1,85.0499974044801,8|2,2:1|2:0,2:0:0:0:
457,163,148122,2,0,L|444:78,1,85.0499974044801,8|0,2:1|1:0,2:0:0:0:
342,250,148415,1,10,2:0:0:0:
24,199,148708,1,12,2:1:0:0:
24,199,149000,6,0,L|11:114,1,85.0499974044801,8|2,2:1|1:2,2:0:0:0:
198,262,149293,2,0,L|185:177,1,85.0499974044801,10|0,2:0|1:0,2:0:0:0:
108,354,149586,1,10,2:0:0:0:
108,354,149732,1,2,1:2:0:0:
24,199,149878,5,4,1:0:0:0:
24,199,150025,2,0,L|-2:21,1,162,2|0,1:2|1:0,2:0:0:0:
0,38,150391,1,0,1:0:0:0:
0,38,150464,1,8,2:1:0:0:
202,95,150610,1,0,2:0:0:0:
139,32,150756,2,0,P|112:86|117:115,1,81,0|0,1:0|1:0,2:0:0:0:
260,170,151049,5,0,2:0:0:0:
260,170,151195,2,0,B|353:147|332:216|425:194,1,162,8|2,2:1|2:0,2:0:0:0:
286,298,151635,6,0,L|276:242,1,40.5,10|0,2:0|2:0,2:0:0:0:
196,294,151781,2,0,L|203:333,1,40.5,10|0,2:0|2:0,2:0:0:0:
112,331,151927,2,0,L|102:275,1,40.5,10|0,2:0|2:0,2:0:0:0:
181,213,152074,1,10,2:0:0:0:
181,213,152147,1,2,2:0:0:0:
181,213,152220,1,2,1:2:0:0:
0,114,152366,5,10,2:0:0:0:
29,122,152439,1,8,2:0:0:0:
58,129,152512,1,10,2:0:0:0:
88,134,152585,1,8,2:0:0:0:
118,138,152659,1,2,1:2:0:0:
0,114,152952,1,2,1:2:0:0:
257,156,153244,1,10,2:0:0:0:
0,114,154561,5,4,1:0:0:0:
256,192,154635,12,2,156903,1:2:0:0:
90,181,163927,6,0,P|48:110|58:69,1,113.399996539307,4|0,1:2|2:0,2:0:0:0:
155,99,164366,2,0,P|114:170|74:182,1,113.399996539307,0|0,3:0|1:0,2:0:0:0:
112,26,164805,1,0,3:0:0:0:
251,214,165098,5,2,1:2:0:0:
329,192,165244,2,0,P|357:161|365:134,1,56.6999982696534,0|2,2:0|2:0,2:0:0:0:
251,214,165537,2,0,P|246:256|293:316,1,113.399996539307,2|2,3:2|1:2,2:0:0:0:
364,290,165976,1,2,3:2:0:0:
155,297,166269,6,0,P|92:307|36:344,1,113.399996539307,0|0,1:0|2:0,2:0:0:0:
72,223,166708,2,0,P|112:272|172:302,1,113.399996539307,0|0,3:0|1:0,2:0:0:0:
0,261,167147,1,0,3:0:0:0:
156,135,167439,5,2,1:2:0:0:
156,135,167586,2,0,L|222:120,1,56.6999982696534,0|2,1:0|2:0,2:0:0:0:
326,208,167878,2,0,P|289:171|317:108,1,113.399996539307,2|2,3:2|1:2,2:0:0:0:
370,70,168317,1,0,3:0:0:0:
370,70,168610,6,0,L|498:91,1,113.399996539307,0|0,1:0|2:0,2:0:0:0:
386,160,169049,2,0,L|498:179,1,113.399996539307,2|0,3:2|1:0,2:0:0:0:
404,249,169488,1,2,3:2:0:0:
238,384,169781,5,0,1:0:0:0:
167,350,169927,2,0,P|150:315|147:293,1,56.6999982696534,0|0,1:0|2:0,2:0:0:0:
193,239,170220,2,0,P|177:294|164:368,1,113.399996539307,0|0,3:0|1:0,2:0:0:0:
238,384,170659,1,2,3:2:0:0:
358,226,170952,6,0,P|386:214|426:208,1,56.6999982696534,0|0,1:0|2:0,2:0:0:0:
374,119,171244,1,2,3:2:0:0:
374,119,171391,2,0,P|430:126|482:148,1,113.399996539307,2|2,1:2|1:2,2:0:0:0:
297,56,171830,2,0,P|325:44|365:38,1,56.6999982696534,0|2,3:0|1:2,2:0:0:0:
266,165,172122,5,0,2:0:0:0:
266,165,172269,2,0,B|213:151|211:209|152:196,1,113.399996539307,0|2,2:0|1:2,2:0:0:0:
106,100,172708,2,0,P|139:107|161:125,1,56.6999982696534,0|2,2:0|1:2,2:0:0:0:
81,210,173000,2,0,P|48:203|26:185,1,56.6999982696534,2|2,2:0|2:0,2:0:0:0:
18,54,173293,6,0,P|78:25|131:20,1,113.399996539307,4|0,1:0|2:0,2:0:0:0:
156,120,173732,2,0,P|218:141|259:175,1,113.399996539307,0|0,3:0|1:0,2:0:0:0:
206,264,174171,1,0,3:0:0:0:
398,194,174464,1,2,1:2:0:0:
398,194,174610,2,0,P|410:120|437:85,2,113.399996539307,0|2|2,1:0|3:2|1:2,2:0:0:0:
470,236,175342,1,2,3:2:0:0:
316,375,175635,6,0,P|245:348|202:354,1,113.399996539307,0|2,1:0|2:0,2:0:0:0:
200,241,176074,2,0,P|157:277|103:292,1,113.399996539307,2|2,2:0|1:2,2:0:0:0:
233,130,176513,1,0,3:0:0:0:
173,63,176659,1,2,1:2:0:0:
146,147,176805,5,0,2:0:0:0:
261,43,176952,2,0,P|304:26|331:25,1,56.6999982696534,0|2,1:0|3:2,2:0:0:0:
477,110,177244,1,2,2:0:0:0:
477,110,177391,2,0,P|470:140|466:173,1,56.6999982696534,0|2,1:0|1:2,2:0:0:0:
374,168,177683,2,0,P|376:140|383:113,1,56.6999982696534,10|2,2:0|2:0,2:0:0:0:
512,286,177976,6,0,P|466:250|407:255,1,103.275001969814,4|0,1:0|2:0,2:0:0:0:
354,283,178269,2,0,P|335:315|332:358,1,68.8500013132096,10|0,2:0|2:0,2:0:0:0:
176,184,178561,2,0,P|170:150|152:121,1,68.8500013132096,0|0,2:0|1:0,2:0:0:0:
22,173,178854,2,0,P|53:185|88:184,1,68.8500013132096,8|0,2:0|2:0,2:0:0:0:
174,31,179147,6,0,P|108:44|65:97,1,137.700002626419,0|8,1:0|2:0,2:0:0:0:
135,213,179586,2,0,P|201:199|243:147,1,137.700002626419,0|2,2:0|1:2,2:0:0:0:
339,121,180025,2,0,P|309:74|286:59,1,68.8500013132096,10|2,2:0|2:0,2:0:0:0:
455,200,180317,5,6,1:0:0:0:
455,200,180464,2,0,L|474:69,1,129.6,0|2,1:0|1:2,2:0:0:0:
331,273,180903,2,0,L|349:144,2,129.6,8|2|0,2:0|1:2|2:0,2:0:0:0:
427,363,181635,1,8,2:0:0:0:
427,363,181781,2,0,L|436:298,1,64.8,2|2,1:2|2:0,2:0:0:0:
280,359,182074,5,8,2:0:0:0:
249,242,182220,1,8,2:0:0:0:
198,338,182366,5,6,2:0:0:0:
167,221,182512,1,6,2:0:0:0:
97,340,182659,6,0,P|165:295|159:208,1,162,4|0,1:0|1:0,2:0:0:0:
318,252,183098,6,0,P|218:217|194:124,1,194.399994067383,8|0,2:1|1:0,2:0:0:0:
28,189,183537,6,0,P|136:151|149:35,1,226.799993078613,8|0,2:1|1:0,2:0:0:0:
75,0,183976,5,8,2:1:0:0:
244,27,184122,1,8,2:1:0:0:
75,0,184269,6,0,P|11:31|7:128,1,162,4|4,2:3|2:3,2:0:0:0:
155,50,184708,6,0,P|201:115|162:231,1,194.399994067383,8|0,2:1|1:0,2:0:0:0:
491,143,185293,5,8,2:1:0:0:
394,100,185439,1,8,2:0:0:0:
366,88,185513,1,8,2:0:0:0:
338,77,185586,1,8,2:0:0:0:
383,207,185732,5,4,2:3:0:0:
455,38,185878,1,4,2:3:0:0:
383,207,186025,1,2,1:0:0:0:
352,286,186317,5,0,1:0:0:0:
352,286,186390,1,0,1:0:0:0:
352,286,186464,2,0,B|336:354|271:378|199:342|196:269|235:236|235:236|161:252|113:167|126:69|253:40|296:119,1,583.199982202149,10|2,2:0|2:0,2:0:0:0:
290,109,187781,5,2,2:0:0:0:
324,81,188513,2,0,L|331:46,1,32.4,2|2,2:0|2:0,2:0:0:0:
364,21,188952,1,2,2:0:0:0:
129,130,189683,6,0,L|122:165,1,32.4,2|2,2:0|2:0,2:0:0:0:
89,190,190122,2,0,L|82:225,1,32.4,2|0,2:0|2:0,2:0:0:0:
49,250,190561,1,2,2:0:0:0:
292,377,190854,6,0,L|299:342,1,32.4,2|0,2:0|2:0,2:0:0:0:
332,317,191293,1,2,2:0:0:0:
338,285,191439,1,2,2:0:0:0:
372,257,191586,1,2,2:0:0:0:
378,225,191732,1,2,2:0:0:0:
219,37,192025,6,0,L|212:72,1,32.4,2|2,2:0|2:0,2:0:0:0:
179,97,192464,1,2,2:0:0:0:
179,97,193049,1,2,2:0:0:0:
145,125,193196,6,0,L|138:160,1,32.4,2|0,2:0|2:0,2:0:0:0:
105,185,193635,2,0,L|98:220,1,32.4,2|0,2:0|2:0,2:0:0:0:
424,321,194366,6,0,L|431:286,1,32.4,2|0,2:0|2:0,2:0:0:0:
464,261,194805,2,0,L|471:226,1,32.4,2|0,2:0|2:0,2:0:0:0:
504,201,195244,1,2,2:0:0:0:
308,24,195537,5,2,2:0:0:0:
308,24,195830,2,0,L|301:59,1,32.4,2|2,2:0|2:0,2:0:0:0:
231,98,196122,5,2,2:0:0:0:
324,75,196269,5,0,2:0:0:0:
297,167,196415,6,0,L|290:202,1,34.0200004152832,2|0,2:0|2:0,2:0:0:0:
275,275,196708,6,0,L|235:205,1,64.8,4|2,1:0|2:0,2:0:0:0:
214,335,197000,2,0,L|144:294,1,64.8,2|0,1:2|2:0,2:0:0:0:
358,254,197293,2,0,L|358:173,1,64.8,2|0,1:2|2:0,2:0:0:0:
275,275,197585,2,0,L|235:205,1,64.8,2|2,1:2|2:0,2:0:0:0:
108,112,197878,5,0,1:0:0:0:
95,186,198025,1,2,2:0:0:0:
194,142,198171,5,2,1:2:0:0:
59,118,198318,1,2,2:0:0:0:
106,246,198464,2,0,L|129:311,1,64.8,0|0,1:0|2:0,2:0:0:0:
182,178,198756,2,0,L|205:243,1,64.8,2|0,1:2|2:0,2:0:0:0:
395,248,199049,6,0,L|373:186,1,64.8,2|2,1:2|2:0,2:0:0:0:
319,316,199341,2,0,L|297:254,1,64.8,2|0,1:2|2:0,2:0:0:0:
512,259,199635,2,0,L|490:197,1,64.8,2|0,1:2|2:0,2:0:0:0:
436,327,199927,2,0,L|414:265,1,64.8,2|0,1:2|2:0,2:0:0:0:
271,243,200220,2,0,L|250:182,1,64.8,2|0,1:2|2:0,2:0:0:0:
347,175,200513,2,0,L|326:114,1,64.8,2|0,1:2|2:0,2:0:0:0:
203,320,200805,5,2,1:2:0:0:
171,229,200951,1,0,1:0:0:0:
139,138,201098,2,0,L|117:76,1,64.395000098259,2|0,1:2|2:0,2:0:0:0:
32,81,201391,6,0,P|45:134|151:119,1,162,14|0,2:1|1:0,2:0:0:0:
325,98,201830,5,12,2:0:0:0:
221,82,201976,1,0,1:0:0:0:
303,15,202122,1,0,1:0:0:0:
277,181,202269,6,0,P|282:228|392:267,1,178.200005438233,14|0,2:1|1:0,2:0:0:0:
416,155,202708,2,0,P|338:122|276:180,1,178.200005438233,12|0,2:0|1:0,2:0:0:0:
158,266,203147,2,0,L|59:279,1,89.1000027191163,12|0,2:1|1:0,2:0:0:0:
93,362,203366,1,0,1:0:0:0:
93,362,203439,2,0,L|-6:375,1,89.1000027191163,12|0,2:0|1:0,2:0:0:0:
168,175,203732,5,4,1:0:0:0:
168,175,203878,2,0,P|232:212|240:302,1,162,0|0,1:0|1:0,2:0:0:0:
274,369,204244,1,0,1:0:0:0:
274,369,204317,2,0,P|274:295|347:243,1,162,12|2,2:0|1:2,2:0:0:0:
512,113,204756,6,0,L|349:91,1,162,2|10,1:2|2:0,2:0:0:0:
302,21,205195,2,0,P|273:50|267:94,1,81,2|2,1:2|2:0,2:0:0:0:
398,164,205488,2,0,P|427:135|433:91,1,81,8|2,2:1|1:2,2:0:0:0:
269,180,205781,1,2,2:0:0:0:
269,180,205927,1,2,1:2:0:0:
178,204,206074,6,0,B|102:178|114:267|20:236,1,162,14|8,2:1|1:0,2:0:0:0:
0,161,206513,5,8,2:1:0:0:
93,95,206659,1,8,2:1:0:0:
0,161,206805,1,8,2:1:0:0:
16,53,206952,5,12,2:1:0:0:
111,197,207098,1,12,2:1:0:0:
256,192,207171,12,0,208415,2:0:0:0:
380,300,208708,6,0,P|426:245|427:179,1,127.57499610672,6|0,1:0|2:0,2:0:0:0:
329,235,209000,2,0,P|316:188|339:148,1,85.0499974044801,2|0,1:2|1:0,2:0:0:0:
467,95,209293,1,10,2:0:0:0:
378,51,209439,6,0,P|312:48|224:119,1,170.09999480896,2|2,1:2|1:2,2:0:0:0:
92,212,209878,2,0,L|190:198,1,85.0499974044801,8|2,2:1|2:0,2:0:0:0:
22,100,210171,1,0,1:0:0:0:
22,100,210317,1,2,1:2:0:0:
22,100,210464,2,0,L|120:86,1,85.0499974044801,10|2,2:0|2:0,2:0:0:0:
274,191,210756,6,0,P|260:252|214:294,1,127.57499610672,2|0,1:2|2:0,2:0:0:0:
130,286,211049,2,0,P|179:297|229:289,1,85.0499974044801,10|2,2:0|2:0,2:0:0:0:
387,163,211342,1,2,1:2:0:0:
274,191,211488,1,0,1:0:0:0:
372,260,211635,1,10,2:0:0:0:
318,78,211781,6,0,P|344:24|463:21,1,170.09999480896,2|2,1:2|1:2,2:0:0:0:
258,142,212220,2,0,P|231:86|236:49,1,85.0499974044801,8|2,2:1|1:2,2:0:0:0:
57,197,212513,2,0,P|118:201|148:224,1,85.0499974044801,2|2,2:0|1:2,2:0:0:0:
110,0,212805,2,0,P|75:51|40:65,1,85.0499974044801,14|2,2:0|2:0,2:0:0:0:
137,213,213098,6,0,P|186:281|179:365,1,170.09999480896,6|10,1:0|2:0,2:0:0:0:
331,260,213537,1,2,2:0:0:0:
331,260,213683,2,0,P|299:290|287:345,1,85.0499974044801,0|0,1:0|1:0,2:0:0:0:
371,172,213976,2,0,P|329:159|275:176,1,85.0499974044801,10|2,2:0|1:2,2:0:0:0:
387,345,214269,6,0,P|439:315|434:236,1,127.57499610672,0|0,2:0|2:0,2:0:0:0:
371,172,214561,2,0,P|329:159|275:176,1,85.0499974044801,8|0,2:1|2:0,2:0:0:0:
78,98,214854,1,0,1:0:0:0:
159,69,215000,1,0,1:0:0:0:
246,40,215147,2,0,L|335:14,1,85.0499974044801,10|2,2:0|2:0,2:0:0:0:
129,36,215439,5,12,2:1:0:0:
84,178,215586,2,0,P|85:229|103:270,1,85.0499974044801,0|0,1:0|1:0,2:0:0:0:
119,53,215878,5,12,2:0:0:0:
97,260,216025,2,0,P|133:295|175:311,1,85.0499974044801,0|0,1:0|1:0,2:0:0:0:
111,67,216317,5,14,2:1:0:0:
164,308,216464,2,0,P|215:307|314:229,1,170.09999480896,6|0,1:0|1:0,2:0:0:0:
324,79,216903,6,0,B|282:81|263:109|263:109|299:112|326:89,1,125.55000095787,8|8,2:0|2:0,2:0:0:0:
335,82,217122,1,8,2:0:0:0:
347,58,217195,6,0,L|359:-8,1,50.625,8|8,2:0|2:0,2:0:0:0:
455,136,217342,2,0,L|467:70,1,50.625,10|8,2:0|2:0,2:0:0:0:
341,219,217488,2,0,L|353:153,1,50.625,6|4,2:0|2:3,2:0:0:0:
449,297,217635,2,0,L|461:231,1,50.625,6|4,2:0|2:3,2:0:0:0:
335,380,217781,6,0,P|273:313|183:334,1,170.09999480896,6|10,1:0|2:0,2:0:0:0:
32,374,218220,2,0,P|68:353|91:308,1,85.0499974044801,2|0,2:0|1:0,2:0:0:0:
246,220,218513,1,2,1:2:0:0:
200,320,218659,1,10,2:0:0:0:
116,178,218805,6,0,L|98:-10,1,170.09999480896,2|2,1:2|1:2,2:0:0:0:
11,232,219244,1,10,2:0:0:0:
11,232,219391,2,0,L|1:137,1,85.0499974044801,2|0,2:0|1:0,2:0:0:0:
200,320,219683,1,2,1:2:0:0:
287,287,219830,2,0,P|285:226|227:240,1,127.57499610672,10|0,2:0|2:0,2:0:0:0:
200,320,220122,6,0,P|252:318|284:294,1,85.0499974044801,2|2,1:2|2:0,2:0:0:0:
238,141,220415,2,0,P|186:143|154:167,1,85.0499974044801,10|2,2:0|2:0,2:0:0:0:
364,23,220708,1,2,1:2:0:0:
314,92,220854,1,2,1:2:0:0:
364,161,221000,1,10,2:0:0:0:
444,134,221147,6,0,P|395:159|406:272,1,170.09999480896,2|2,1:2|1:2,2:0:0:0:
493,195,221586,2,0,P|471:147|441:133,1,85.0499974044801,8|2,2:1|1:2,2:0:0:0:
264,30,221878,1,0,1:0:0:0:
264,30,221952,1,0,1:0:0:0:
264,30,222025,2,0,P|286:78|316:92,1,85.0499974044801,0|14,1:0|2:1,2:0:0:0:
134,341,222464,1,6,1:0:0:0:
134,341,222756,6,0,L|46:355,1,85.0499974044801,8|2,2:1|2:0,2:0:0:0:
218,181,223049,2,0,L|130:195,1,85.0499974044801,8|0,2:1|1:0,2:0:0:0:
295,363,223342,1,10,2:0:0:0:
295,363,223488,1,2,1:2:0:0:
413,207,223635,6,0,L|325:221,1,85.0499974044801,12|0,2:1|2:0,2:0:0:0:
512,341,223927,2,0,L|424:355,1,85.0499974044801,8|2,2:1|1:2,2:0:0:0:
512,80,224220,2,0,L|424:94,1,85.0499974044801,10|0,2:0|1:0,2:0:0:0:
172,134,224513,5,10,2:0:0:0:
389,172,224659,1,2,1:2:0:0:
249,80,224805,5,4,1:0:0:0:
79,131,224952,1,2,1:2:0:0:
137,54,225098,6,0,P|166:98|161:131,1,81,0|0,2:0|1:0,2:0:0:0:
259,166,225391,2,0,P|235:213|204:225,1,81,8|0,2:1|2:0,2:0:0:0:
223,327,225683,2,0,P|170:330|144:309,1,81,0|0,1:0|1:0,2:0:0:0:
347,227,225976,5,0,2:0:0:0:
347,227,226122,2,0,P|379:170|476:149,1,162,8|6,2:1|2:0,2:0:0:0:
471,253,226561,6,0,L|418:244,1,40.5,10|0,2:0|2:0,2:0:0:0:
347,227,226708,2,0,L|294:218,1,40.5,6|6,2:0|2:0,2:0:0:0:
223,201,226854,2,0,L|170:192,1,40.5,6|0,2:0|2:0,2:0:0:0:
99,175,227000,1,6,2:0:0:0:
99,175,227074,1,0,2:0:0:0:
99,175,227147,1,4,1:0:0:0:
0,286,227293,5,8,2:0:0:0:
29,279,227366,1,8,2:0:0:0:
59,273,227439,1,10,2:0:0:0:
89,267,227512,1,0,2:0:0:0:
118,261,227585,1,2,1:2:0:0:
236,236,227878,1,2,1:2:0:0:
354,211,228171,1,6,2:0:0:0:
0,286,229488,5,4,1:0:0:0:
135,364,229781,1,2,1:2:0:0:
135,364,229927,1,2,2:0:0:0:
218,242,230220,1,0,2:0:0:0:
218,242,230366,1,2,1:2:0:0:
332,296,230659,1,0,1:0:0:0:
331,296,230805,1,2,2:0:0:0:
419,233,231098,1,0,2:0:0:0:
418,233,231244,1,2,1:2:0:0:
496,273,231537,1,2,1:2:0:0:
496,87,231830,5,2,1:2:0:0:
361,165,232123,1,0,1:0:0:0:
361,165,232269,1,2,2:0:0:0:
278,43,232562,1,0,2:0:0:0:
278,43,232708,1,2,1:2:0:0:
164,97,233001,1,0,1:0:0:0:
165,97,233147,1,2,2:0:0:0:
165,97,233293,1,2,1:2:0:0:
165,97,233439,1,2,2:0:0:0:
77,34,233732,1,2,2:0:0:0:
0,74,234025,1,2,2:0:0:0:
79,119,234171,6,0,P|107:155|108:222,1,113.399996539307,2|2,1:2|1:2,2:0:0:0:
56,295,234610,2,0,P|28:259|27:192,1,113.399996539307,2|0,2:0|2:0,2:0:0:0:
148,299,235049,2,0,P|193:292|251:325,1,113.399996539307,2|0,1:2|1:0,2:0:0:0:
371,340,235488,2,0,P|325:346|267:313,1,113.399996539307,2|2,2:0|2:0,2:0:0:0:
341,238,235927,2,0,P|369:274|370:341,1,113.399996539307,2|2,1:2|1:2,2:0:0:0:
239,220,236513,6,0,P|256:177|313:143,1,113.399996539307,2|0,1:2|1:0,2:0:0:0:
282,59,236952,2,0,P|325:53|381:84,1,97.1999970336915,2|0,2:0|2:0,2:0:0:0:
431,12,237391,2,0,P|454:41|455:97,1,81,2|0,1:2|1:0,2:0:0:0:
444,176,237830,6,0,P|422:165|403:148,2,40.5,2|2|2,2:0|1:2|2:0,2:0:0:0:
497,244,238269,2,0,P|476:257|452:265,1,40.5,2|2,1:2|2:0,2:0:0:0:
374,240,238561,2,0,P|372:283|402:338,1,97.1999970336915,2|6,1:2|1:0,2:0:0:0:
182,58,239439,5,2,1:2:0:0:
215,139,239732,1,0,1:0:0:0:
164,209,239878,2,0,P|90:197|43:248,2,145.799995550537,2|2|2,2:0|1:2|2:0,2:0:0:0:
348,209,241195,2,0,P|422:197|469:248,2,145.799995550537,2|0|2,1:2|2:0|1:2,2:0:0:0:
256,252,242220,1,2,2:0:0:0:
256,252,242513,2,0,L|256:320,1,48.5999985168458,2|2,2:0|1:2,2:0:0:0:
174,335,242805,2,0,L|174:286,1,48.5999985168458,2|0,2:0|1:0,2:0:0:0:
338,335,243098,2,0,L|338:286,1,48.5999985168458,2|0,2:0|1:0,2:0:0:0:
256,380,243391,1,2,2:0:0:0:
256,176,243537,6,0,L|256:64,1,97.1999970336915,2|0,1:0|1:0,2:0:0:0:
172,35,243976,2,0,P|122:41|99:94,1,97.1999970336915,0|0,2:0|2:0,2:0:0:0:
28,170,244415,1,2,1:2:0:0:
28,170,244561,2,0,L|84:159,1,48.5999985168458,2|0,2:0|1:0,2:0:0:0:
170,209,244854,2,0,L|266:190,1,97.1999970336915,0|0,2:0|2:0,2:0:0:0:
137,295,245293,2,0,L|89:304,1,48.5999985168458,0|0,1:0|2:0,2:0:0:0:
203,349,245586,1,2,1:2:0:0:
203,349,245732,1,2,1:2:0:0:
