osu file format v14

[General]
AudioFilename: audio.mp3
AudioLeadIn: 0
PreviewTime: 186391
Countdown: 0
SampleSet: Soft
StackLeniency: 0.7
Mode: 0
LetterboxInBreaks: 0
WidescreenStoryboard: 0

[Editor]
DistanceSpacing: 1.2
BeatDivisor: 4
GridSize: 32
TimelineZoom: 1

[Metadata]
Title:Ukigumo
TitleUnicode:浮雲
Artist:nao feat. isui
ArtistUnicode:夏央 feat. 倚水
Creator:Sarawatlism
Version:Dazzlingly
Source:
Tags:japanese rock j-rock jrock jpop pop j-pop サマーライト summer light pnky [_lost_] conner c_o_n_n_e_r centrak_ xhappy- p_kung
BeatmapID:3862399
BeatmapSetID:1876775

[Difficulty]
HPDrainRate:6
CircleSize:4
OverallDifficulty:8.6
ApproachRate:9.3
SliderMultiplier:1.96
SliderTickRate:1

[Events]
//Background and Video events
0,0,"BG.jpg",0,0
//Break Periods
//Storyboard Layer 0 (Background)
//Storyboard Layer 1 (Fail)
//Storyboard Layer 2 (Pass)
//Storyboard Layer 3 (Foreground)
//Storyboard Layer 4 (Overlay)
//Storyboard Sound Samples

[TimingPoints]
1196,292.682926829268,4,2,1,50,1,0
1196,-142.857142857143,4,2,1,50,0,0
16269,-142.857142857143,4,2,2,50,0,0
17586,-111.111111111111,4,2,4,60,0,0
17878,-111.111111111111,4,2,3,60,0,0
21976,-111.111111111111,4,2,3,60,0,0
26659,-83.3333333333333,4,2,4,60,0,0
26952,-111.111111111111,4,2,4,60,0,0
27244,-111.111111111111,4,2,3,60,0,0
31635,-111.111111111111,4,2,5,60,0,0
31927,-111.111111111111,4,2,3,60,0,0
36317,-111.111111111111,4,2,4,60,0,0
36609,-111.111111111111,4,2,3,60,0,0
39902,-111.111111111111,4,2,3,5,0,0
39976,-111.111111111111,4,2,3,60,0,0
45391,-111.111111111111,4,2,2,60,0,0
45683,-111.111111111111,4,2,1,60,0,0
45975,-111.111111111111,4,2,3,60,0,0
47658,-111.111111111111,4,2,3,5,0,0
47732,-111.111111111111,4,2,3,60,0,0
49049,-111.111111111111,4,2,4,60,0,0
49488,-111.111111111111,4,2,3,60,0,0
50366,-111.111111111111,4,2,5,60,0,0
50658,-111.111111111111,4,2,3,60,0,0
52341,-111.111111111111,4,2,3,5,0,0
52415,-111.111111111111,4,2,3,60,0,0
52927,-111.111111111111,4,2,3,5,0,0
53000,-111.111111111111,4,2,3,60,0,0
53439,-111.111111111111,4,2,4,60,0,0
54170,-111.111111111111,4,2,5,60,0,0
54756,-166.666666666666,4,2,1,60,0,0
54975,-166.666666666666,4,2,1,5,0,0
55049,-99.9999999999999,4,2,1,70,0,0
55341,-99.9999999999999,4,2,6,70,0,0
56878,-99.9999999999999,4,2,6,5,0,0
56952,-99.9999999999999,4,2,6,70,0,0
59439,-76.9230769230769,4,2,6,70,0,0
59732,-90.9090909090909,4,2,6,70,0,0
61122,-90.9090909090909,4,2,6,5,0,0
61195,-90.9090909090909,4,2,6,70,0,0
62074,-83.3333333333333,4,2,6,70,0,0
62293,-83.3333333333333,4,2,6,5,0,0
62366,-83.3333333333333,4,2,6,70,0,0
62513,-76.9230769230769,4,2,5,70,0,0
63098,-333.333333333333,4,2,6,70,0,0
64415,-76.9230769230769,4,2,6,85,0,1
64634,-76.9230769230769,4,2,6,5,0,1
64708,-76.9230769230769,4,2,4,85,0,1
65658,-76.9230769230769,4,2,4,5,0,1
65732,-76.9230769230769,4,2,4,85,0,1
66976,-76.9230769230769,4,2,4,5,0,1
67049,-76.9230769230769,4,2,4,85,0,1
68000,-76.9230769230769,4,2,4,5,0,1
68074,-76.9230769230769,4,2,4,85,0,1
70341,-76.9230769230769,4,2,4,5,0,1
70415,-76.9230769230769,4,2,4,85,0,1
72464,-71.4285714285714,4,2,4,85,0,1
72903,-71.4285714285714,4,2,3,85,0,1
73708,-71.4285714285714,4,2,2,85,0,1
73781,-76.9230769230769,4,2,4,85,0,1
77366,-76.9230769230769,4,2,4,5,0,1
77439,-76.9230769230769,4,2,4,85,0,1
78171,-66.6666666666667,4,2,4,85,0,1
78390,-66.6666666666667,4,2,4,5,0,1
78464,-71.4285714285714,4,2,4,85,0,1
80952,-142.857142857143,4,2,4,85,0,1
83293,-142.857142857143,4,2,6,85,0,1
83586,-66.6666666666667,4,2,6,85,0,1
83732,-66.6666666666667,4,2,6,5,0,1
83878,-66.6666666666667,4,2,6,85,0,1
84025,-66.6666666666667,4,2,6,5,0,1
84171,-66.6666666666667,4,2,4,85,0,0
84317,-66.6666666666667,4,2,4,5,0,0
85488,-111.111111111111,4,2,4,50,0,0
85780,-111.111111111111,4,2,3,50,0,0
90171,-111.111111111111,4,2,1,50,0,0
90463,-111.111111111111,4,2,3,50,0,0
94561,-83.3333333333333,4,2,2,50,0,0
94854,-111.111111111111,4,2,4,60,0,0
95146,-111.111111111111,4,2,3,60,0,0
102756,-111.111111111111,4,2,4,60,0,0
103049,-99.9999999999999,4,2,3,60,0,0
103635,-99.9999999999999,4,2,6,60,0,0
103927,-90.9090909090909,4,2,6,60,0,0
104220,-100,4,2,6,70,0,0
106049,-100,4,2,6,5,0,0
106122,-100,4,2,6,70,0,0
108171,-100,4,2,5,70,0,0
108390,-100,4,2,5,5,0,0
108464,-100,4,2,5,70,0,0
108610,-100,4,2,3,70,0,0
108756,-100,4,2,4,70,0,0
109195,-100,4,2,6,70,0,0
112708,-83.3333333333333,4,2,6,70,0,0
113000,-90.9090909090909,4,2,6,70,0,0
113073,-90.9090909090909,4,2,1,70,0,0
113219,-90.9090909090909,4,2,2,70,0,0
113293,-90.9090909090909,4,2,6,70,0,0
113366,-90.9090909090909,4,2,1,70,0,0
113586,-142.857142857143,4,2,1,60,0,0
113878,-142.857142857143,4,2,4,60,0,0
115561,-142.857142857143,4,2,4,5,0,0
115635,-142.857142857143,4,2,4,60,0,0
117317,-142.857142857143,4,2,4,5,0,0
117391,-142.857142857143,4,2,4,60,0,0
118269,-142.857142857143,4,2,5,60,0,0
118708,-142.857142857143,4,2,6,60,0,0
120244,-142.857142857143,4,2,6,5,0,0
120317,-142.857142857143,4,2,6,60,0,0
121781,-125,4,2,6,60,0,0
122512,-125,4,2,2,60,0,0
122805,-125,4,2,1,60,0,0
122952,-100,4,2,1,70,0,0
123244,-100,4,2,6,70,0,0
124780,-100,4,2,6,5,0,0
124854,-100,4,2,6,70,0,0
127122,-100,4,2,6,5,0,0
127195,-100,4,2,6,70,0,0
127342,-76.9230769230769,4,2,6,70,0,0
127635,-90.9090909090909,4,2,6,70,0,0
127854,-90.9090909090909,4,2,6,5,0,0
127927,-90.9090909090909,4,2,6,70,0,0
128074,-83.3333333333333,4,2,6,70,0,0
128293,-83.3333333333333,4,2,6,5,0,0
128366,-83.3333333333333,4,2,6,70,0,0
128513,-76.9230769230769,4,2,6,70,0,0
128732,-76.9230769230769,4,2,6,5,0,0
128805,-76.9230769230769,4,2,6,70,0,0
128952,-71.4285714285714,4,2,6,70,0,0
129171,-71.4285714285714,4,2,6,5,0,0
129244,-71.4285714285714,4,2,6,70,0,0
130415,-71.4285714285714,4,2,5,70,0,0
131000,-66.6666666666667,4,2,6,70,0,0
131219,-66.6666666666667,4,2,6,5,0,0
131293,-66.6666666666667,4,2,6,70,0,0
132391,-66.6666666666667,4,2,1,70,0,0
132464,-66.6666666666667,4,2,2,70,0,0
132610,-66.6666666666667,4,2,6,70,0,0
132684,-66.6666666666667,4,2,1,70,0,0
132903,-66.6666666666667,4,2,4,70,0,0
133195,-200,4,2,4,70,0,0
133414,-200,4,2,4,5,0,0
133488,-76.9230769230769,4,2,4,85,0,1
133707,-76.9230769230769,4,2,4,5,0,1
133781,-76.9230769230769,4,2,4,85,0,1
137073,-76.9230769230769,4,2,4,5,0,1
137147,-76.9230769230769,4,2,4,85,0,1
139414,-76.9230769230769,4,2,4,5,0,1
139488,-76.9230769230769,4,2,4,85,0,1
141537,-71.4285714285714,4,2,4,85,0,1
141976,-71.4285714285714,4,2,3,85,0,1
142781,-71.4285714285714,4,2,2,85,0,1
142854,-76.9230769230769,4,2,4,85,0,1
145414,-76.9230769230769,4,2,4,5,0,1
145488,-76.9230769230769,4,2,4,85,0,1
146439,-76.9230769230769,4,2,4,5,0,1
146512,-76.9230769230769,4,2,4,85,0,1
147244,-66.6666666666667,4,2,4,85,0,1
147463,-66.6666666666667,4,2,4,5,0,1
147537,-71.4285714285714,4,2,4,85,0,1
150025,-142.857142857143,4,2,4,85,0,1
152366,-142.857142857143,4,2,6,85,0,1
152659,-66.6666666666667,4,2,6,85,0,1
152805,-66.6666666666667,4,2,6,5,0,1
152952,-66.6666666666667,4,2,6,85,0,1
153098,-66.6666666666667,4,2,6,5,0,1
153244,-66.6666666666667,4,2,4,85,0,0
153390,-66.6666666666667,4,2,4,5,0,0
154561,-142.857142857143,4,2,4,50,0,0
155000,-142.857142857143,4,2,3,50,0,0
155292,-142.857142857143,4,2,4,50,0,0
155439,-142.857142857143,4,2,3,50,0,0
155732,-142.857142857143,4,2,4,50,0,0
156171,-142.857142857143,4,2,3,50,0,0
156390,-142.857142857143,4,2,3,5,0,0
156464,-142.857142857143,4,2,1,50,0,0
156903,-142.857142857143,4,2,4,50,0,0
157342,-142.857142857143,4,2,3,50,0,0
157634,-142.857142857143,4,2,4,50,0,0
157781,-142.857142857143,4,2,3,50,0,0
158074,-142.857142857143,4,2,4,50,0,0
158513,-142.857142857143,4,2,3,50,0,0
158805,-142.857142857143,4,2,4,50,0,0
158952,-142.857142857143,4,2,3,50,0,0
159098,-142.857142857143,4,2,2,50,0,0
159244,-142.857142857143,4,2,4,50,0,0
159463,-142.857142857143,4,2,4,5,0,0
159537,-142.857142857143,4,2,4,50,0,0
159683,-142.857142857143,4,2,3,50,0,0
159902,-142.857142857143,4,2,3,5,0,0
159976,-142.857142857143,4,2,4,50,0,0
160122,-142.857142857143,4,2,3,50,0,0
160415,-142.857142857143,4,2,4,50,0,0
160854,-142.857142857143,4,2,3,50,0,0
161147,-142.857142857143,4,2,4,50,0,0
161293,-142.857142857143,4,2,3,50,0,0
161586,-142.857142857143,4,2,4,50,0,0
161878,-142.857142857143,4,2,3,50,0,0
162317,-142.857142857143,4,2,5,50,0,0
162464,-142.857142857143,4,2,3,50,0,0
162610,-142.857142857143,4,2,5,50,0,0
162756,-142.857142857143,4,2,4,50,0,0
162975,-142.857142857143,4,2,4,5,0,0
163049,-142.857142857143,4,2,4,50,0,0
163195,-142.857142857143,4,2,3,50,0,0
163414,-142.857142857143,4,2,3,5,0,0
163488,-142.857142857143,4,2,4,50,0,0
163635,-100,4,2,2,50,0,0
163781,-100,4,2,4,50,0,0
163927,-142.857142857143,4,2,4,50,0,0
164366,-142.857142857143,4,2,1,50,0,0
164952,-142.857142857143,4,2,4,50,0,0
165537,-142.857142857143,4,2,3,50,0,0
165756,-142.857142857143,4,2,3,5,0,0
165830,-142.857142857143,4,2,4,50,0,0
165976,-142.857142857143,4,2,3,50,0,0
166269,-142.857142857143,4,2,1,50,0,0
167293,-142.857142857143,4,2,4,50,0,0
167878,-142.857142857143,4,2,3,50,0,0
168097,-142.857142857143,4,2,3,5,0,0
168171,-142.857142857143,4,2,4,50,0,0
168317,-142.857142857143,4,2,3,50,0,0
168610,-142.857142857143,4,2,1,50,0,0
169049,-142.857142857143,4,2,3,50,0,0
169341,-142.857142857143,4,2,1,50,0,0
169488,-142.857142857143,4,2,3,50,0,0
169781,-142.857142857143,4,2,1,50,0,0
170439,-142.857142857143,4,2,1,5,0,0
170513,-142.857142857143,4,2,1,50,0,0
170659,-142.857142857143,4,2,3,50,0,0
170952,-142.857142857143,4,2,1,50,0,0
171244,-142.857142857143,4,2,3,50,0,0
171391,-142.857142857143,4,2,4,50,0,0
171830,-142.857142857143,4,2,1,50,0,0
171976,-142.857142857143,4,2,4,50,0,0
172780,-142.857142857143,4,2,4,5,0,0
172854,-142.857142857143,4,2,4,50,0,0
173000,-142.857142857143,4,2,2,50,0,0
173146,-142.857142857143,4,2,4,50,0,0
173732,-142.857142857143,4,2,1,50,0,0
174317,-142.857142857143,4,2,4,50,0,0
174903,-142.857142857143,4,2,3,50,0,0
175122,-142.857142857143,4,2,3,5,0,0
175195,-142.857142857143,4,2,4,50,0,0
175342,-142.857142857143,4,2,3,50,0,0
175635,-142.857142857143,4,2,4,50,0,0
176366,-100,4,2,5,50,0,0
176512,-100,4,2,1,50,0,0
176659,-125,4,2,5,50,0,0
176878,-125,4,2,5,5,0,0
176952,-125,4,2,5,50,0,0
177098,-111.111111111111,4,2,3,50,0,0
177391,-111.111111111111,4,2,6,50,0,0
177683,-90.9090909090909,4,2,6,50,0,0
177976,-100,4,2,6,70,0,0
179805,-100,4,2,6,5,0,0
179878,-100,4,2,6,70,0,0
180464,-111.111111111111,4,2,6,70,0,0
180683,-111.111111111111,4,2,6,5,0,0
180756,-111.111111111111,4,2,6,70,0,0
181561,-111.111111111111,4,2,6,5,0,0
181635,-111.111111111111,4,2,6,70,0,0
182659,-100,4,2,6,70,0,0
182878,-100,4,2,6,5,0,0
182952,-100,4,2,6,70,0,0
183098,-90.9090909090909,4,2,1,70,0,0
183317,-90.9090909090909,4,2,1,5,0,0
183391,-90.9090909090909,4,2,1,70,0,0
183537,-83.3333333333333,4,2,1,70,0,0
183756,-83.3333333333333,4,2,1,5,0,0
183830,-83.3333333333333,4,2,1,70,0,0
184415,-83.3333333333333,4,2,2,70,0,0
184708,-66.6666666666667,4,2,1,70,0,0
185000,-71.4285714285714,4,2,1,70,0,0
185219,-71.4285714285714,4,2,1,5,0,0
185293,-71.4285714285714,4,2,1,70,0,0
185732,-71.4285714285714,4,2,2,70,0,0
186025,-71.4285714285714,4,2,5,70,0,0
186464,-100,4,2,4,70,0,0
187268,-100,4,2,4,5,0,0
187342,-250,4,2,4,50,0,0
195830,-166.666666666667,4,2,4,50,0,0
196122,-125,4,2,4,50,0,0
196415,-100,4,2,4,50,0,0
196708,-125,4,2,4,60,0,0
199342,-111.111111111111,4,2,4,60,0,0
199635,-100,4,2,4,60,0,0
199927,-90.9090909090909,4,2,4,60,0,0
200220,-83.3333333333333,4,2,4,60,0,0
200513,-76.9230769230769,4,2,4,60,0,0
201098,-166.666666666667,4,2,4,60,0,0
201317,-166.666666666667,4,2,4,5,0,0
201391,-76.9230769230769,4,2,4,70,0,0
203878,-111.111111111111,4,2,4,70,0,0
205561,-111.111111111111,4,2,4,5,0,0
205635,-111.111111111111,4,2,4,70,0,0
206074,-83.3333333333333,4,2,4,70,0,0
206293,-83.3333333333333,4,2,4,5,0,0
206366,-83.3333333333333,4,2,4,70,0,0
206952,-83.3333333333333,4,2,3,70,0,0
207098,-250,4,2,3,70,0,0
208708,-76.9230769230769,4,2,4,85,0,1
208927,-76.9230769230769,4,2,4,5,0,1
209000,-76.9230769230769,4,2,4,85,0,1
209658,-76.9230769230769,4,2,4,5,0,1
209732,-76.9230769230769,4,2,4,85,0,1
214341,-76.9230769230769,4,2,4,5,0,1
214415,-76.9230769230769,4,2,4,85,0,1
216464,-71.4285714285714,4,2,4,85,0,1
216903,-71.4285714285714,4,2,3,85,0,1
217561,-71.4285714285714,4,2,2,85,0,1
217635,-71.4285714285714,4,2,3,85,0,1
217708,-71.4285714285714,4,2,2,85,0,1
217781,-76.9230769230769,4,2,4,85,0,1
218000,-76.9230769230769,4,2,4,5,0,1
218074,-76.9230769230769,4,2,4,85,0,1
221366,-76.9230769230769,4,2,4,5,0,1
221439,-76.9230769230769,4,2,4,85,0,1
222171,-66.6666666666667,4,2,4,85,0,1
222390,-66.6666666666667,4,2,4,5,0,1
222464,-71.4285714285714,4,2,4,85,0,1
224952,-142.857142857143,4,2,4,85,0,1
226415,-142.857142857143,4,2,7,85,0,1
226488,-142.857142857143,4,2,1,85,0,1
226561,-142.857142857143,4,2,4,85,0,1
226707,-142.857142857143,4,2,3,85,0,1
227000,-142.857142857143,4,2,7,85,0,1
227147,-142.857142857143,4,2,6,85,0,1
227586,-66.6666666666667,4,2,5,85,0,1
227732,-66.6666666666667,4,2,5,5,0,1
227878,-66.6666666666667,4,2,5,85,0,1
228025,-66.6666666666667,4,2,6,5,0,1
228171,-66.6666666666667,4,2,6,85,0,0
228317,-66.6666666666667,4,2,6,5,0,0
229488,-111.111111111111,4,2,6,50,0,0
229780,-111.111111111111,4,2,3,50,0,0
238561,-83.3333333333333,4,2,5,50,0,0
238854,-111.111111111111,4,2,4,50,0,0
239146,-111.111111111111,4,2,3,50,0,0
245586,-111.111111111111,4,2,4,50,0,0
245732,-111.111111111111,4,2,5,50,0,0

[Colours]
Combo1 : 218,181,143
Combo2 : 201,146,146
Combo3 : 253,179,225
Combo4 : 164,175,221

[HitObjects]
69,115,1196,6,0,P|123:62|190:86,1,137.199995812988,2|2,2:2|2:1,0:0:0:0:
236,131,1635,1,2,2:1:0:0:
176,187,1781,2,0,P|186:132|202:36,1,137.199995812988,2|2,2:2|2:1,0:0:0:0:
349,112,2220,1,2,2:2:0:0:
261,125,2366,6,0,P|313:119|353:113,1,68.5999979064942,2|2,2:1|2:1,0:0:0:0:
370,217,2659,2,0,B|321:197|298:225|303:226|276:255|230:234,1,137.199995812988,2|2,2:2|2:1,0:0:0:0:
176,187,3098,1,2,2:2:0:0:
168,277,3244,2,0,P|199:259|234:256,1,68.5999979064942,2|2,2:1|2:1,0:0:0:0:
118,340,3537,6,0,B|33:317|33:317|19:285|52:256,2,137.199995812988,2|2|2,2:2|2:1|2:1,0:0:0:0:
168,277,4269,1,2,2:1:0:0:
223,337,4415,1,2,2:2:0:0:
312,278,4561,6,0,P|279:268|246:257,1,68.5999979064942,2|2,2:2|2:1,0:0:0:0:
358,344,4854,2,0,P|390:333|423:323,1,68.5999979064942,2|2,2:2|2:2,0:0:0:0:
452,231,5147,2,0,P|419:241|386:251,1,68.5999979064942,2|2,2:2|2:1,0:0:0:0:
265,170,5439,1,2,2:2:0:0:
265,170,5513,1,2,2:1:0:0:
265,170,5586,2,0,P|297:179|330:190,1,68.5999979064942,2|2,2:1|2:2,0:0:0:0:
403,153,5878,6,0,P|441:116|406:50,1,137.199995812988,2|2,2:1|2:1,0:0:0:0:
332,13,6317,1,2,2:1:0:0:
263,59,6464,2,0,P|225:49|179:34,1,68.5999979064942,2|2,2:1|2:1,0:0:0:0:
191,122,6756,2,0,P|224:130|256:140,1,68.5999979064942,2|2,2:2|2:2,0:0:0:0:
126,65,7049,6,0,B|94:64|58:43|58:43|50:80|27:109,1,137.199995812988,2|2,2:1|2:1,0:0:0:0:
8,181,7488,1,2,2:1:0:0:
99,227,7635,2,0,P|88:177|81:138,1,68.5999979064942,2|2,2:1|2:1,0:0:0:0:
26,262,7927,2,0,P|33:295|40:329,1,68.5999979064942,2|2,2:2|2:2,0:0:0:0:
116,361,8220,6,0,P|178:347|255:337,1,137.199995812988,2|2,2:1|2:1,0:0:0:0:
338,208,8659,1,2,2:1:0:0:
378,293,8805,2,0,P|329:283|303:279,1,68.5999979064942,2|2,2:1|2:1,0:0:0:0:
190,234,9098,2,0,P|223:228|257:221,1,68.5999979064942,2|2,2:1|2:1,0:0:0:0:
415,197,9391,5,2,2:1:0:0:
323,140,9537,1,2,2:1:0:0:
323,140,9610,1,0,0:0:0:0:
323,140,9683,2,0,P|332:181|339:217,1,68.5999979064942,2|2,2:1|2:1,0:0:0:0:
402,109,9976,2,0,P|393:68|386:32,1,68.5999979064942,2|2,2:1|2:1,0:0:0:0:
205,22,10269,1,2,2:2:0:0:
215,18,10342,1,0,0:0:0:0:
225,12,10415,1,2,2:1:0:0:
235,8,10488,1,0,0:0:0:0:
245,2,10561,6,0,L|245:148,1,137.199995812988,2|2,2:2|2:1,0:0:0:0:
195,205,11000,1,2,2:1:0:0:
88,171,11147,2,0,P|98:117|172:147,1,137.199995812988,2|2,2:2|2:1,0:0:0:0:
123,244,11586,1,2,2:2:0:0:
197,271,11732,6,0,P|202:226|188:193,1,68.5999979064942,2|2,2:1|2:1,0:0:0:0:
133,323,12025,2,0,P|206:314|290:308,1,137.199995812988,2|2,2:2|2:1,0:0:0:0:
313,238,12464,1,2,2:2:0:0:
348,333,12610,2,0,P|311:320|274:313,1,68.5999979064942,2|2,2:1|2:1,0:0:0:0:
396,273,12903,6,0,B|479:259|479:259|494:225|472:192,1,137.199995812988,2|2,2:2|2:1,0:0:0:0:
338,154,13342,1,2,2:1:0:0:
399,111,13488,2,0,P|414:154|405:189,1,68.5999979064942,2|2,2:1|2:1,0:0:0:0:
328,71,13781,1,2,2:2:0:0:
396,25,13927,6,0,P|429:34|462:42,1,68.5999979064942,2|2,2:2|2:1,0:0:0:0:
328,71,14220,2,0,P|294:61|261:53,1,68.5999979064942,2|2,2:2|2:1,0:0:0:0:
184,170,14513,2,0,P|192:136|201:103,1,68.5999979064942,2|2,2:2|2:1,0:0:0:0:
28,127,14805,1,2,2:2:0:0:
85,30,14952,2,0,P|93:63|102:96,1,68.5999979064942,2|2,2:1|2:2,0:0:0:0:
102,125,15171,1,0,0:0:0:0:
102,125,15244,6,0,P|136:78|201:103,1,137.199995812988,2|2,2:1|2:1,0:0:0:0:
269,149,15683,1,2,2:1:0:0:
184,170,15830,2,0,P|192:136|201:103,1,68.5999979064942,2|2,2:1|2:1,0:0:0:0:
235,5,16122,1,2,2:2:0:0:
419,123,16269,5,2,2:2:0:0:
419,123,17586,6,0,P|388:82|266:133,1,176.399994616699,6|2,1:1|1:2,0:0:0:0:
208,183,18025,1,2,2:2:0:0:
307,218,18171,2,0,P|295:159|286:117,1,88.1999973083497,2|0,1:2|0:0,0:0:0:0:
210,10,18464,2,0,P|201:53|192:96,1,88.1999973083497,2|2,1:2|2:2,0:0:0:0:
126,215,18756,5,0,1:1:0:0:
62,130,18903,1,2,2:2:0:0:
126,215,19049,2,0,P|182:190|226:179,1,88.1999973083497,0|2,1:1|2:2,0:0:0:0:
91,301,19342,2,0,P|48:287|9:268,1,88.1999973083497,2|2,1:2|2:2,0:0:0:0:
167,347,19635,2,0,P|195:310|190:266,1,88.1999973083497,0|2,1:1|2:2,0:0:0:0:
107,206,19927,6,0,B|209:170|209:170|219:130|193:106,1,176.399994616699,2|0,1:2|1:1,0:0:0:0:
109,42,20366,1,2,2:2:0:0:
41,124,20513,2,0,P|32:73|23:32,1,88.1999973083497,2|0,1:2|0:0,0:0:0:0:
210,20,20805,2,0,P|200:63|193:106,1,88.1999973083497,2|0,1:2|0:0,0:0:0:0:
107,206,21098,5,0,1:1:0:0:
41,124,21244,1,2,2:2:0:0:
200,192,21391,1,2,1:2:0:0:
24,255,21537,1,2,2:2:0:0:
125,83,21683,2,0,P|187:103|219:112,1,88.1999973083497,2|2,1:2|2:2,0:0:0:0:
273,212,21976,2,0,P|335:192|367:183,1,88.1999973083497,2|2,1:2|2:2,0:0:0:0:
460,17,22269,6,0,B|411:30|360:42|360:42|345:93|391:118,1,176.399994616699,2|2,1:2|1:2,0:0:0:0:
469,161,22708,1,2,2:2:0:0:
370,199,22854,2,0,P|387:132|394:103,1,88.1999973083497,2|0,1:2|0:0,0:0:0:0:
442,248,23147,2,0,P|425:315|418:344,1,88.1999973083497,2|0,1:2|0:0,0:0:0:0:
280,202,23439,5,0,1:1:0:0:
350,281,23586,1,2,2:2:0:0:
187,314,23732,2,0,P|234:297|272:285,1,88.1999973083497,2|0,1:2|0:0,0:0:0:0:
116,196,24025,2,0,P|163:213|201:225,1,88.1999973083497,2|2,1:2|2:2,0:0:0:0:
25,309,24317,2,0,P|72:292|110:280,1,88.1999973083497,2|2,1:2|2:2,0:0:0:0:
0,124,24610,6,0,P|16:185|131:180,1,176.399994616699,2|0,1:2|1:1,0:0:0:0:
199,129,25049,1,2,2:2:0:0:
132,39,25195,2,0,P|107:78|117:120,1,88.1999973083497,0|0,1:1|0:0,0:0:0:0:
262,189,25488,2,0,P|287:150|277:108,1,88.1999973083497,2|2,1:2|2:2,0:0:0:0:
230,16,25781,5,2,1:2:0:0:
372,97,25927,1,2,2:2:0:0:
372,97,26000,1,2,2:2:0:0:
372,97,26074,1,2,1:2:0:0:
199,129,26220,1,2,2:2:0:0:
308,0,26366,2,0,P|365:14|406:23,1,88.1999973083497,2|2,1:2|2:2,0:0:0:0:
376,214,26659,6,0,P|319:200|249:187,1,117.599996411133,6|0,1:2|0:0,0:0:0:0:
185,114,26952,6,0,B|121:124|121:124|99:147|99:147|21:165,1,176.399994616699,6|0,1:1|1:1,0:0:0:0:
55,64,27391,1,0,0:0:0:0:
19,180,27537,2,0,B|97:162|97:162|119:139|119:139|182:128,1,176.399994616699,2|0,1:2|1:1,0:0:0:0:
260,195,27976,1,2,2:2:0:0:
167,246,28122,6,0,P|153:184|145:156,1,88.1999973083497,0|0,1:1|0:0,0:0:0:0:
187,342,28415,2,0,P|144:330|101:321,1,88.1999973083497,2|0,1:2|0:0,0:0:0:0:
282,197,28708,2,0,P|271:239|262:283,1,88.1999973083497,0|2,1:1|2:2,0:0:0:0:
322,361,29001,2,0,P|364:349|407:340,1,88.1999973083497,0|0,1:1|0:0,0:0:0:0:
410,234,29293,6,0,B|314:261|314:261|272:238|284:191,2,176.399994616699,2|0|0,1:2|1:1|1:1,0:0:0:0:
437,98,30025,1,0,0:0:0:0:
354,163,30171,1,2,1:2:0:0:
280,52,30317,6,0,P|336:57|357:87,1,88.1999973083497,2|0,2:2|1:1,0:0:0:0:
164,50,30610,2,0,P|196:4|232:0,1,88.1999973083497,2|0,2:2|1:1,0:0:0:0:
96,132,30903,2,0,P|72:81|87:47,1,88.1999973083497,2|0,2:2|1:1,0:0:0:0:
179,129,31195,1,2,2:2:0:0:
72,216,31342,1,0,1:1:0:0:
131,304,31488,1,2,2:2:0:0:
131,304,31561,1,2,2:2:0:0:
131,304,31635,6,0,P|116:233|93:120,1,176.399994616699,2|0,1:1|1:1,0:0:0:0:
203,249,32074,1,0,0:0:0:0:
355,205,32220,2,0,P|312:193|269:184,1,88.1999973083497,0|0,1:1|0:0,0:0:0:0:
285,277,32513,1,2,1:2:0:0:
186,163,32659,6,0,P|197:223|208:263,1,88.1999973083497,2|0,2:2|1:1,0:0:0:0:
355,205,32952,2,0,P|365:162|372:118,1,88.1999973083497,2|2,2:2|1:2,0:0:0:0:
165,61,33244,2,0,P|172:104|182:147,1,88.1999973083497,2|0,2:2|1:1,0:0:0:0:
330,11,33537,1,2,2:2:0:0:
259,89,33683,1,0,1:1:0:0:
388,128,33830,1,2,2:2:0:0:
388,128,33903,1,2,2:2:0:0:
389,128,33976,6,0,P|337:63|253:96,1,176.399994616699,2|2,1:2|1:2,0:0:0:0:
186,163,34415,1,2,2:2:0:0:
80,86,34561,2,0,P|137:70|182:53,1,88.1999973083497,2|2,1:2|2:2,0:0:0:0:
182,53,34781,1,2,2:2:0:0:
182,53,34854,1,2,1:2:0:0:
95,168,35000,1,2,2:1:0:0:
252,222,35147,6,0,P|274:166|270:124,1,88.1999973083497,0|2,1:1|2:2,0:0:0:0:
157,253,35439,2,0,P|181:289|218:313,1,88.1999973083497,2|2,1:2|2:1,0:0:0:0:
186,163,35732,2,0,P|142:166|103:186,1,88.1999973083497,2|2,1:2|2:1,0:0:0:0:
218,313,36025,2,0,P|261:309|300:289,1,88.1999973083497,2|0,1:2|0:0,0:0:0:0:
482,260,36317,6,0,B|447:227|435:184|435:184|403:222|348:222,1,176.399994616699,6|0,1:1|1:1,0:0:0:0:
396,321,36756,1,0,0:0:0:0:
365,204,36903,2,0,B|407:204|439:166|439:166|451:209|486:242,1,176.399994616699,2|0,1:2|1:1,0:0:0:0:
473,86,37342,1,2,2:2:0:0:
372,119,37488,6,0,P|322:108|284:98,1,88.1999973083497,0|0,1:1|0:0,0:0:0:0:
179,96,37781,2,0,P|229:85|267:75,1,88.1999973083497,2|0,1:2|0:0,0:0:0:0:
365,204,38074,2,0,P|322:192|279:183,1,88.1999973083497,0|2,1:1|2:2,0:0:0:0:
200,253,38366,2,0,P|242:264|285:273,1,88.1999973083497,0|0,1:1|0:0,0:0:0:0:
167,179,38659,6,0,B|109:171|84:214|94:214|68:253|2:248,1,176.399994616699,2|0,1:2|1:1,0:0:0:0:
93,115,39098,1,0,0:0:0:0:
0,91,39244,2,0,P|10:132|18:177,2,88.1999973083497,2|2|2,1:2|2:2|1:2,0:0:0:0:
72,12,39683,6,0,P|138:-8|180:38,1,132.299995962525,2|0,2:2|0:0,0:0:0:0:
186,54,39976,1,2,2:2:0:0:
277,105,40122,2,0,P|319:93|366:78,1,88.1999973083497,2|2,1:2|2:2,0:0:0:0:
439,193,40415,2,0,P|397:178|354:167,1,88.1999973083497,2|2,1:2|2:2,0:0:0:0:
292,305,40708,1,2,1:2:0:0:
302,314,40781,1,2,2:2:0:0:
311,324,40854,1,2,2:2:0:0:
319,333,40927,1,2,2:2:0:0:
326,341,41000,6,0,P|340:250|354:167,1,176.399994616699,2|2,1:1|1:2,0:0:0:0:
261,216,41439,1,0,0:0:0:0:
277,105,41586,2,0,P|323:122|345:168,1,88.1999973083497,2|2,1:2|2:2,0:0:0:0:
183,131,41878,1,0,1:1:0:0:
227,36,42025,1,2,2:2:0:0:
183,131,42171,6,0,P|114:115|88:102,1,88.1999973083497,0|2,1:1|2:2,0:0:0:0:
19,179,42464,2,0,P|62:186|103:202,1,88.1999973083497,2|2,1:2|2:2,0:0:0:0:
261,216,42756,2,0,P|220:232|177:242,1,88.1999973083497,2|2,1:2|2:2,0:0:0:0:
131,369,43049,2,0,P|115:324|110:275,1,88.1999973083497,2|2,1:2|2:2,0:0:0:0:
100,170,43342,6,0,B|160:148|190:191|182:195|216:234|278:211,1,176.399994616699,0|0,1:1|1:1,0:0:0:0:
346,154,43781,1,0,0:0:0:0:
278,73,43927,2,0,P|233:83|206:127,1,88.1999973083497,0|0,1:1|0:0,0:0:0:0:
346,154,44220,2,0,P|352:102|358:58,1,88.1999973083497,0|2,1:1|2:2,0:0:0:0:
447,11,44513,6,0,P|445:135|445:200,1,176.399994616699,2|0,1:2|1:1,0:0:0:0:
458,292,44952,1,0,0:0:0:0:
304,264,45098,2,0,P|366:251|393:239,1,88.1999973083497,2|0,1:2|0:0,0:0:0:0:
303,351,45391,1,2,1:2:0:0:
235,210,45537,1,2,2:2:0:0:
235,210,45610,1,2,2:2:0:0:
235,210,45683,6,0,B|134:239|134:239|119:284|157:304,1,176.399994616699,4|2,1:1|1:2,0:0:0:0:
304,264,46122,1,2,2:2:0:0:
248,122,46269,2,0,P|236:198|231:228,1,88.1999973083497,2|0,1:2|0:0,0:0:0:0:
332,116,46561,1,2,1:2:0:0:
263,34,46708,1,10,2:2:0:0:
263,34,46781,1,8,2:2:0:0:
263,34,46854,6,0,P|191:54|167:61,1,88.1999973083497,0|2,1:1|2:2,0:0:0:0:
156,161,47147,2,0,P|228:141|252:134,1,88.1999973083497,0|2,1:1|2:2,0:0:0:0:
106,84,47439,2,0,P|31:76|9:133,1,132.299995962525,0|0,1:1|0:0,0:0:0:0:
5,144,47732,1,2,1:2:0:0:
89,207,47878,1,2,2:2:0:0:
24,323,48025,6,0,B|3:216|3:216|31:186|75:198,1,176.399994616699,2|2,1:2|1:2,0:0:0:0:
108,320,48464,1,2,2:2:0:0:
225,269,48610,2,0,P|173:253|130:239,1,88.1999973083497,0|2,1:1|2:2,0:0:0:0:
304,301,48903,1,2,1:2:0:0:
232,189,49049,1,10,2:2:0:0:
304,301,49195,6,0,P|345:287|388:274,1,88.1999973083497,0|0,1:1|0:0,0:0:0:0:
331,133,49488,2,0,P|320:191|313:231,1,88.1999973083497,2|0,1:2|0:0,0:0:0:0:
140,242,49781,2,0,P|151:184|158:144,1,88.1999973083497,2|0,1:2|0:0,0:0:0:0:
314,219,50074,1,2,1:2:0:0:
232,12,50220,1,2,2:2:0:0:
232,12,50293,1,2,2:2:0:0:
232,12,50366,6,0,L|232:205,1,176.399994616699,2|0,1:2|1:1,0:0:0:0:
304,301,50805,1,2,2:2:0:0:
411,260,50952,2,0,P|383:185|311:235,1,176.399994616699,2|2,1:2|1:2,0:0:0:0:
483,304,51391,1,10,2:2:0:0:
483,304,51464,1,8,2:2:0:0:
483,304,51537,6,0,P|494:247|494:202,1,88.1999973083497,0|2,1:1|2:2,0:0:0:0:
361,361,51830,2,0,P|406:367|449:375,1,88.1999973083497,0|2,1:1|2:2,0:0:0:0:
304,301,52122,2,0,P|221:321|159:335,1,132.299995962525,2|0,1:2|0:0,0:0:0:0:
153,339,52415,1,2,1:2:0:0:
220,241,52561,1,2,2:2:0:0:
1,226,52708,6,0,P|84:246|146:260,1,132.299995962525,2|0,1:2|0:0,0:0:0:0:
146,259,53000,1,2,1:2:0:0:
71,168,53147,1,2,2:2:0:0:
146,259,53293,1,0,1:1:0:0:
1,226,53439,1,10,2:2:0:0:
149,128,53586,1,2,1:2:0:0:
1,226,53732,1,10,2:2:0:0:
220,241,53878,6,0,P|208:164|191:52,1,176.399994616699,0|2,1:1|1:1,0:0:0:0:
319,166,54317,1,0,0:0:0:0:
297,11,54464,2,0,P|286:53|273:106,1,88.1999973083497,2|0,1:1|0:0,0:0:0:0:
461,75,54756,6,0,L|375:98,1,88.1999973083497,4|0,2:3|0:0,0:0:0:0:
359,92,55049,6,0,B|474:60|474:60|508:91|496:134,1,196,4|10,1:1|2:2,0:0:0:0:
400,197,55488,1,2,2:2:0:0:
459,321,55635,2,0,P|474:247|497:128,1,196,2|10,2:2|2:2,0:0:0:0:
339,301,56074,1,2,2:2:0:0:
311,186,56220,6,0,P|370:177|408:208,1,98,0|2,1:1|1:2,0:0:0:0:
236,253,56513,1,10,2:2:0:0:
225,157,56659,2,0,P|198:219|104:204,1,147,2|0,2:2|0:0,0:0:0:0:
103,206,56952,1,0,1:1:0:0:
170,46,57098,2,0,P|160:91|150:143,1,98,10|2,2:2|2:2,0:0:0:0:
30,233,57391,6,0,B|88:209|132:251|120:262|157:293|226:270,1,196,2|10,1:2|2:2,0:0:0:0:
306,204,57830,1,2,2:2:0:0:
383,318,57976,2,0,P|335:302|289:288,1,98,0|2,0:0|1:2,0:0:0:0:
225,157,58269,2,0,P|273:173|318:186,1,98,10|2,2:2|2:2,0:0:0:0:
281,75,58561,5,0,1:1:0:0:
148,171,58708,1,0,1:1:0:0:
357,109,58854,1,10,2:2:0:0:
174,4,59000,1,2,2:2:0:0:
174,4,59074,1,2,2:2:0:0:
174,4,59147,2,0,P|158:59|175:100,1,98,2|0,2:2|1:1,0:0:0:0:
412,173,59439,6,0,P|436:124|407:47,1,127.399994168091,10|0,2:2|0:0,0:0:0:0:
297,0,59732,6,0,L|297:227,1,215.60000657959,6|8,1:1|2:2,0:0:0:0:
249,349,60171,1,2,2:2:0:0:
134,274,60317,2,0,B|183:237|183:237|234:252,1,107.800003289795,0|0,0:0|1:1,0:0:0:0:
343,326,60610,2,0,B|294:363|294:363|250:350,1,107.800003289795,10|2,2:2|2:2,0:0:0:0:
297,215,60903,6,0,B|359:233|359:233|383:258|383:258|453:279,1,161.700004934693,0|0,1:1|0:0,0:0:0:0:
471,282,61195,1,8,2:2:0:0:
408,168,61342,1,0,0:0:0:0:
510,89,61488,2,0,B|528:144|528:144|502:186,1,107.800003289795,0|0,0:0|1:1,0:0:0:0:
330,127,61781,2,0,B|312:72|312:72|342:25,1,107.800003289795,10|2,2:2|2:2,0:0:0:0:
471,282,62074,6,0,B|395:256|395:256|371:231|371:231|309:213,1,176.399994616699,6|0,1:1|0:0,0:0:0:0:
284,208,62366,1,10,2:2:0:0:
172,350,62513,6,0,P|213:290|196:225,1,127.399994168091,2|0,1:2|0:0,0:0:0:0:
114,78,62805,6,0,P|87:138|120:195,1,127.399994168091,2|0,1:2|0:0,0:0:0:0:
327,278,63098,6,0,P|369:220|343:147,1,146.999995513916,10|2,2:2|2:2,0:0:0:0:
348,152,64415,6,0,B|226:123|226:123|187:148|207:189,1,191.099991252137,6|0,1:1|0:0,0:0:0:0:
207,188,64708,2,0,P|229:128|202:70,1,127.399994168091,10|0,2:2|0:0,0:0:0:0:
110,246,65000,2,0,P|88:306|115:364,1,127.399994168091,2|0,1:2|1:1,0:0:0:0:
291,285,65293,1,10,2:2:0:0:
108,24,65439,6,0,L|108:232,1,191.099991252137,2|0,1:2|0:0,0:0:0:0:
110,246,65732,1,2,1:2:0:0:
204,72,65878,1,10,2:2:0:0:
336,208,66025,2,0,P|284:167|215:179,1,127.399994168091,2|0,2:2|1:1,0:0:0:0:
384,300,66317,1,2,1:2:0:0:
434,126,66464,1,10,2:2:0:0:
262,271,66610,1,2,2:2:0:0:
504,354,66756,6,0,B|523:238|523:238|507:198|465:200,1,191.099991252137,2|0,1:2|0:0,0:0:0:0:
423,215,67049,1,10,2:2:0:0:
271,297,67195,1,2,2:2:0:0:
295,105,67342,2,0,P|339:142|332:213,1,127.399994168091,2|0,1:2|1:1,0:0:0:0:
108,189,67635,1,10,2:2:0:0:
216,0,67781,6,0,B|216:208,1,191.099991252137,2|0,1:2|0:0,0:0:0:0:
217,216,68074,1,2,1:2:0:0:
90,96,68220,1,8,2:1:0:0:
11,246,68366,1,2,1:2:0:0:
11,246,68439,1,2,2:2:0:0:
11,246,68513,2,0,P|62:188|117:193,1,127.399994168091,2|2,2:2|1:2,0:0:0:0:
168,310,68805,2,0,P|133:360|71:367,1,127.399994168091,14|2,2:1|2:2,0:0:0:0:
217,216,69098,6,0,B|288:184|347:241|318:249|365:299|452:267,1,254.799988336182,6|10,1:1|2:2,0:0:0:0:
306,135,69537,1,2,2:2:0:0:
444,43,69683,2,0,P|427:119|417:180,1,127.399994168091,0|0,1:1|1:1,0:0:0:0:
211,118,69976,1,10,2:2:0:0:
294,0,70122,6,0,L|294:207,1,191.099991252137,2|0,1:2|0:0,0:0:0:0:
295,225,70415,1,0,1:1:0:0:
110,257,70561,2,0,P|170:201|230:221,1,127.399994168091,8|0,2:1|0:0,0:0:0:0:
364,320,70854,1,0,1:1:0:0:
211,118,71000,1,0,1:1:0:0:
364,320,71147,1,10,2:2:0:0:
110,257,71293,1,2,2:2:0:0:
349,103,71439,5,12,2:1:0:0:
229,350,71586,1,0,1:1:0:0:
229,350,71732,1,0,1:1:0:0:
135,44,71878,5,12,2:2:0:0:
393,220,72025,1,0,1:1:0:0:
393,220,72171,1,0,1:1:0:0:
62,168,72317,5,14,2:1:0:0:
432,102,72464,6,0,B|369:118|320:124|320:124|295:161|295:161|244:168|183:189,1,274.399991625977,6|0,1:1|1:1,0:0:0:0:
271,9,72903,1,8,2:2:0:0:
369,218,73049,1,8,2:2:0:0:
369,218,73122,1,8,2:2:0:0:
369,218,73195,6,0,P|438:201|506:188,1,137.199995812988,8|10,2:2|2:2,0:0:0:0:
498,85,73415,1,8,2:2:0:0:
498,85,73488,6,0,P|462:95|422:103,1,68.5999979064942,10|8,2:2|2:2,0:0:0:0:
248,204,73635,2,0,P|212:194|172:186,1,68.5999979064942,6|4,2:2|2:3,0:0:0:0:
24,140,73781,6,0,P|70:60|202:119,1,254.799988336182,6|10,1:1|2:2,0:0:0:0:
96,217,74220,1,2,2:2:0:0:
210,312,74366,2,0,P|192:238|180:179,1,127.399994168091,0|2,1:1|1:2,0:0:0:0:
369,218,74659,1,10,2:2:0:0:
340,32,74805,6,0,P|289:73|290:141,1,127.399994168091,2|0,1:2|0:0,0:0:0:0:
501,159,75098,2,0,P|429:142|375:128,1,127.399994168091,2|10,1:2|2:2,0:0:0:0:
293,257,75391,2,0,P|365:274|419:288,1,127.399994168091,2|0,2:2|1:1,0:0:0:0:
199,109,75683,1,2,1:2:0:0:
123,274,75830,2,0,P|61:258|0:243,1,127.399994168091,10|0,2:2|0:0,0:0:0:0:
199,109,76122,5,2,1:2:0:0:
286,234,76269,1,2,2:2:0:0:
96,173,76415,1,10,2:2:0:0:
274,64,76561,1,2,2:2:0:0:
96,173,76708,1,2,1:2:0:0:
350,145,76854,1,2,1:2:0:0:
142,13,77000,1,10,2:2:0:0:
154,258,77147,6,0,P|199:192|311:221,1,191.099991252137,2|0,1:2|0:0,0:0:0:0:
322,233,77439,1,2,1:2:0:0:
199,109,77586,1,8,2:1:0:0:
402,210,77732,1,2,1:2:0:0:
270,363,77878,2,0,P|225:312|247:252,1,127.399994168091,2|0,2:2|1:1,0:0:0:0:
445,0,78171,6,0,L|446:242,1,220.500008411408,14|0,2:1|0:0,0:0:0:0:
445,254,78464,6,0,P|398:165|258:226,1,274.399991625977,6|8,1:1|2:1,0:0:0:0:
188,366,78903,1,2,2:2:0:0:
110,151,79049,1,8,2:1:0:0:
313,296,79195,1,0,1:1:0:0:
33,238,79342,1,10,2:2:0:0:
253,99,79488,1,2,1:2:0:0:
188,366,79635,6,0,B|32:343|32:343|-15:292|37:235,1,274.399991625977,12|8,2:1|2:1,0:0:0:0:
194,275,80074,1,2,1:2:0:0:
152,73,80220,2,0,P|105:135|122:206,1,137.199995812988,10|0,2:2|1:1,0:0:0:0:
313,296,80513,2,0,P|360:234|343:163,1,137.199995812988,10|2,2:2|1:2,0:0:0:0:
21,254,80805,5,4,1:1:0:0:
43,336,80952,2,0,P|24:263|19:247,1,68.5999979064942,2|0,1:2|0:0,0:0:0:0:
127,184,81244,1,0,1:1:0:0:
127,184,81317,1,0,1:1:0:0:
127,184,81391,2,0,P|117:217|109:250,1,68.5999979064942,8|0,2:1|0:0,0:0:0:0:
272,309,81683,1,0,1:1:0:0:
333,252,81830,6,0,P|267:267|198:281,1,137.199995812988,0|8,1:1|2:1,0:0:0:0:
412,353,82269,1,0,1:1:0:0:
473,296,82415,1,2,2:2:0:0:
473,296,82488,1,2,2:2:0:0:
473,296,82561,2,0,P|454:237|448:213,1,68.5999979064942,10|10,2:2|2:2,0:0:0:0:
385,185,82854,2,0,P|404:126|410:102,1,68.5999979064942,10|10,2:2|2:2,0:0:0:0:
437,35,83147,5,2,1:2:0:0:
333,252,83293,1,10,2:2:0:0:
333,252,83366,1,8,2:2:0:0:
333,252,83439,1,10,2:2:0:0:
167,150,83586,6,0,P|238:134|310:117,1,147.000005607605,2|0,1:2|0:0,0:0:0:0:
184,287,83878,6,0,P|112:269|40:254,1,147.000005607605,2|0,1:2|2:2,0:0:0:0:
0,35,84171,6,0,P|71:52|143:67,1,147.000005607605,10|0,2:2|0:0,0:0:0:0:
143,67,85488,6,0,P|71:41|19:129,1,176.399994616699,4|2,1:1|1:2,0:0:0:0:
105,169,85927,1,2,2:2:0:0:
41,276,86074,2,0,P|32:219|24:178,1,88.1999973083497,0|2,1:1|2:2,0:0:0:0:
126,287,86366,2,0,P|117:330|111:373,1,88.1999973083497,2|2,1:2|2:2,0:0:0:0:
187,224,86659,5,2,1:2:0:0:
105,169,86805,1,2,2:2:0:0:
187,224,86952,2,0,P|244:217|280:198,1,88.1999973083497,0|2,1:1|2:2,0:0:0:0:
311,106,87244,2,0,P|254:113|218:132,1,88.1999973083497,2|2,1:2|2:2,0:0:0:0:
355,228,87537,2,0,P|412:221|448:202,1,88.1999973083497,2|0,1:2|0:0,0:0:0:0:
468,49,87830,6,0,B|419:33|378:73|394:74|357:120|299:103,1,176.399994616699,2|0,1:2|1:1,0:0:0:0:
225,41,88269,1,2,2:2:0:0:
205,144,88415,2,0,P|246:116|290:113,1,88.1999973083497,2|0,1:2|0:0,0:0:0:0:
184,229,88708,2,0,P|140:222|105:197,1,88.1999973083497,2|2,1:2|2:2,0:0:0:0:
277,212,89000,5,2,1:2:0:0:
222,303,89147,1,2,2:2:0:0:
356,226,89293,1,0,1:1:0:0:
205,144,89439,1,2,2:2:0:0:
205,144,89513,1,2,2:2:0:0:
205,144,89586,2,0,P|192:201|182:241,1,88.1999973083497,2|2,1:2|2:2,0:0:0:0:
335,311,89878,2,0,P|348:254|358:214,1,88.1999973083497,2|2,1:2|2:1,0:0:0:0:
277,35,90171,6,0,L|277:219,1,176.399994616699,4|0,1:1|1:1,0:0:0:0:
222,303,90610,1,2,2:2:0:0:
100,254,90756,2,0,P|171:234|199:224,1,88.1999973083497,2|0,1:2|0:0,0:0:0:0:
84,350,91049,2,0,P|42:336|0:325,1,88.1999973083497,2|2,1:2|2:2,0:0:0:0:
15,185,91342,5,0,1:1:0:0:
100,254,91488,1,2,2:2:0:0:
15,185,91635,2,0,P|30:115|34:90,1,88.1999973083497,2|0,1:2|0:0,0:0:0:0:
109,25,91927,2,0,P|116:68|126:111,1,88.1999973083497,2|2,1:2|2:2,0:0:0:0:
198,189,92220,2,0,P|207:146|215:102,1,88.1999973083497,2|2,1:2|2:2,0:0:0:0:
297,35,92513,6,0,P|363:6|419:95,1,176.399994616699,2|2,1:2|1:2,0:0:0:0:
331,132,92952,1,2,2:2:0:0:
426,179,93098,2,0,P|431:131|437:91,1,88.1999973083497,2|0,1:2|0:0,0:0:0:0:
363,250,93391,2,0,P|369:293|373:337,1,88.1999973083497,2|2,1:2|2:2,0:0:0:0:
198,189,93683,5,0,1:1:0:0:
151,284,93830,1,2,2:2:0:0:
151,284,93903,1,2,2:2:0:0:
151,284,93976,2,0,P|217:271|253:266,1,88.1999973083497,2|2,1:2|2:2,0:0:0:0:
228,100,94269,2,0,P|162:113|114:119,1,88.1999973083497,2|2,1:2|2:2,0:0:0:0:
48,221,94561,6,0,P|114:208|169:201,1,117.599996411133,2|0,1:2|0:0,0:0:0:0:
237,267,94854,6,0,P|179:240|259:196,1,176.399994616699,6|0,1:1|1:1,0:0:0:0:
327,237,95293,1,0,0:0:0:0:
281,332,95439,2,0,B|286:262|286:262|308:234|308:234|317:133,1,176.399994616699,2|0,1:2|1:1,0:0:0:0:
224,17,95878,1,2,2:2:0:0:
141,84,96025,6,0,P|193:93|243:102,1,88.1999973083497,0|0,1:1|0:0,0:0:0:0:
353,43,96317,2,0,P|281:21|247:104,1,176.399994616699,2|0,1:2|1:1,0:0:0:0:
314,163,96756,1,2,2:2:0:0:
217,208,96903,2,0,P|227:161|236:112,1,88.1999973083497,0|0,1:1|0:0,0:0:0:0:
144,243,97195,6,0,B|208:220|237:255|226:258|263:293|334:269,2,176.399994616699,2|0|0,1:2|1:1|1:1,0:0:0:0:
59,307,97927,1,0,0:0:0:0:
144,243,98074,1,2,1:2:0:0:
49,136,98220,6,0,P|57:179|66:222,1,88.1999973083497,2|0,2:2|1:1,0:0:0:0:
95,48,98513,2,0,P|53:33|11:19,1,88.1999973083497,2|0,2:2|1:1,0:0:0:0:
146,135,98805,2,0,P|179:106|212:76,1,88.1999973083497,2|0,2:2|1:1,0:0:0:0:
299,16,99098,1,2,2:2:0:0:
347,109,99244,1,0,1:1:0:0:
484,52,99391,1,2,2:2:0:0:
484,52,99464,1,2,2:2:0:0:
484,52,99537,6,0,B|397:23|397:23|351:50|370:102,1,176.399994616699,0|0,1:1|1:1,0:0:0:0:
495,172,99976,1,0,0:0:0:0:
405,233,100122,2,0,P|419:159|425:127,1,88.1999973083497,0|0,1:1|0:0,0:0:0:0:
503,283,100415,1,2,1:2:0:0:
425,354,100561,6,0,P|370:339|331:329,1,88.1999973083497,2|0,2:2|1:1,0:0:0:0:
236,198,100854,2,0,P|291:213|330:223,1,88.1999973083497,2|0,2:2|1:1,0:0:0:0:
263,351,101147,2,0,P|208:336|169:326,1,88.1999973083497,2|0,2:2|1:1,0:0:0:0:
112,245,101439,1,2,2:2:0:0:
177,328,101586,1,0,1:1:0:0:
52,363,101732,1,2,2:2:0:0:
52,363,101805,1,2,2:2:0:0:
52,363,101878,6,0,B|37:251|37:251|68:222|106:245,1,176.399994616699,0|0,1:1|1:1,0:0:0:0:
236,198,102317,1,0,0:0:0:0:
152,35,102464,2,0,P|124:68|122:117,1,88.1999973083497,0|0,1:1|0:0,0:0:0:0:
131,139,102683,1,0,3:3:0:0:
131,139,102756,1,2,1:2:0:0:
236,26,102903,1,2,2:2:0:0:
317,140,103049,6,0,P|263:122|211:110,1,98,0|2,1:1|2:2,0:0:0:0:
393,199,103342,2,0,P|435:186|492:173,1,98,2|2,1:2|2:2,0:0:0:0:
463,25,103635,5,2,1:2:0:0:
439,18,103708,1,8,2:2:0:0:
414,21,103781,1,8,2:2:0:0:
395,32,103854,1,8,2:2:0:0:
382,51,103927,2,0,P|390:84|400:120,1,53.9000016448975,2|8,1:2|2:2,0:0:0:0:
303,192,104074,2,0,P|311:159|321:123,1,53.9000016448975,10|8,2:2|2:2,0:0:0:0:
225,1,104220,6,0,L|225:203,1,196,4|10,1:1|2:2,0:0:0:0:
283,299,104659,1,0,0:0:0:0:
390,222,104805,2,0,P|338:191|291:195,1,98,2|0,2:2|1:1,0:0:0:0:
358,359,105098,2,0,P|406:356|445:328,1,98,10|2,2:2|2:2,0:0:0:0:
283,299,105391,6,0,P|208:318|171:326,1,98,0|2,1:1|1:2,0:0:0:0:
101,127,105683,1,8,2:2:0:0:
5,196,105830,2,0,B|62:206|62:206|88:231|88:231|142:242,1,147,2|0,2:2|0:0,0:0:0:0:
166,246,106122,1,0,1:1:0:0:
232,85,106269,2,0,P|186:117|178:161,1,98,10|2,2:2|2:2,0:0:0:0:
283,299,106561,6,0,B|402:275|402:275|417:224|386:197,1,196,0|10,1:1|2:2,0:0:0:0:
262,203,107000,1,2,2:2:0:0:
346,51,107147,2,0,P|335:125|330:162,1,98,2|0,2:2|1:1,0:0:0:0:
177,155,107439,2,0,P|166:81|161:44,1,98,10|2,2:2|2:2,0:0:0:0:
166,246,107732,6,0,P|155:320|150:357,1,98,0|2,1:1|1:2,0:0:0:0:
92,108,108025,1,10,2:2:0:0:
262,203,108171,2,0,B|313:213|332:174|325:175|346:141|408:161,1,147,2|0,1:2|0:0,0:0:0:0:
421,164,108464,1,2,1:2:0:0:
497,279,108610,2,0,P|451:248|397:248,1,98,10|6,2:2|1:2,0:0:0:0:
333,350,108903,6,0,P|401:351|399:238,1,196,6|8,1:1|2:2,0:0:0:0:
336,152,109342,1,0,0:0:0:0:
246,227,109488,2,0,P|181:212|136:204,1,98,0|0,0:0|1:1,0:0:0:0:
48,146,109781,2,0,P|96:136|143:125,1,98,8|0,2:2|0:0,0:0:0:0:
94,335,110074,5,0,1:1:0:0:
28,237,110220,1,2,1:2:0:0:
177,305,110366,1,10,2:2:0:0:
9,361,110513,1,2,2:2:0:0:
9,361,110586,1,2,2:2:0:0:
9,361,110659,2,0,B|-14:316|-14:316|6:251,1,98,2|0,2:2|1:1,0:0:0:0:
150,206,110952,2,0,B|173:251|173:251|153:316,1,98,10|2,2:2|2:2,0:0:0:0:
48,146,111244,6,0,B|116:121|150:171|137:177|174:216|252:188,1,196,0|8,1:1|2:2,0:0:0:0:
315,117,111683,1,0,0:0:0:0:
233,31,111830,2,0,P|172:35|150:73,1,98,0|0,0:0|1:1,0:0:0:0:
315,117,112122,2,0,P|376:113|398:75,1,98,8|2,2:2|2:2,0:0:0:0:
311,2,112415,1,2,1:2:0:0:
219,136,112561,1,8,2:2:0:0:
219,136,112635,1,8,2:2:0:0:
219,136,112708,6,0,P|223:165|225:194,3,58.7999982055665,8|8|8|8,1:2|2:2|2:2|2:2,0:0:0:0:
307,239,113000,6,0,P|302:268|299:292,3,53.9000016448975,10|4|4|4,1:2|2:3|2:3|2:3,0:0:0:0:
242,362,113293,5,6,1:2:0:0:
233,353,113366,1,8,2:3:0:0:
225,345,113439,1,8,2:3:0:0:
216,335,113513,1,8,2:3:0:0:
205,325,113586,6,0,B|266:335|266:335|284:351|284:351|344:359,1,137.199995812988,4|2,1:1|2:2,0:0:0:0:
408,320,114025,1,2,2:2:0:0:
380,242,114171,2,0,P|334:218|350:285,1,137.199995812988,2|2,2:2|2:2,0:0:0:0:
408,320,114610,1,2,2:2:0:0:
454,200,114756,6,0,P|439:149|436:123,1,68.5999979064942,0|2,0:0|2:2,0:0:0:0:
361,100,115049,2,0,P|376:49|379:23,1,68.5999979064942,0|2,0:0|2:2,0:0:0:0:
292,148,115342,2,0,P|243:134|186:130,1,102.899996859741
181,132,115635,1,2,2:2:0:0:
249,56,115781,1,2,1:2:0:0:
181,132,115927,6,0,P|124:150|89:75,1,137.199995812988,2|2,1:2|2:2,0:0:0:0:
82,11,116366,1,2,2:2:0:0:
14,54,116513,2,0,P|4:99|2:129,1,68.5999979064942,0|2,0:0|2:2,0:0:0:0:
72,161,116805,2,0,P|80:127|83:93,1,68.5999979064942,2|2,2:2|2:2,0:0:0:0:
16,259,117098,6,0,P|93:243|144:235,1,102.899996859741
133,221,117391,2,0,P|80:231|48:237,1,68.5999979064942,2|0,2:2|0:0,0:0:0:0:
175,331,117683,2,0,P|122:321|90:315,1,68.5999979064942,2|0,2:2|0:0,0:0:0:0:
277,242,117976,2,0,P|224:252|192:258,1,68.5999979064942,2|0,2:2|0:0,0:0:0:0:
336,311,118269,6,0,P|356:266|439:285,1,137.199995812988,2|0,1:2|0:0,0:0:0:0:
483,340,118708,1,2,2:2:0:0:
483,340,118854,2,0,P|486:268|495:182,1,137.199995812988,2|2,2:2|2:2,0:0:0:0:
447,133,119293,1,2,2:2:0:0:
371,165,119439,6,0,P|418:156|459:144,1,68.5999979064942,2|2,2:2|2:2,0:0:0:0:
471,50,119732,2,0,P|424:59|383:71,1,68.5999979064942,0|2,0:0|2:2,0:0:0:0:
292,122,120025,2,0,P|252:83|270:43,1,102.899996859741
285,31,120317,1,2,2:2:0:0:
185,119,120464,1,2,1:2:0:0:
288,228,120610,6,0,P|335:192|296:137,1,137.199995812988,2|2,1:2|2:2,0:0:0:0:
185,119,121049,1,2,2:2:0:0:
185,119,121195,2,0,P|191:152|199:185,1,68.5999979064942,2|2,2:2|2:2,0:0:0:0:
202,268,121488,2,0,P|208:234|216:201,1,68.5999979064942,0|2,0:0|2:2,0:0:0:0:
136,37,121781,6,0,B|110:53|94:82|94:82|104:135|118:182,1,156.8
35,239,122220,1,8,2:2:0:0:
103,327,122366,2,0,P|109:293|123:244,1,78.4,0|4,0:0|2:3,0:0:0:0:
182,371,122659,1,0,0:0:0:0:
376,215,122805,1,4,2:3:0:0:
376,215,122878,1,4,2:3:0:0:
376,215,122952,6,0,B|315:206|288:250|296:253|260:304|203:286,1,196,4|10,1:1|2:2,0:0:0:0:
244,175,123391,1,2,2:2:0:0:
368,305,123537,2,0,B|504:271|504:271|474:261|450:245,1,196,2|10,2:2|2:2,0:0:0:0:
316,81,123976,1,2,2:2:0:0:
388,124,124122,6,0,P|396:176|366:222,1,98,0|2,1:1|1:2,0:0:0:0:
274,276,124415,1,10,2:2:0:0:
202,101,124561,2,0,P|257:91|319:164,1,147,2|0,2:2|0:0,0:0:0:0:
317,150,124854,1,0,1:1:0:0:
128,143,125000,2,0,P|120:91|150:45,1,98,10|2,2:2|2:2,0:0:0:0:
208,205,125293,6,0,P|156:161|65:244,1,196,2|10,1:2|2:2,0:0:0:0:
213,291,125732,1,2,2:2:0:0:
128,372,125878,2,0,P|101:330|117:283,1,98,0|2,0:0|1:2,0:0:0:0:
327,354,126171,2,0,P|281:336|234:320,1,98,10|2,2:2|2:2,0:0:0:0:
208,205,126464,6,0,P|253:222|300:238,1,98,0|2,1:1|1:2,0:0:0:0:
406,288,126756,1,10,2:2:0:0:
469,130,126903,2,0,P|411:114|367:189,1,147,2|0,2:2|0:0,0:0:0:0:
367,202,127195,1,2,1:2:0:0:
491,278,127342,6,0,P|497:219|506:150,1,127.399994168091,10|2,2:2|2:2,0:0:0:0:
338,48,127635,6,0,B|295:58|254:34|254:34|239:81|194:98,1,161.700004934693,6|0,1:1|0:0,0:0:0:0:
162,96,127927,1,0,1:1:0:0:
77,309,128074,6,0,B|111:345|111:345|196:322|196:322|205:263,1,176.399994616699,8|0,2:2|0:0,0:0:0:0:
208,205,128366,1,0,1:1:0:0:
0,0,128513,6,0,B|9:75|9:75|-6:107|-6:107|5:204,1,191.099991252137,12|0,2:1|0:0,0:0:0:0:
9,263,128805,1,0,1:1:0:0:
162,96,128952,6,0,B|221:76|261:122|243:130|288:174|357:152,1,205.799993719483,0|0,1:1|0:0,0:0:0:0:
405,91,129244,1,8,2:2:0:0:
483,262,129391,2,0,P|493:194|506:126,1,137.199995812988,0|0,0:0|1:1,0:0:0:0:
302,326,129683,2,0,P|369:336|437:349,1,137.199995812988,14|2,2:1|2:2,0:0:0:0:
183,241,129976,5,2,1:2:0:0:
165,218,130049,1,2,2:2:0:0:
135,208,130122,1,8,2:2:0:0:
106,206,130195,1,8,2:2:0:0:
77,218,130269,2,0,L|97:295,1,68.5999979064942,10|8,2:2|2:2,0:0:0:0:
300,160,130415,6,0,P|290:227|281:303,1,137.199995812988,2|0,1:2|0:0,0:0:0:0:
80,71,130708,6,0,P|95:145|107:218,1,137.199995812988,2|0,1:2|0:0,0:0:0:0:
198,0,131000,6,0,L|198:230,1,220.500008411408,6|0,1:1|0:0,0:0:0:0:
198,248,131293,5,8,2:2:0:0:
289,74,131439,1,8,1:2:0:0:
198,248,131586,1,8,2:2:0:0:
382,143,131732,1,8,1:2:0:0:
163,80,131878,1,8,2:2:0:0:
350,280,132025,1,8,1:2:0:0:
343,5,132171,1,8,2:2:0:0:
105,205,132317,5,8,1:2:0:0:
108,222,132391,1,4,2:3:0:0:
112,239,132464,2,0,P|121:277|129:322,1,73.5000028038026,4|4,2:3|2:3,0:0:0:0:
314,368,132610,5,6,1:2:0:0:
317,351,132684,1,4,2:3:0:0:
321,334,132756,2,0,P|328:296|338:251,1,73.5000028038026,4|4,2:3|2:3,0:0:0:0:
163,80,132903,5,10,1:2:0:0:
166,97,132977,1,0,0:0:0:0:
170,112,133050,2,0,P|179:150|187:195,1,73.5000028038026,8|0,2:1|0:0,0:0:0:0:
425,293,133195,6,0,P|432:256|440:221,1,73.5,2|0,2:2|0:0,0:0:0:0:
456,199,133488,6,0,B|334:228|334:228|295:203|315:162,1,191.099991252137,6|0,1:1|0:0,0:0:0:0:
323,143,133781,2,0,P|395:126|466:110,1,127.399994168091,10|0,2:2|0:0,0:0:0:0:
226,218,134074,1,2,1:2:0:0:
117,83,134220,1,2,1:2:0:0:
322,142,134366,1,10,2:2:0:0:
129,292,134513,6,0,P|139:226|149:155,1,127.399994168091,2|0,1:2|0:0,0:0:0:0:
372,254,134805,2,0,P|312:277|253:300,1,127.399994168091,2|8,1:2|2:1,0:0:0:0:
222,62,135098,2,0,P|271:101|321:141,1,127.399994168091,2|0,2:2|1:1,0:0:0:0:
147,165,135390,1,2,1:2:0:0:
291,2,135537,1,10,2:2:0:0:
226,218,135683,1,2,2:2:0:0:
123,0,135830,5,2,1:2:0:0:
321,141,135976,2,0,P|412:121|459:107,1,127.399994168091,2|8,2:2|2:1,0:0:0:0:
222,62,136268,1,2,2:2:0:0:
124,180,136415,2,0,P|65:190|23:139,1,127.399994168091,2|2,1:2|1:2,0:0:0:0:
327,223,136708,1,10,2:2:0:0:
226,0,136854,6,0,B|226:200,1,191.099991252137,2|0,1:2|0:0,0:0:0:0:
226,220,137147,1,2,1:2:0:0:
94,98,137293,1,8,2:1:0:0:
327,223,137439,1,2,1:2:0:0:
327,223,137512,1,2,2:2:0:0:
327,223,137586,2,0,B|355:163|355:163|322:90,1,127.399994168091,2|2,2:2|1:2,0:0:0:0:
124,180,137878,2,0,B|104:239|104:239|142:306,1,127.399994168091,14|2,2:2|2:2,0:0:0:0:
272,365,138171,6,0,B|450:329|450:329|405:311|381:286,1,254.799988336182,6|10,1:1|2:2,0:0:0:0:
226,220,138610,1,2,2:2:0:0:
349,97,138756,2,0,P|338:155|325:235,1,127.399994168091,0|0,1:1|1:1,0:0:0:0:
124,180,139049,1,10,2:2:0:0:
174,13,139195,6,0,B|185:89|185:89|205:121|205:121|221:201,1,191.099991252137,2|0,1:2|0:0,0:0:0:0:
226,220,139488,1,0,1:1:0:0:
77,258,139635,2,0,P|88:195|99:132,1,127.399994168091,8|0,2:1|0:0,0:0:0:0:
136,327,139927,1,0,1:1:0:0:
6,167,140073,1,0,1:1:0:0:
136,327,140220,2,0,P|197:313|260:300,1,127.399994168091,10|2,2:2|2:2,0:0:0:0:
315,137,140512,5,12,2:1:0:0:
416,252,140659,1,0,1:1:0:0:
416,252,140805,1,0,1:1:0:0:
226,220,140951,5,12,2:2:0:0:
422,87,141098,1,0,1:1:0:0:
422,87,141244,1,0,1:1:0:0:
282,310,141390,5,14,2:1:0:0:
60,91,141537,6,0,B|123:107|172:113|172:113|197:150|197:150|248:157|310:179,1,274.399991625977,6|0,1:1|1:1,0:0:0:0:
416,252,141976,1,8,2:2:0:0:
267,368,142122,1,8,2:2:0:0:
267,368,142195,1,8,2:2:0:0:
267,368,142268,6,0,P|249:303|237:232,1,137.199995812988,8|10,2:2|2:2,0:0:0:0:
325,112,142488,1,8,2:2:0:0:
325,112,142561,6,0,P|317:145|308:180,1,68.5999979064942,10|8,2:2|2:2,0:0:0:0:
139,270,142708,2,0,P|129:234|121:188,1,68.5999979064942,6|4,2:2|2:3,0:0:0:0:
218,0,142854,6,0,L|218:256,1,254.799988336182,6|10,1:1|2:2,0:0:0:0:
365,363,143293,1,2,2:2:0:0:
448,235,143439,2,0,P|374:253|313:269,1,127.399994168091,0|2,1:1|1:2,0:0:0:0:
512,326,143732,1,10,2:2:0:0:
316,253,143878,6,0,P|377:237|439:222,1,127.399994168091,2|0,1:2|0:0,0:0:0:0:
232,344,144171,2,0,P|170:329|108:313,1,127.399994168091,2|10,1:2|2:2,0:0:0:0:
10,149,144464,2,0,P|71:163|133:179,1,127.399994168091,2|0,2:2|1:1,0:0:0:0:
307,142,144756,1,2,1:2:0:0:
136,37,144903,1,10,2:2:0:0:
254,208,145049,1,2,2:2:0:0:
405,49,145195,6,0,B|343:35|312:78|325:81|297:116|221:110,1,191.099991252137,2|0,1:2|0:0,0:0:0:0:
212,92,145488,1,10,2:2:0:0:
374,181,145634,1,2,2:2:0:0:
133,179,145781,1,2,1:2:0:0:
312,37,145927,1,2,1:2:0:0:
241,296,146073,1,10,2:2:0:0:
55,145,146220,6,0,B|130:161|130:161|163:191|163:191|243:205,1,191.099991252137,2|0,1:2|0:0,0:0:0:0:
254,208,146512,1,2,1:2:0:0:
132,74,146659,1,8,2:1:0:0:
254,208,146805,1,2,1:2:0:0:
79,272,146951,2,0,P|41:239|50:165,1,127.399994168091,2|0,2:2|1:1,0:0:0:0:
255,0,147244,6,0,L|255:221,1,220.500008411408,14|0,2:1|0:0,0:0:0:0:
247,258,147537,6,0,P|290:157|425:215,1,274.399991625977,6|8,1:1|2:1,0:0:0:0:
310,325,147976,1,2,2:2:0:0:
168,164,148122,1,8,2:1:0:0:
399,279,148269,1,0,1:1:0:0:
130,280,148415,1,10,2:2:0:0:
347,99,148561,1,2,1:2:0:0:
462,340,148708,6,0,B|359:319|359:319|295:349|295:349|185:336,1,274.399991625977,12|8,2:1|2:1,0:0:0:0:
97,205,149147,1,2,1:2:0:0:
201,78,149293,2,0,P|277:96|338:111,1,137.199995812988,10|0,2:2|1:1,0:0:0:0:
230,237,149586,2,0,P|164:220|97:205,1,137.199995812988,10|2,2:2|1:2,0:0:0:0:
475,148,149878,5,4,1:1:0:0:
393,170,150025,2,0,P|466:151|482:146,1,68.5999979064942,2|0,1:2|0:0,0:0:0:0:
317,137,150317,1,0,1:1:0:0:
317,137,150390,1,0,1:1:0:0:
317,137,150464,2,0,P|284:127|251:119,1,68.5999979064942,8|0,2:1|0:0,0:0:0:0:
394,92,150756,1,0,1:1:0:0:
317,0,150903,6,0,L|318:140,1,137.199995812988,0|8,1:1|2:1,0:0:0:0:
266,201,151342,1,0,1:1:0:0:
225,129,151488,1,2,2:2:0:0:
225,129,151561,1,2,2:2:0:0:
225,129,151634,2,0,P|166:148|142:154,1,68.5999979064942,10|10,2:2|2:2,0:0:0:0:
87,189,151927,2,0,P|28:170|4:164,1,68.5999979064942,10|10,2:2|2:2,0:0:0:0:
105,80,152220,5,2,1:2:0:0:
266,201,152366,1,10,2:2:0:0:
266,201,152439,1,8,2:2:0:0:
266,201,152512,1,10,2:2:0:0:
137,347,152659,6,0,P|153:275|170:203,1,147.000005607605,2|0,1:2|0:0,0:0:0:0:
376,282,152952,6,0,P|305:303|235:324,1,147.000005607605,2|0,1:2|2:2,0:0:0:0:
203,107,153244,6,0,P|256:157|310:207,1,147.000005607605,10|0,2:2|0:0,0:0:0:0:
310,207,154561,6,0,P|239:228|178:247,1,137.199995812988,4|2,1:1|2:2,0:0:0:0:
127,311,155000,2,0,B|84:279|97:224|97:224|123:202|122:165,1,137.199995812988,2|2,3:2|1:2,0:0:0:0:
116,109,155439,1,2,3:2:0:0:
187,150,155586,1,0,0:0:0:0:
116,109,155732,6,0,P|67:126|35:137,2,68.5999979064942,2|2|0,1:2|1:2|0:0,0:0:0:0:
281,105,156171,2,0,P|243:58|199:58,1,102.899996859741,2|0,3:2|0:0,0:0:0:0:
188,64,156464,1,0,1:1:0:0:
350,145,156610,2,0,P|363:106|354:78,1,68.5999979064942,0|0,3:3|0:0,0:0:0:0:
280,193,156903,6,0,B|237:225|250:280|250:280|276:302|275:339,1,137.199995812988,2|2,1:2|2:2,0:0:0:0:
205,362,157342,2,0,B|262:353|262:353|295:364|295:364|354:350,1,137.199995812988,2|2,3:2|1:2,0:0:0:0:
412,262,157781,2,0,L|343:277,1,68.5999979064942,2|0,3:2|0:0,0:0:0:0:
467,317,158074,5,2,1:2:0:0:
414,253,158220,2,0,P|420:217|428:181,1,68.5999979064942,2|0,1:2|0:0,0:0:0:0:
274,160,158513,1,2,3:2:0:0:
337,77,158659,2,0,P|344:110|349:144,1,68.5999979064942,2|2,2:2|1:2,0:0:0:0:
354,164,158878,1,2,2:2:0:0:
354,164,158952,1,2,3:2:0:0:
250,34,159098,1,2,2:2:0:0:
170,183,159244,6,0,P|196:144|253:145,1,102.899996859741,2|0,1:2|0:0,0:0:0:0:
274,160,159537,1,2,2:2:0:0:
113,246,159683,2,0,P|63:245|33:206,1,102.899996859741,2|0,3:2|0:0,0:0:0:0:
27,179,159976,1,2,1:2:0:0:
98,70,160122,2,0,P|107:108|91:152,1,68.5999979064942,2|0,3:2|0:0,0:0:0:0:
28,6,160415,5,2,1:2:0:0:
91,58,160561,2,0,P|148:46|172:40,1,68.5999979064942,2|0,1:2|0:0,0:0:0:0:
274,160,160854,1,2,3:2:0:0:
222,96,161000,1,0,0:0:0:0:
310,12,161147,1,2,1:2:0:0:
310,12,161220,1,2,2:2:0:0:
310,12,161293,2,0,P|298:69|292:93,1,68.5999979064942,2|0,3:2|0:0,0:0:0:0:
195,179,161586,6,0,P|161:171|127:164,2,68.5999979064942,2|2|2,1:2|2:2|3:2,0:0:0:0:
259,248,162025,2,0,P|292:241|326:233,2,68.5999979064942,2|0|2,2:2|0:0|1:2,0:0:0:0:
184,307,162464,2,0,P|150:300|116:292,1,68.5999979064942,2|2,3:2|1:2,0:0:0:0:
265,360,162756,6,0,P|333:344|386:333,1,102.899996859741,2|0,2:2|0:0,0:0:0:0:
385,332,163049,1,2,2:2:0:0:
426,210,163195,2,0,P|358:226|305:237,1,102.899996859741,2|0,3:2|0:0,0:0:0:0:
306,238,163488,1,2,1:2:0:0:
252,112,163635,6,0,P|307:111|345:151,1,98,2|2,3:2|2:2,0:0:0:0:
170,212,163927,6,0,B|127:180|135:126|135:126|163:104|168:71,1,137.199995812988,4|0,1:2|0:0,0:0:0:0:
123,22,164366,2,0,P|76:6|20:82,1,137.199995812988,0|0,3:3|1:1,0:0:0:0:
55,135,164805,1,0,3:3:0:0:
11,205,164952,1,2,2:2:0:0:
55,135,165098,6,0,P|109:146|134:152,1,68.5999979064942,2|0,1:2|0:0,0:0:0:0:
187,294,165391,1,2,2:2:0:0:
295,178,165537,2,0,P|242:191|168:210,1,102.899996859741,2|0,3:2|0:0,0:0:0:0:
170,212,165830,1,2,1:2:0:0:
357,240,165976,2,0,P|376:203|374:169,1,68.5999979064942,2|2,3:2|2:2,0:0:0:0:
293,293,166269,6,0,P|341:266|399:319,1,137.199995812988,0|0,1:1|0:0,0:0:0:0:
467,357,166708,2,0,P|472:297|481:213,1,137.199995812988,0|0,3:3|1:1,0:0:0:0:
493,138,167147,1,0,3:3:0:0:
417,170,167293,1,2,2:2:0:0:
493,138,167439,6,0,P|510:96|494:53,1,68.5999979064942,2|0,1:2|1:1,0:0:0:0:
417,170,167732,1,2,2:2:0:0:
313,104,167878,2,0,P|349:67|411:74,1,102.899996859741,2|0,3:2|0:0,0:0:0:0:
420,84,168171,1,2,1:2:0:0:
306,122,168317,2,0,P|261:106|234:102,1,68.5999979064942,0|2,3:3|2:2,0:0:0:0:
74,102,168610,6,0,P|121:116|164:36,1,137.199995812988,0|0,1:1|0:0,0:0:0:0:
50,15,169049,2,0,P|55:96|58:179,1,137.199995812988,2|0,3:2|1:1,0:0:0:0:
100,222,169488,2,0,P|86:262|82:291,1,68.5999979064942,2|0,3:2|0:0,0:0:0:0:
236,203,169781,6,0,P|199:191|157:175,1,68.5999979064942,0|0,1:1|1:1,0:0:0:0:
289,272,170074,1,0,0:0:0:0:
337,173,170220,2,0,P|282:157|242:205,1,102.899996859741,0|0,3:3|0:0,0:0:0:0:
236,203,170513,1,0,1:1:0:0:
367,312,170659,2,0,P|379:250|382:232,1,68.5999979064942,2|2,3:2|2:2,0:0:0:0:
439,151,170952,6,0,P|451:213|454:231,2,68.5999979064942,0|0|2,1:1|0:0|3:2,0:0:0:0:
416,71,171391,1,2,1:2:0:0:
495,90,171537,1,0,0:0:0:0:
416,71,171683,1,2,1:2:0:0:
416,71,171756,1,2,2:2:0:0:
416,71,171830,2,0,P|376:83|346:93,1,68.5999979064942,0|2,3:3|1:2,0:0:0:0:
164,62,172122,6,0,B|190:28|242:37|242:37|254:67|283:82,1,137.199995812988,0|2,0:0|2:2,0:0:0:0:
122,136,172561,2,0,P|49:122|2:114,1,102.899996859741,2|0,1:2|0:0,0:0:0:0:
0,115,172854,1,2,1:2:0:0:
182,191,173000,2,0,P|206:150|202:113,1,68.5999979064942,2|2,2:2|2:2,0:0:0:0:
122,0,173293,6,0,L|122:158,1,137.199995812988,4|0,1:1|0:0,0:0:0:0:
78,207,173732,2,0,P|102:153|177:187,1,137.199995812988,0|0,3:3|1:1,0:0:0:0:
203,284,174171,2,0,P|169:277|135:271,1,68.5999979064942,0|2,3:3|2:2,0:0:0:0:
255,216,174464,6,0,P|299:208|329:202,2,68.5999979064942,2|0|2,1:2|1:1|2:2,0:0:0:0:
203,284,174903,2,0,P|209:250|223:170,1,102.899996859741,2|0,3:2|0:0,0:0:0:0:
224,156,175195,1,2,1:2:0:0:
246,76,175342,2,0,P|208:84|175:90,1,68.5999979064942,2|2,3:2|2:2,0:0:0:0:
323,116,175635,6,0,B|425:97|425:97|428:63|408:40,1,137.199995812988,0|2,1:1|2:2,0:0:0:0:
350,22,176074,1,2,2:2:0:0:
323,116,176220,1,2,2:2:0:0:
150,97,176366,6,0,P|215:82|249:75,1,98,2|0,1:2|3:3,0:0:0:0:
133,186,176659,6,0,P|67:188|27:133,1,117.6,2|0,1:2|0:0,0:0:0:0:
30,126,176952,1,0,1:1:0:0:
147,181,177098,6,0,P|134:248|130:288,1,88.1999973083497,2|2,3:2|2:2,0:0:0:0:
236,182,177391,1,0,1:1:0:0:
150,97,177537,1,2,1:2:0:0:
236,182,177683,6,0,P|273:147|336:147,1,107.800003289795,10|2,2:2|2:2,0:0:0:0:
432,310,177976,6,0,B|306:283|306:283|288:239|324:204,2,196,4|10|0,1:1|2:2|0:0,0:0:0:0:
399,182,178708,1,0,1:1:0:0:
504,130,178854,2,0,P|492:186|481:249,1,98,8|0,2:2|0:0,0:0:0:0:
327,143,179147,6,0,P|318:94|307:46,1,98,0|0,1:1|1:1,0:0:0:0:
504,130,179439,1,8,2:2:0:0:
399,6,179586,2,0,L|399:168,1,147
399,182,179878,1,2,1:2:0:0:
247,182,180025,2,0,P|290:142|344:151,1,98,10|2,2:2|2:2,0:0:0:0:
158,325,180317,5,6,1:1:0:0:
119,225,180464,2,0,B|167:209|188:245|181:247|208:279|256:270,1,132.299995962525,0|0,1:1|0:0,0:0:0:0:
263,267,180756,1,2,1:2:0:0:
73,345,180903,2,0,P|42:306|55:248,1,88.1999973083497,8|0,2:2|0:0,0:0:0:0:
115,130,181195,1,2,1:2:0:0:
66,60,181342,6,0,B|29:84|29:84|42:195,1,132.299995962525,2|0,2:2|0:0,0:0:0:0:
40,192,181635,1,8,2:2:0:0:
200,151,181781,2,0,P|136:135|96:124,1,88.1999973083497,2|2,1:2|2:2,0:0:0:0:
291,15,182074,5,8,2:2:0:0:
176,67,182220,1,8,2:2:0:0:
326,148,182366,5,6,2:2:0:0:
263,92,182513,1,6,2:2:0:0:
446,60,182659,6,0,B|483:84|483:84|468:197,1,147,4|0,1:1|0:0,0:0:0:0:
465,217,182952,1,0,1:1:0:0:
253,208,183098,6,0,B|220:195|237:133|297:100|349:133|341:180|328:202,1,161.700004934693,8|0,2:1|0:0,0:0:0:0:
326,244,183391,1,0,1:1:0:0:
122,358,183537,6,0,B|95:312|135:254|135:254|110:219|110:180,1,176.399994616699,8|0,2:1|0:0,0:0:0:0:
112,142,183830,1,0,1:1:0:0:
214,280,183976,5,8,2:1:0:0:
172,77,184122,1,8,2:1:0:0:
31,245,184269,1,4,2:3:0:0:
316,299,184415,1,4,2:3:0:0:
318,287,184488,1,0,0:0:0:0:
321,273,184561,1,4,2:3:0:0:
323,260,184635,1,0,0:0:0:0:
326,244,184708,6,0,P|314:166|305:86,1,147.000005607605,8|0,2:1|0:0,0:0:0:0:
31,245,185000,6,0,B|119:233|119:233|154:211|154:211|246:200,1,205.799993719483,0|0,1:1|0:0,0:0:0:0:
326,244,185293,1,8,2:1:0:0:
112,142,185439,1,8,2:2:0:0:
81,147,185513,1,8,2:2:0:0:
46,152,185586,1,8,2:2:0:0:
254,345,185732,1,4,2:3:0:0:
244,42,185878,1,4,2:3:0:0:
31,245,186025,1,2,1:1:0:0:
332,97,186317,5,0,1:1:0:0:
332,97,186391,1,0,1:1:0:0:
332,97,186464,6,0,B|389:97|436:6|436:6|367:131|386:255|455:291|554:198|472:111,1,539,10|0,2:2|0:0,0:0:0:0:
468,117,187342,6,0,P|414:132|349:146,1,117.6,2|2,2:2|2:2,0:0:0:0:
186,247,188513,2,0,P|240:232|305:218,1,117.6,2|2,2:2|2:2,0:0:0:0:
132,140,189683,6,0,P|74:127|17:111,1,117.6,2|2,2:2|2:2,0:0:0:0:
288,31,190854,1,2,2:2:0:0:
288,31,191293,5,2,2:2:0:0:
341,90,191439,1,2,2:2:0:0:
282,144,191586,1,2,2:2:0:0:
226,82,191732,1,2,2:2:0:0:
288,31,191878,1,2,2:2:0:0:
419,122,192025,6,0,B|432:91|392:58|350:63|334:102,1,117.6,2|2,2:2|2:2,0:0:0:0:
452,286,193195,2,0,B|480:297|513:257|508:215|481:206,1,117.6,2|2,2:2|2:2,0:0:0:0:
244,216,194366,6,0,B|206:213|188:240|194:239|183:262|142:268,2,117.6,2|2|2,2:2|2:2|2:2,0:0:0:0:
244,216,195537,6,0,P|252:175|254:167,1,39.2,2|0,2:2|0:0,0:0:0:0:
245,232,195830,6,0,P|253:273|258:298,1,58.7999982055665,2|2,2:2|2:2,0:0:0:0:
330,203,196122,6,0,P|338:162|345:119,1,78.4,2|0,2:2|0:0,0:0:0:0:
408,264,196415,6,0,P|415:313|424:361,1,98,2|2,2:2|2:2,0:0:0:0:
459,194,196708,6,0,P|467:149|475:116,1,78.4,4|2,1:1|2:2,0:0:0:0:
331,48,197000,2,0,P|269:65|231:71,1,78.4,2|0,1:2|0:0,0:0:0:0:
330,203,197293,2,0,P|346:141|360:105,1,78.4,2|0,1:2|0:0,0:0:0:0:
198,131,197586,2,0,P|244:176|268:206,1,78.4,2|2,1:2|2:2,0:0:0:0:
96,194,197878,6,0,P|88:149|80:116,1,78.4,0|2,1:1|2:2,0:0:0:0:
255,68,198170,2,0,P|294:59|331:48,1,78.4,2|2,1:2|2:2,0:0:0:0:
253,187,198464,2,0,P|227:158|198:131,1,78.4,0|0,1:1|0:0,0:0:0:0:
351,128,198756,2,0,P|339:165|330:203,1,78.4,2|0,1:2|0:0,0:0:0:0:
212,339,199049,6,0,P|165:321|112:313,1,78.4,2|2,1:2|2:2,0:0:0:0:
300,339,199342,6,0,P|347:321|392:313,1,88.1999973083497,2|0,1:2|0:0,0:0:0:0:
189,246,199635,6,0,P|172:198|136:151,1,98,2|0,1:2|0:0,0:0:0:0:
329,203,199927,6,0,P|346:155|385:103,1,107.800003289795,2|0,1:2|0:0,0:0:0:0:
156,66,200220,6,0,P|98:26|32:44,1,117.599996411133,2|0,1:2|0:0,0:0:0:0:
309,44,200513,6,0,P|367:4|450:28,1,127.399994168091,2|0,1:2|0:0,0:0:0:0:
272,266,200805,1,2,1:2:0:0:
144,159,200952,1,0,1:1:0:0:
144,159,201025,1,0,1:1:0:0:
144,159,201098,6,0,P|211:173|245:180,1,88.1999973083497,2|0,1:2|0:0,0:0:0:0:
248,169,201391,6,0,P|163:151|106:139,1,127.399994168091,14|0,2:1|0:0,0:0:0:0:
272,266,201683,1,0,1:1:0:0:
153,371,201830,6,0,P|176:296|193:237,1,127.399994168091,12|0,2:2|1:1,0:0:0:0:
5,313,202122,1,0,1:1:0:0:
44,159,202269,6,0,P|67:234|84:293,1,127.399994168091,14|2,2:1|1:2,0:0:0:0:
248,169,202561,1,0,1:1:0:0:
144,44,202708,6,0,P|121:101|144:159,1,127.399994168091,12|0,2:2|1:1,0:0:0:0:
251,0,203000,1,0,1:1:0:0:
368,159,203147,6,0,P|391:101|368:44,1,127.399994168091,12|0,2:1|1:1,0:0:0:0:
412,251,203439,2,0,P|389:309|412:366,1,127.399994168091,12|0,2:2|1:1,0:0:0:0:
468,197,203732,5,4,1:1:0:0:
496,283,203878,2,0,B|431:271|431:271|403:246|403:246|321:230,1,176.399994616699,0|0,1:1|1:1,0:0:0:0:
313,233,204244,1,0,1:1:0:0:
313,233,204317,2,0,B|209:266|209:266|162:242|188:191,1,176.399994616699,12|2,2:2|1:2,0:0:0:0:
325,158,204756,1,2,1:2:0:0:
242,85,204903,6,0,P|230:126|247:172,2,88.1999973083497,2|10|2,2:2|2:2|1:2,0:0:0:0:
327,21,205342,2,0,P|262:37|177:53,1,132.299995962525,2|0,2:2|0:0,0:0:0:0:
173,48,205635,1,2,1:2:0:0:
243,167,205781,2,0,P|285:155|329:146,1,88.1999973083497,2|2,2:2|1:2,0:0:0:0:
57,0,206074,6,0,L|57:191,1,176.399994616699,14|0,2:1|0:0,0:0:0:0:
58,208,206366,1,8,1:1:0:0:
173,48,206513,1,8,2:1:0:0:
312,245,206659,1,8,2:1:0:0:
149,149,206805,1,8,2:1:0:0:
327,21,206952,1,12,2:1:0:0:
188,269,207098,6,0,B|103:199|98:128|143:20|292:90|226:191,1,352.8,12|0,2:1|0:0,0:0:0:0:
231,181,208708,6,0,P|150:161|24:133,1,191.099991252137,6|0,1:1|0:0,0:0:0:0:
38,115,209000,2,0,P|126:134|173:144,1,127.399994168091,2|0,1:2|1:1,0:0:0:0:
302,224,209293,1,10,2:2:0:0:
453,80,209439,6,0,P|372:44|315:119,1,191.099991252137,2|0,1:2|0:0,0:0:0:0:
311,139,209732,1,2,1:2:0:0:
467,197,209878,2,0,P|490:132|461:70,1,127.399994168091,8|2,2:1|2:2,0:0:0:0:
377,255,210171,1,0,1:1:0:0:
476,370,210317,1,2,1:2:0:0:
297,301,210464,1,10,2:2:0:0:
467,197,210610,1,2,2:2:0:0:
379,375,210756,6,0,B|196:351|196:351|247:334|297:300,1,254.799988336182,2|10,1:2|2:2,0:0:0:0:
137,239,211195,1,2,2:2:0:0:
250,131,211342,2,0,P|275:194|241:262,1,127.399994168091,2|0,1:2|1:1,0:0:0:0:
37,187,211635,1,10,2:2:0:0:
147,0,211781,6,0,L|147:259,1,254.799988336182,2|2,1:2|1:2,0:0:0:0:
237,371,212220,1,8,2:1:0:0:
365,289,212366,1,2,1:2:0:0:
365,289,212439,1,2,2:2:0:0:
365,289,212513,2,0,P|311:245|247:252,1,127.399994168091,2|2,2:2|1:2,0:0:0:0:
38,296,212805,2,0,P|100:296|147:255,1,127.399994168091,14|2,2:2|2:2,0:0:0:0:
201,124,213098,6,0,B|51:96|51:96|-2:146|44:196,1,254.799988336182,6|10,1:1|2:2,0:0:0:0:
163,271,213537,1,2,2:2:0:0:
285,168,213683,2,0,P|272:88|262:26,1,127.399994168091,0|0,1:1|1:1,0:0:0:0:
256,247,213976,1,10,2:2:0:0:
374,0,214122,6,0,B|374:206,1,191.099991252137,2|0,1:2|0:0,0:0:0:0:
373,221,214415,1,0,1:1:0:0:
444,351,214561,2,0,P|482:289|459:234,1,127.399994168091,8|0,2:1|0:0,0:0:0:0:
256,247,214854,1,0,1:1:0:0:
365,353,215000,1,0,1:1:0:0:
163,354,215147,2,0,P|236:335|299:323,1,127.399994168091,10|2,2:2|2:2,0:0:0:0:
177,143,215439,5,12,2:1:0:0:
49,288,215586,1,0,1:1:0:0:
49,288,215732,1,0,1:1:0:0:
41,29,215878,5,12,2:2:0:0:
269,161,216025,1,0,1:1:0:0:
269,161,216171,1,0,1:1:0:0:
0,176,216317,5,14,2:1:0:0:
317,9,216464,6,0,B|301:72|295:121|295:121|258:146|258:146|251:197|229:259,1,274.399991625977,6|0,1:1|1:1,0:0:0:0:
181,37,216903,1,8,2:2:0:0:
346,231,217049,1,8,2:2:0:0:
346,231,217122,1,8,2:2:0:0:
346,231,217195,6,0,P|411:213|482:201,1,137.199995812988,8|10,2:2|2:2,0:0:0:0:
358,333,217415,1,8,2:2:0:0:
358,333,217488,6,0,P|325:325|290:316,1,68.5999979064942,6|4,2:2|2:3,0:0:0:0:
202,145,217635,2,0,P|236:152|272:162,1,68.5999979064942,6|4,2:2|2:3,0:0:0:0:
176,355,217781,6,0,B|62:326|62:326|38:291|68:243,1,191.099991252137,6|0,1:1|0:0,0:0:0:0:
78,234,218074,1,10,2:2:0:0:
202,145,218220,1,2,2:2:0:0:
90,30,218366,2,0,P|104:96|118:165,1,127.399994168091,0|2,1:1|1:2,0:0:0:0:
209,0,218659,1,10,2:2:0:0:
357,122,218805,6,0,P|305:73|239:76,1,127.399994168091,2|0,1:2|0:0,0:0:0:0:
383,241,219098,2,0,P|445:235|488:190,1,127.399994168091,2|10,1:2|2:2,0:0:0:0:
260,205,219391,2,0,B|241:272|241:272|276:329,1,127.399994168091,2|0,2:2|1:1,0:0:0:0:
357,122,219683,1,2,1:2:0:0:
172,237,219830,2,0,P|86:220|35:204,1,127.399994168091,10|0,2:2|0:0,0:0:0:0:
252,71,220122,5,2,1:2:0:0:
370,224,220269,1,2,2:2:0:0:
185,150,220415,1,10,2:2:0:0:
357,34,220561,1,2,2:2:0:0:
185,150,220708,1,2,1:2:0:0:
425,118,220854,1,2,1:2:0:0:
196,3,221000,1,10,2:2:0:0:
247,259,221147,6,0,P|313:185|417:229,1,191.099991252137,2|0,1:2|0:0,0:0:0:0:
420,223,221439,1,2,1:2:0:0:
281,110,221586,1,8,2:1:0:0:
420,223,221732,1,2,1:2:0:0:
260,321,221878,1,2,1:2:0:0:
260,321,221952,1,0,1:2:0:0:
260,321,222025,2,0,P|252:284|243:243,1,63.6999970840455,0|0,1:1|1:1,0:0:0:0:
420,2,222171,6,0,L|420:226,1,220.500008411408,14|0,2:1|0:0,0:0:0:0:
447,251,222464,6,0,B|386:204|302:262|333:276|282:334|168:283,1,274.399991625977,6|8,1:1|2:1,0:0:0:0:
91,107,222903,1,2,2:2:0:0:
232,210,223049,1,8,2:1:0:0:
5,233,223195,1,0,1:1:0:0:
227,100,223342,1,10,2:2:0:0:
123,325,223488,1,2,1:2:0:0:
0,42,223635,6,0,B|106:57|106:57|149:99|149:99|271:116,1,274.399991625977,12|8,2:1|2:1,0:0:0:0:
386,13,224074,1,2,1:2:0:0:
458,160,224220,2,0,P|409:113|333:127,1,137.199995812988,10|0,2:2|1:1,0:0:0:0:
229,216,224513,2,0,P|277:262|354:249,1,137.199995812988,10|2,2:2|1:2,0:0:0:0:
129,75,224805,5,4,1:1:0:0:
211,53,224952,2,0,P|138:72|122:77,1,68.5999979064942,2|0,1:2|0:0,0:0:0:0:
265,123,225244,1,0,1:1:0:0:
265,123,225317,1,0,1:1:0:0:
265,123,225391,2,0,P|298:113|331:105,1,68.5999979064942,8|0,2:1|0:0,0:0:0:0:
401,148,225683,1,0,1:1:0:0:
504,104,225830,6,0,P|468:90|402:169,1,137.199995812988,0|8,1:1|2:1,0:0:0:0:
512,253,226269,1,0,1:1:0:0:
372,239,226415,1,6,2:2:0:0:
372,239,226488,1,4,2:3:0:0:
372,239,226561,2,0,P|418:227|450:220,1,68.5999979064942,10|6,2:2|2:2,0:0:0:0:
443,341,226854,2,0,P|409:334|376:325,1,68.5999979064942,6|6,2:2|2:2,0:0:0:0:
265,123,227147,5,4,1:1:0:0:
160,297,227293,1,8,2:2:0:0:
160,297,227366,1,8,2:2:0:0:
160,297,227439,1,10,2:2:0:0:
11,163,227586,6,0,B|62:167|87:143|77:142|112:118|155:130,1,147.000005607605,2|0,1:2|0:0,0:0:0:0:
240,330,227878,6,0,B|218:284|185:274|189:283|151:265|139:222,1,147.000005607605,2|0,1:2|2:2,0:0:0:0:
273,49,228171,6,0,B|244:91|252:125|258:117|261:159|230:190,1,147.000005607605,6|0,2:2|0:0,0:0:0:0:
233,186,229488,6,0,P|168:182|214:108,1,176.399994616699,4|2,1:1|1:2,0:0:0:0:
290,47,229927,1,2,0:0:0:0:
372,142,230073,2,0,P|313:130|271:121,1,88.1999973083497,2|0,1:2|0:0,0:0:0:0:
422,211,230366,2,0,P|481:199|523:190,1,88.1999973083497,2|2,1:2|0:0,0:0:0:0:
343,248,230658,5,0,1:1:0:0:
418,323,230805,1,2,0:0:0:0:
343,248,230952,2,0,P|300:257|257:266,1,88.1999973083497,2|0,1:2|0:0,0:0:0:0:
208,359,231244,2,0,P|251:350|294:341,1,88.1999973083497,2|2,1:2|0:0,0:0:0:0:
222,199,231537,2,0,P|179:208|136:217,1,88.1999973083497,2|0,1:2|0:0,0:0:0:0:
44,270,231829,6,0,P|-4:229|34:135,1,176.399994616699,2|0,1:2|1:1,0:0:0:0:
135,216,232268,1,2,0:0:0:0:
128,49,232415,2,0,P|119:98|110:141,1,88.1999973083497,2|0,1:2|0:0,0:0:0:0:
222,199,232708,2,0,P|231:150|240:107,1,88.1999973083497,2|2,1:2|0:0,0:0:0:0:
313,37,233000,5,0,1:1:0:0:
238,112,233146,1,2,2:2:0:0:
388,71,233293,1,2,1:2:0:0:
236,0,233439,1,2,2:2:0:0:
321,178,233585,2,0,P|383:158|415:149,1,88.1999973083497,0|2,1:1|2:2,0:0:0:0:
472,44,233878,2,0,P|410:64|378:73,1,88.1999973083497,2|2,1:2|2:2,0:0:0:0:
321,178,234171,6,0,P|226:170|242:105,1,176.399994616699,2|2,1:2|1:2,0:0:0:0:
313,37,234610,1,2,2:2:0:0:
233,113,234756,2,0,P|190:102|147:92,1,88.1999973083497,2|0,1:2|0:0,0:0:0:0:
56,196,235049,2,0,P|99:185|142:175,1,88.1999973083497,2|2,1:2|2:2,0:0:0:0:
219,246,235341,5,0,1:1:0:0:
143,320,235488,1,2,2:2:0:0:
313,353,235634,2,0,P|271:340|230:324,1,88.1999973083497,2|2,1:2|2:2,0:0:0:0:
398,311,235927,2,0,P|440:324|481:340,1,88.1999973083497,2|2,1:2|2:2,0:0:0:0:
323,260,236219,2,0,P|308:214|322:175,1,88.1999973083497,2|0,1:2|0:0,0:0:0:0:
419,140,236512,6,0,P|330:151|317:74,1,176.399994616699,2|0,1:2|1:1,0:0:0:0:
241,3,236951,1,2,2:2:0:0:
157,67,237097,2,0,P|166:116|172:160,1,88.1999973083497,2|0,1:2|0:0,0:0:0:0:
256,218,237391,2,0,P|262:174|270:131,1,88.1999973083497,2|2,1:2|2:2,0:0:0:0:
169,252,237683,5,0,1:1:0:0:
260,349,237829,1,2,2:2:0:0:
260,349,237902,1,2,2:2:0:0:
260,349,237976,1,2,1:2:0:0:
102,310,238122,1,2,2:2:0:0:
256,218,238268,2,0,P|313:232|354:241,1,88.1999973083497,2|2,1:2|2:2,0:0:0:0:
179,365,238561,6,0,P|122:351|52:338,1,117.599996411133,2|0,1:2|0:0,0:0:0:0:
5,201,238854,6,0,B|69:211|69:211|91:234|91:234|169:252,1,176.399994616699,6|0,1:1|1:1,0:0:0:0:
257,193,239293,1,0,0:0:0:0:
177,265,239439,2,0,B|99:247|99:247|77:224|77:224|14:213,1,176.399994616699,2|0,1:2|1:1,0:0:0:0:
19,106,239878,1,2,2:2:0:0:
114,61,240024,6,0,P|100:123|92:151,1,88.1999973083497,0|0,1:1|0:0,0:0:0:0:
259,22,240317,2,0,P|216:10|173:1,1,88.1999973083497,2|0,1:2|0:0,0:0:0:0:
313,134,240610,2,0,P|322:91|333:48,1,88.1999973083497,0|2,1:1|2:2,0:0:0:0:
171,171,240903,2,0,P|214:180|257:192,1,88.1999973083497,0|0,1:1|0:0,0:0:0:0:
359,215,241195,6,0,B|303:200|270:246|283:246|262:282|179:269,2,176.399994616699,2|0|0,1:2|1:1|1:1,0:0:0:0:
446,275,241927,1,0,0:0:0:0:
357,332,242073,1,2,1:2:0:0:
446,275,242219,6,0,P|453:228|461:181,1,88.1999973083497,2|0,2:2|1:1,0:0:0:0:
373,124,242513,2,0,P|330:131|286:138,1,88.1999973083497,2|2,2:2|1:2,0:0:0:0:
265,241,242805,2,0,P|308:234|352:227,1,88.1999973083497,2|0,2:2|1:1,0:0:0:0:
203,110,243097,1,2,2:2:0:0:
125,182,243244,1,0,1:1:0:0:
103,10,243390,1,2,2:2:0:0:
103,10,243463,1,2,2:2:0:0:
103,10,243537,6,0,B|118:74|118:74|109:112|109:112|129:202,1,176.399994616699,2|0,1:1|1:1,0:0:0:0:
186,268,243976,1,0,0:0:0:0:
85,299,244122,2,0,P|97:257|106:213,1,88.1999973083497,0|0,1:1|0:0,0:0:0:0:
231,346,244415,2,0,P|188:355|145:367,1,88.1999973083497,2|2,1:2|2:2,0:0:0:0:
186,268,244708,6,0,P|229:259|272:247,1,88.1999973083497,0|0,1:1|0:0,0:0:0:0:
399,340,245000,2,0,P|357:328|313:319,1,88.1999973083497,0|0,1:1|0:0,0:0:0:0:
242,159,245293,2,0,P|284:171|328:180,1,88.1999973083497,0|0,1:1|0:0,0:0:0:0:
413,117,245586,5,2,1:2:0:0:
271,247,245732,1,2,1:2:0:0:
