osu file format v14

[General]
AudioFilename: audio.mp3
AudioLeadIn: 0
PreviewTime: 210118
Countdown: 0
SampleSet: Soft
StackLeniency: 0.7
Mode: 0
LetterboxInBreaks: 0
EpilepsyWarning: 1
WidescreenStoryboard: 0

[Editor]
Bookmarks: 10932,19862,37723,53351,60048,64513,77909,84606,86839,100234,118095,127025,133723,147118,160513,167211,169444,187304,200699,205165,210746,219676,226374,228606,233072,242002,248699,250932,255397,263909
DistanceSpacing: 0.4
BeatDivisor: 4
GridSize: 4
TimelineZoom: 2

[Metadata]
Title:Natsuhishou
TitleUnicode:夏日章
Artist:nao feat. isui
ArtistUnicode:夏央 feat. 倚水
Creator:Sarawatlism
Version:pnky's Insane
Source:
Tags:樂 raku japanese rock j-rock jrock jpop pop j-pop サマーライト summer lights [_lost_] conner c_o_n_n_e_r centrak_ amats pnky clammbon natsuhisyou
BeatmapID:4239294
BeatmapSetID:1947986

[Difficulty]
HPDrainRate:5
CircleSize:4
OverallDifficulty:8
ApproachRate:9
SliderMultiplier:1
SliderTickRate:1

[Events]
//Background and Video events
0,0,"BG.jpg",0,0
Video,-150,"VD.mp4"
//Break Periods
2,118295,126048
2,210946,219076
//Storyboard Layer 0 (Background)
//Storyboard Layer 1 (Fail)
//Storyboard Layer 2 (Pass)
//Storyboard Layer 3 (Foreground)
//Storyboard Layer 4 (Overlay)
//Storyboard Sound Samples

[TimingPoints]
886,279.06976744186,4,2,1,50,1,0
10513,-66.6666666666667,4,2,1,50,0,0
10932,-50,4,2,1,70,0,0
12118,-50,4,2,1,5,0,0
12188,-50,4,2,1,70,0,0
13792,-50,4,2,1,5,0,0
13862,-50,4,2,1,70,0,0
14908,-50,4,2,1,5,0,0
14979,-50,4,2,1,70,0,0
15606,-50,4,2,1,5,0,0
15676,-50,4,2,1,70,0,0
16583,-50,4,2,1,5,0,0
16653,-50,4,2,1,70,0,0
18257,-50,4,2,1,5,0,0
18327,-50,4,2,1,70,0,0
19304,-100,4,2,1,70,0,0
19583,-100,4,2,2,70,0,0
19722,-100,4,2,1,70,0,0
19862,-83.3333333333333,4,2,1,60,0,0
20141,-83.3333333333333,4,2,2,60,0,0
22025,-83.3333333333333,4,2,2,5,0,0
22095,-83.3333333333333,4,2,2,60,0,0
24257,-83.3333333333333,4,2,2,5,0,0
24327,-83.3333333333333,4,2,2,60,0,0
27606,-83.3333333333333,4,2,2,5,0,0
27816,-83.3333333333333,4,2,2,60,0,0
28513,-66.6666666666667,4,2,2,60,0,0
28653,-66.6666666666667,4,2,1,60,0,0
28722,-66.6666666666667,4,2,1,5,0,0
28792,-83.3333333333333,4,2,1,60,0,0
29071,-83.3333333333333,4,2,2,60,0,0
30955,-83.3333333333333,4,2,2,5,0,0
31025,-83.3333333333333,4,2,2,60,0,0
33188,-83.3333333333333,4,2,2,5,0,0
33258,-83.3333333333333,4,2,2,60,0,0
35420,-83.3333333333333,4,2,2,5,0,0
35490,-83.3333333333333,4,2,2,60,0,0
37444,-83.3333333333333,4,2,1,60,0,0
37723,-71.4285714285714,4,2,1,60,0,0
38281,-71.4285714285714,4,2,2,60,0,0
39676,-71.4285714285714,4,2,1,60,0,0
39955,-66.6666666666667,4,2,1,60,0,0
40234,-66.6666666666667,4,2,2,60,0,0
40792,-100,4,2,2,60,0,0
41351,-71.4285714285714,4,2,2,60,0,0
44281,-71.4285714285714,4,2,1,60,0,0
44979,-71.4285714285714,4,2,2,60,0,0
45188,-71.4285714285714,4,2,2,5,0,0
45258,-71.4285714285714,4,2,2,60,0,0
46373,-71.4285714285714,4,2,1,60,0,0
46513,-71.4285714285714,4,2,2,60,0,0
48606,-71.4285714285714,4,2,1,60,0,0
48885,-66.6666666666667,4,2,1,60,0,0
49164,-66.6666666666667,4,2,2,60,0,0
49723,-100,4,2,2,60,0,0
50281,-71.4285714285714,4,2,2,60,0,0
50978,-71.4285714285714,4,2,1,60,0,0
51397,-71.4285714285714,4,2,2,60,0,0
52722,-71.4285714285714,4,2,2,5,0,0
52792,-71.4285714285714,4,2,2,60,0,0
53351,-71.4285714285714,4,2,2,70,0,0
55513,-71.4285714285714,4,2,2,5,0,0
55583,-71.4285714285714,4,2,2,70,0,0
58932,-58.8235294117647,4,2,2,70,0,0
59141,-58.8235294117647,4,2,2,5,0,0
59211,-58.8235294117647,4,2,2,70,0,0
59304,-71.4285714285714,4,2,2,70,0,0
59676,-71.4285714285714,4,2,1,100,0,0
59862,-71.4285714285714,4,2,2,100,0,0
60048,-666.666666666667,4,2,2,100,0,0
61025,-666.666666666667,4,2,2,40,0,0
61862,-666.666666666667,4,2,2,100,0,0
62002,-66.6666666666667,4,2,2,100,0,0
62211,-66.6666666666667,4,2,2,5,0,0
62281,-57.1428571428571,4,2,2,100,0,0
62490,-57.1428571428571,4,2,2,5,0,0
62560,-50,4,2,2,100,0,0
62629,-50,4,2,2,5,0,0
62699,-50,4,2,2,100,0,0
62768,-50,4,2,2,5,0,0
62979,-50,4,2,2,100,0,0
63048,-50,4,2,2,5,0,0
63258,-200,4,2,2,100,0,0
63816,-50,4,2,2,100,0,0
63955,-50,4,2,1,100,0,0
64513,-57.1428571428571,4,2,1,80,0,1
65281,-57.1428571428571,4,2,1,5,0,1
65351,-57.1428571428571,4,2,1,80,0,1
65839,-57.1428571428571,4,2,1,5,0,1
65909,-57.1428571428571,4,2,1,80,0,1
68071,-57.1428571428571,4,2,1,5,0,1
68141,-57.1428571428571,4,2,1,80,0,1
68908,-57.1428571428571,4,2,1,5,0,1
68979,-57.1428571428571,4,2,1,80,0,1
71141,-57.1428571428571,4,2,1,5,0,1
71211,-57.1428571428571,4,2,1,80,0,1
71769,-100,4,2,1,80,0,1
72048,-57.1428571428571,4,2,1,80,0,1
72257,-57.1428571428571,4,2,1,5,0,1
72327,-57.1428571428571,4,2,1,80,0,1
72885,-100,4,2,1,80,0,1
73024,-100,4,2,2,80,0,1
73165,-100,4,2,1,80,0,1
73444,-100,4,2,1,80,0,0
73653,-100,4,2,1,5,0,0
73723,-57.1428571428571,4,2,1,80,0,1
73932,-57.1428571428571,4,2,1,5,0,1
74002,-57.1428571428571,4,2,1,80,0,1
74769,-57.1428571428571,4,2,1,5,0,1
74839,-57.1428571428571,4,2,1,80,0,1
77001,-57.1428571428571,4,2,1,5,0,1
77072,-57.1428571428571,4,2,1,80,0,1
77839,-57.1428571428571,4,2,1,5,0,1
77909,-57.1428571428571,4,2,1,80,0,1
82304,-57.1428571428571,4,2,1,5,0,0
82374,-57.1428571428571,4,2,1,80,0,1
84048,-100,4,2,1,80,0,1
84187,-100,4,2,2,80,0,1
84327,-100,4,2,1,80,0,1
84606,-833.333333333333,4,2,1,80,0,0
85722,-833.333333333333,4,2,1,60,0,0
86839,-100,4,2,1,60,0,0
87118,-100,4,2,2,60,0,0
89211,-100,4,2,1,60,0,0
91025,-66.6666666666667,4,2,1,60,0,0
91304,-50,4,2,1,70,0,0
92490,-50,4,2,1,5,0,0
92560,-50,4,2,1,70,0,0
94164,-50,4,2,1,5,0,0
94234,-50,4,2,1,70,0,0
95281,-50,4,2,1,5,0,0
95351,-50,4,2,1,70,0,0
95908,-50,4,2,2,70,0,0
96048,-50,4,2,1,70,0,0
96955,-50,4,2,1,5,0,0
97025,-50,4,2,1,70,0,0
98629,-50,4,2,1,5,0,0
98699,-50,4,2,1,70,0,0
99536,-50,4,2,2,70,0,0
99676,-100,4,2,1,70,0,0
100095,-100,4,2,2,70,0,0
100234,-83.3333333333333,4,2,2,60,0,0
102397,-83.3333333333333,4,2,2,5,0,0
102467,-83.3333333333333,4,2,2,60,0,0
104629,-83.3333333333333,4,2,2,5,0,0
104699,-83.3333333333333,4,2,2,60,0,0
106862,-83.3333333333333,4,2,2,5,0,0
106932,-83.3333333333333,4,2,2,60,0,0
108885,-66.6666666666667,4,2,2,60,0,0
109094,-66.6666666666667,4,2,2,5,0,0
109165,-83.3333333333333,4,2,2,60,0,0
111327,-83.3333333333333,4,2,2,5,0,0
111397,-83.3333333333333,4,2,2,60,0,0
116141,-71.4285714285714,4,2,2,60,0,0
116838,-71.4285714285714,4,2,1,60,0,0
117258,-71.4285714285714,4,2,2,60,0,0
117816,-71.4285714285714,4,2,1,60,0,0
127583,-71.4285714285714,4,2,2,60,0,0
129258,-66.6666666666667,4,2,2,60,0,0
130095,-100,4,2,2,60,0,0
130653,-71.4285714285714,4,2,2,60,0,0
131559,-71.4285714285714,4,2,1,60,0,0
131769,-71.4285714285714,4,2,2,60,0,0
132536,-71.4285714285714,4,2,2,5,0,0
132606,-71.4285714285714,4,2,2,60,0,0
133723,-71.4285714285714,4,2,2,70,0,0
135885,-71.4285714285714,4,2,2,5,0,0
135955,-71.4285714285714,4,2,2,70,0,0
139304,-58.8235294117647,4,2,2,70,0,0
139513,-58.8235294117647,4,2,2,5,0,0
139583,-58.8235294117647,4,2,2,70,0,0
139676,-71.4285714285714,4,2,2,70,0,0
140048,-71.4285714285714,4,2,1,70,0,0
140234,-71.4285714285714,4,2,2,70,0,0
140420,-666.666666666667,4,2,2,70,0,0
142374,-66.6666666666667,4,2,2,70,0,0
142583,-66.6666666666667,4,2,2,5,0,0
142653,-52.6315789473684,4,2,2,70,0,0
142862,-52.6315789473684,4,2,2,5,0,0
142932,-50,4,2,2,70,0,0
143001,-50,4,2,2,5,0,0
143072,-50,4,2,2,70,0,0
143141,-50,4,2,2,5,0,0
143351,-50,4,2,2,70,0,0
143420,-50,4,2,2,5,0,0
143630,-149.253731343284,4,2,2,70,0,0
143839,-149.253731343284,4,2,2,5,0,0
143909,-149.253731343284,4,2,2,70,0,0
144048,-66.6666666666667,4,2,2,70,0,0
146560,-66.6666666666667,4,2,1,70,0,0
147118,-57.1428571428571,4,2,1,80,0,1
147885,-57.1428571428571,4,2,1,5,0,1
147955,-57.1428571428571,4,2,1,80,0,1
148443,-57.1428571428571,4,2,1,5,0,1
148513,-57.1428571428571,4,2,1,80,0,1
150676,-57.1428571428571,4,2,1,5,0,1
150746,-57.1428571428571,4,2,1,80,0,1
151513,-57.1428571428571,4,2,1,5,0,1
151583,-57.1428571428571,4,2,1,80,0,1
153327,-57.1428571428571,4,2,1,5,0,1
153397,-57.1428571428571,4,2,1,80,0,1
153746,-57.1428571428571,4,2,1,5,0,1
153816,-57.1428571428571,4,2,1,80,0,1
154374,-100,4,2,1,80,0,1
154653,-57.1428571428571,4,2,1,80,0,1
154862,-57.1428571428571,4,2,1,5,0,1
154932,-57.1428571428571,4,2,1,80,0,1
155490,-100,4,2,1,80,0,1
155629,-100,4,2,2,80,0,1
155769,-100,4,2,1,80,0,1
156048,-57.1428571428571,4,2,1,80,0,0
156257,-57.1428571428571,4,2,1,5,0,0
156327,-57.1428571428571,4,2,1,80,0,1
156536,-57.1428571428571,4,2,1,5,0,1
156606,-57.1428571428571,4,2,1,80,0,1
157374,-57.1428571428571,4,2,1,5,0,1
157444,-57.1428571428571,4,2,1,80,0,1
159606,-57.1428571428571,4,2,1,5,0,1
159676,-57.1428571428571,4,2,1,80,0,1
160443,-57.1428571428571,4,2,1,5,0,1
160513,-57.1428571428571,4,2,1,80,0,1
164909,-57.1428571428571,4,2,1,5,0,0
164979,-57.1428571428571,4,2,1,80,0,1
166653,-100,4,2,1,80,0,1
166932,-100,4,2,2,80,0,1
167071,-100,4,2,1,80,0,1
167211,-833.333333333333,4,2,1,80,0,0
168327,-833.333333333333,4,2,1,60,0,0
169444,-833.333333333333,4,2,4,40,0,0
173909,-833.333333333333,4,2,5,40,0,0
175025,-833.333333333333,4,2,4,40,0,0
176141,-833.333333333333,4,2,5,40,0,0
177258,-833.333333333333,4,2,4,40,0,0
178374,-833.333333333333,4,2,5,40,0,0
179490,-833.333333333333,4,2,4,40,0,0
180606,-833.333333333333,4,2,5,40,0,0
181723,-833.333333333333,4,2,4,40,0,0
182839,-833.333333333333,4,2,5,40,0,0
183955,-833.333333333333,4,2,4,40,0,0
185071,-833.333333333333,4,2,5,40,0,0
186188,-833.333333333333,4,2,4,40,0,0
187304,-76.9230769230769,4,2,1,50,0,0
200629,-76.9230769230769,4,2,1,5,0,0
200699,-83.3333333333333,4,2,1,60,0,0
200839,-83.3333333333333,4,2,1,5,0,0
200979,-83.3333333333333,4,2,1,60,0,0
201118,-83.3333333333333,4,2,1,5,0,0
201258,-83.3333333333333,4,2,1,60,0,0
201397,-83.3333333333333,4,2,1,5,0,0
201537,-83.3333333333333,4,2,1,60,0,0
201676,-83.3333333333333,4,2,1,5,0,0
201816,-83.3333333333333,4,2,1,60,0,0
201955,-83.3333333333333,4,2,1,5,0,0
202095,-83.3333333333333,4,2,1,60,0,0
202374,-83.3333333333333,4,2,1,60,0,0
202513,-83.3333333333333,4,2,1,5,0,0
202653,-83.3333333333333,4,2,1,60,0,0
202792,-83.3333333333333,4,2,1,5,0,0
202932,-83.3333333333333,4,2,1,60,0,0
203072,-83.3333333333333,4,2,1,5,0,0
203211,-83.3333333333333,4,2,1,60,0,0
203490,-83.3333333333333,4,2,1,60,0,0
203630,-83.3333333333333,4,2,1,5,0,0
203769,-83.3333333333333,4,2,1,60,0,0
204048,-83.3333333333333,4,2,1,60,0,0
204188,-83.3333333333333,4,2,1,5,0,0
204327,-83.3333333333333,4,2,1,60,0,0
204606,-83.3333333333333,4,2,1,60,0,0
204746,-83.3333333333333,4,2,1,5,0,0
204885,-83.3333333333333,4,2,1,60,0,0
205025,-83.3333333333333,4,2,1,5,0,0
205165,-57.1428571428571,4,2,1,70,0,0
206839,-57.1428571428571,4,2,2,70,0,0
206908,-57.1428571428571,4,2,1,70,0,0
207327,-57.1428571428571,4,2,1,5,0,0
207397,-57.1428571428571,4,2,1,70,0,0
207816,-80,4,2,1,70,0,0
208025,-80,4,2,1,5,0,0
208095,-80,4,2,1,70,0,0
208374,-100,4,2,1,70,0,0
210746,-100,4,2,1,40,0,0
219676,-100,4,2,1,60,0,0
224350,-100,4,2,1,5,0,0
224420,-83.3333333333333,4,2,2,60,0,0
224629,-83.3333333333333,4,2,2,5,0,0
224699,-71.4285714285714,4,2,2,60,0,0
224908,-71.4285714285714,4,2,2,5,0,0
224979,-62.5,4,2,2,60,0,0
225188,-62.5,4,2,2,5,0,0
225258,-83.3333333333333,4,2,2,60,0,0
225467,-83.3333333333333,4,2,2,5,0,0
225537,-100,4,2,2,60,0,0
225746,-100,4,2,2,5,0,0
225816,-76.9230769230769,4,2,2,60,0,0
226374,-250,4,2,2,30,0,0
228606,-250,4,2,2,60,0,0
230002,-250,4,2,1,60,0,0
230188,-250,4,2,2,60,0,0
230281,-66.6666666666667,4,2,2,60,0,0
230839,-66.6666666666667,4,2,2,70,0,0
232885,-66.6666666666667,4,2,1,70,0,0
233072,-48.780487804878,4,2,1,80,0,1
233630,-57.1428571428571,4,2,1,80,0,1
234397,-57.1428571428571,4,2,1,5,0,1
234467,-57.1428571428571,4,2,1,80,0,1
234955,-57.1428571428571,4,2,1,5,0,1
235025,-57.1428571428571,4,2,1,80,0,1
236350,-57.1428571428571,4,2,1,5,0,1
236420,-57.1428571428571,4,2,1,80,0,1
237397,-200,4,2,1,80,0,1
237537,-200,4,2,1,80,0,0
237745,-200,4,2,1,5,0,0
237816,-57.1428571428571,4,2,1,80,0,1
238025,-57.1428571428571,4,2,1,5,0,1
238095,-57.1428571428571,4,2,1,80,0,1
238862,-57.1428571428571,4,2,1,5,0,1
238932,-57.1428571428571,4,2,1,80,0,1
241094,-57.1428571428571,4,2,1,5,0,1
241165,-57.1428571428571,4,2,1,80,0,1
241932,-57.1428571428571,4,2,1,5,0,1
242002,-57.1428571428571,4,2,1,80,0,1
243816,-100,4,2,1,80,0,1
243955,-100,4,2,2,80,0,1
244095,-100,4,2,1,80,0,1
244234,-57.1428571428571,4,2,1,80,0,1
246048,-57.1428571428571,4,2,2,80,0,1
246188,-57.1428571428571,4,2,1,80,0,1
246397,-57.1428571428571,4,2,1,80,0,0
246467,-57.1428571428571,4,2,1,80,0,1
248141,-57.1428571428571,4,2,2,80,0,1
248281,-57.1428571428571,4,2,1,80,0,1
248420,-100,4,2,1,80,0,1
248699,-833.333333333333,4,2,1,80,0,0
249815,-833.333333333333,4,2,1,60,0,0
250932,-100,4,2,1,60,0,0
251211,-100,4,2,2,60,0,0
253304,-100,4,2,1,60,0,0
254281,-62.5,4,2,1,60,0,0
255397,-50,4,2,1,70,0,0
256583,-50,4,2,1,5,0,0
256653,-50,4,2,1,70,0,0
258257,-50,4,2,1,5,0,0
258327,-50,4,2,1,70,0,0
259374,-50,4,2,1,5,0,0
259444,-50,4,2,1,70,0,0
260001,-50,4,2,2,70,0,0
260141,-50,4,2,1,70,0,0
261048,-50,4,2,1,5,0,0
261118,-50,4,2,1,70,0,0
262722,-50,4,2,1,5,0,0
262792,-50,4,2,1,70,0,0
263630,-50,4,2,2,70,0,0
263769,-50,4,2,1,70,0,0

[Colours]
Combo1 : 172,117,132
Combo2 : 128,128,192
Combo3 : 0,102,204
Combo4 : 245,173,107

[HitObjects]
72,202,10234,5,10,2:0:0:0:
22,142,10513,6,0,P|8:155|-1:172,1,37.5000014305115,2|8,1:2|2:0,2:0:0:0:
122,262,10653,2,0,P|136:249|145:232,3,37.5000014305115,10|0|10|0,2:0|2:0|2:0|2:0,2:0:0:0:
42,308,10932,6,0,L|254:269,1,200,6|8,1:2|2:0,2:0:0:0:
238,271,11351,1,2,2:0:0:0:
304,380,11490,2,0,L|197:360,2,100,2|2|8,1:2|1:2|2:0,2:0:0:0:
416,283,11909,6,0,B|444:236|399:190|399:190|353:217,1,150,2|0,1:2|2:0,2:0:0:0:
278,200,12188,2,0,P|235:166|248:110,1,100,2|10,1:2|2:0,2:0:0:0:
306,82,12467,1,2,2:0:0:0:
154,121,12606,2,0,P|161:66|216:50,1,100,2|2,1:2|1:2,2:0:0:0:
306,82,12885,1,10,2:0:0:0:
306,82,13025,1,2,2:0:0:0:
89,176,13165,6,0,P|180:199|237:124,1,200,2|10,1:2|2:0,2:0:0:0:
57,167,13583,2,0,B|14:196|19:252|19:252|62:223,1,150,2|0,1:2|2:0,2:0:0:0:
118,279,13862,2,0,P|158:331|147:368,1,100,2|10,1:2|2:0,2:0:0:0:
42,357,14141,6,0,L|253:320,1,200,2|2,1:2|1:2,2:0:0:0:
434,287,14560,1,10,2:0:0:0:
240,190,14699,2,0,P|285:247|358:246,1,150,14|0,2:0|2:0,2:0:0:0:
434,287,14979,2,0,L|486:277,2,50,10|10|10,2:0|2:0|2:0,2:0:0:0:
239,323,15258,1,10,2:0:0:0:
321,173,15397,6,0,B|360:132|333:69|333:69|303:90|308:113,1,150,6|0,1:2|2:0,2:0:0:0:
240,190,15676,2,0,P|264:233|309:254,1,100,8|2,2:0|2:0,2:0:0:0:
196,112,15955,1,2,1:2:0:0:
196,112,16095,2,0,P|205:62|240:29,1,100,2|8,1:2|2:0,2:0:0:0:
170,246,16374,6,0,B|130:291|72:263|72:263|59:219,1,150,2|0,1:2|2:0,2:0:0:0:
23,204,16653,2,0,B|61:333,2,100,2|10|2,1:2|2:0|2:0,2:0:0:0:
115,59,17072,1,2,1:2:0:0:
28,85,17211,2,0,P|62:134|136:148,1,100,2|8,1:2|2:0,2:0:0:0:
49,1,17490,1,2,2:0:0:0:
278,13,17630,6,0,P|184:-7|115:59,1,200,6|10,1:2|2:0,2:0:0:0:
274,180,18048,2,0,B|217:184|194:134|194:134|216:73,1,150,6|0,1:2|2:0,2:0:0:0:
324,111,18327,2,0,P|359:161|355:208,1,100,2|10,1:2|2:0,2:0:0:0:
269,368,18606,6,0,P|237:310|341:309,1,200,6|0,1:2|1:0,2:0:0:0:
163,370,19025,1,12,2:0:0:0:
151,365,19094,1,8,2:0:0:0:
139,361,19164,1,8,2:0:0:0:
127,359,19234,1,8,2:0:0:0:
114,357,19304,2,0,P|82:372|56:377,1,50,8|4,2:0|2:3,2:0:0:0:
0,279,19583,2,0,P|32:294|58:299,1,50,6|10,2:3|2:3,2:0:0:0:
142,264,19862,6,0,P|169:216|140:154,1,119.999996337891,6|8,1:2|2:0,2:0:0:0:
123,151,20420,1,2,1:2:0:0:
19,91,20560,2,0,L|85:79,1,59.9999981689454,0|0,1:0|2:0,2:0:0:0:
123,151,20839,2,0,L|243:129,1,119.999996337891,8|0,2:0|1:0,2:0:0:0:
241,129,21258,1,8,2:0:0:0:
409,46,21537,2,0,L|398:107,1,59.9999981689454,2|2,2:0|1:2,2:0:0:0:
461,196,21816,2,0,B|470:217|495:221|495:221|496:192|467:176,1,89.9999972534181,8|0,2:0|2:0,2:0:0:0:
463,174,22095,6,0,P|408:204|423:269,1,119.999996337891,2|8,1:2|2:0,2:0:0:0:
429,269,22653,1,0,1:0:0:0:
344,357,22792,2,0,P|333:318|344:292,1,59.9999981689454,0|2,1:0|2:0,2:0:0:0:
264,256,23072,2,0,P|248:212|173:224,1,119.999996337891,10|0,2:0|1:0,2:0:0:0:
79,327,23490,2,0,P|130:297|190:292,1,119.999996337891,10|2,2:0|1:2,2:0:0:0:
190,292,23909,1,0,1:0:0:0:
101,217,24048,2,0,P|111:171|146:140,1,89.9999972534181,10|0,2:0|2:0,2:0:0:0:
147,124,24327,6,0,P|127:98|40:108,1,119.999996337891,0|10,1:0|2:0,2:0:0:0:
34,122,24885,1,2,1:2:0:0:
182,212,25025,2,0,P|213:206|246:197,1,59.9999981689454,0|0,1:0|2:0,2:0:0:0:
405,80,25304,2,0,B|385:53|385:53|375:110|310:124,1,119.999996337891,10|0,2:0|1:0,2:0:0:0:
252,117,25723,2,0,P|303:141|323:215,1,119.999996337891,10|2,2:0|2:0,2:0:0:0:
243,211,26141,2,0,P|258:251|278:266,1,59.9999981689454,0|10,1:0|2:0,2:0:0:0:
433,318,26560,6,0,P|448:278|468:263,1,59.9999981689454,0|0,1:0|2:0,2:0:0:0:
512,329,26839,1,10,2:0:0:0:
381,377,26979,2,0,P|369:366|360:353,2,29.9999990844727,10|2|2,2:0|2:0|1:2,2:0:0:0:
433,318,27258,1,2,1:2:0:0:
512,329,27397,1,2,2:0:0:0:
381,377,27537,6,0,P|369:366|360:353,1,29.9999990844727,10|0,2:0|2:0,2:0:0:0:
243,211,27816,1,2,1:2:0:0:
243,211,27955,2,0,P|231:222|222:235,1,29.9999990844727,10|0,2:0|2:0,2:0:0:0:
178,297,28095,2,0,P|152:272|147:237,1,59.9999981689454,2|2,2:0|1:2,2:0:0:0:
115,145,28374,5,8,2:0:0:0:
41,300,28513,2,0,P|41:234|103:217,1,112.500004291535,6|0,2:3|2:0,2:0:0:0:
115,145,28792,6,0,P|132:110|59:96,2,119.999996337891,6|8|2,1:2|2:0|1:2,2:0:0:0:
55,83,29490,2,0,P|94:61|121:67,1,59.9999981689454,0|0,1:0|2:0,2:0:0:0:
210,142,29769,2,0,B|247:172|302:166|302:166|323:128,1,119.999996337891,8|0,2:0|1:0,2:0:0:0:
381,92,30188,2,0,P|374:57|344:34,1,59.9999981689454,8|0,2:0|2:0,2:0:0:0:
394,175,30467,2,0,P|427:186|462:171,1,59.9999981689454,2|2,2:0|1:2,2:0:0:0:
340,242,30746,2,0,P|300:286|309:338,1,89.9999972534181,8|0,2:0|2:0,2:0:0:0:
310,341,31025,6,0,P|363:369|417:340,2,119.999996337891,2|8|0,1:2|2:0|1:0,2:0:0:0:
228,246,31723,1,0,1:0:0:0:
202,259,32002,2,0,L|63:239,1,119.999996337891,10|0,2:0|1:0,2:0:0:0:
126,164,32420,2,0,L|56:154,1,59.9999981689454,10|2,2:0|2:0,2:0:0:0:
11,285,32699,1,2,1:2:0:0:
11,285,32839,1,0,1:0:0:0:
84,242,32979,2,0,P|117:270|128:313,1,89.9999972534181,10|0,2:0|2:0,2:0:0:0:
120,342,33258,6,0,B|140:317|185:319|185:319|210:347|240:351,2,119.999996337891,0|10|2,1:0|2:0|1:2,2:0:0:0:
256,272,33955,2,0,P|284:256|317:252,1,59.9999981689454,0|0,1:0|2:0,2:0:0:0:
366,369,34234,2,0,P|417:369|452:304,1,119.999996337891,10|0,2:0|1:0,2:0:0:0:
512,254,34653,2,0,P|496:226|466:205,1,59.9999981689454,10|2,2:0|2:0,2:0:0:0:
364,186,34932,2,0,P|393:173|417:145,1,59.9999981689454,2|0,2:0|1:0,2:0:0:0:
494,9,35211,2,0,B|496:48|463:65|463:65|423:45,1,89.9999972534181,10|0,2:0|2:0,2:0:0:0:
415,43,35490,6,0,P|354:57|354:121,1,119.999996337891,0|10,1:0|2:0,2:0:0:0:
279,18,35909,2,0,P|249:4|213:2,1,59.9999981689454,8|0,2:0|1:0,2:0:0:0:
162,123,36188,2,0,P|192:137|228:139,1,59.9999981689454,0|0,1:0|2:0,2:0:0:0:
140,44,36467,6,0,P|89:76|80:146,1,119.999996337891,10|0,2:0|1:0,2:0:0:0:
170,209,36885,2,0,P|176:180|173:150,1,59.9999981689454,10|10,2:0|2:0,2:0:0:0:
168,136,37095,1,8,2:0:0:0:
162,123,37164,1,8,2:0:0:0:
45,213,37304,1,4,2:3:0:0:
45,213,37444,2,0,P|45:242|54:271,1,59.9999981689454,10|6,2:3|2:3,2:0:0:0:
99,363,37723,6,0,P|144:306|273:314,1,209.999993591309,6|2,1:2|1:2,2:0:0:0:
331,252,38281,2,0,P|359:282|371:314,1,69.9999978637696,10|0,2:0|2:0,2:0:0:0:
442,384,38560,2,0,L|473:239,1,139.999995727539,2|0,1:2|2:0,2:0:0:0:
397,138,38979,2,0,B|368:110|368:110|356:141|375:185|415:201,1,139.999995727539,8|2,2:0|1:2,2:0:0:0:
378,35,39397,2,0,P|331:41|307:65,1,69.9999978637696,10|6,2:0|2:3,2:0:0:0:
290,183,39676,2,0,P|256:178|228:157,1,69.9999978637696,10|6,2:3|2:3,2:0:0:0:
181,57,39955,6,0,B|176:17|213:-6|213:-6|234:31|204:75,1,150.000005722046,6|10,1:2|2:0,2:0:0:0:
118,147,40374,6,0,B|85:170|46:150|46:150|69:113|121:117,1,150.000005722046,6|10,1:2|2:0,2:0:0:0:
228,157,40792,6,0,B|264:173|266:217|266:217|223:215|200:168,1,150.000005722046,6|8,1:2|2:0,2:0:0:0:
138,233,41351,6,0,P|129:270|139:303,1,69.9999978637696,2|2,1:2|2:0,2:0:0:0:
214,332,41630,1,10,2:0:0:0:
76,357,41769,2,0,L|226:330,1,139.999995727539,2|6,1:2|2:3,2:0:0:0:
227,342,42118,1,4,2:3:0:0:
241,352,42188,6,0,L|391:325,1,139.999995727539,6|2,1:2|2:0,2:0:0:0:
378,327,42606,1,2,1:2:0:0:
361,240,42746,2,0,L|429:252,1,69.9999978637696,8|2,2:0|2:0,2:0:0:0:
227,172,43025,2,0,P|283:180|343:61,1,209.999993591309,6|8,1:2|2:0,2:0:0:0:
267,97,43583,2,0,P|258:50|275:12,1,69.9999978637696,2|2,1:2|2:0,2:0:0:0:
343,61,43862,1,10,2:0:0:0:
227,172,44002,2,0,P|200:150|186:118,2,69.9999978637696,0|6|4,1:0|2:3|2:3,2:0:0:0:
247,253,44420,6,0,B|170:265|197:219|111:236,1,139.999995727539,4|2,1:2|2:0,2:0:0:0:
16,292,44839,1,2,1:2:0:0:
16,292,44979,2,0,B|8:333|49:355|49:355|91:336,1,104.999996795654,10|0,2:0|2:0,2:0:0:0:
141,382,45258,2,0,P|152:345|144:310,1,69.9999978637696,2|2,1:2|1:2,2:0:0:0:
92,137,45676,6,0,L|81:66,1,69.9999978637696,12|2,2:0|2:0,2:0:0:0:
18,175,45955,2,0,L|12:139,2,34.9999989318848,6|4|2,2:3|2:3|1:2,2:0:0:0:
247,253,46234,6,0,L|258:182,1,69.9999978637696,12|4,2:0|2:3,2:0:0:0:
321,291,46513,2,0,L|326:255,1,34.9999989318848,4|4,2:3|2:3,2:0:0:0:
327,248,46653,6,0,P|377:243|388:376,1,209.999993591309,6|2,1:2|1:2,2:0:0:0:
247,253,47211,2,0,L|258:182,1,69.9999978637696,14|0,2:0|2:0,2:0:0:0:
336,143,47490,1,2,1:2:0:0:
336,143,47630,2,0,P|313:111|281:97,1,69.9999978637696,2|0,1:2|2:0,2:0:0:0:
93,174,47909,2,0,B|129:192|173:161|173:161|183:133|204:117,1,139.999995727539,8|2,2:0|1:2,2:0:0:0:
51,103,48327,2,0,P|24:130|13:167,1,69.9999978637696,10|6,2:0|2:3,2:0:0:0:
133,41,48606,2,0,P|98:23|60:24,1,69.9999978637696,10|4,2:3|2:3,2:0:0:0:
219,138,48885,6,0,B|279:149|317:97|317:97|277:79,1,150.000005722046,6|10,1:2|2:0,2:0:0:0:
434,0,49304,6,0,B|393:46|419:105|419:105|455:80,1,150.000005722046,6|10,1:2|2:0,2:0:0:0:
446,255,49723,6,0,B|426:196|361:189|361:189|365:233,1,150.000005722046,6|8,1:2|2:0,2:0:0:0:
281,231,50281,6,0,B|289:319,1,69.9999978637696,2|2,1:2|2:0,2:0:0:0:
364,331,50560,1,10,2:0:0:0:
211,372,50699,2,0,B|198:232,1,139.999995727539,6|6,1:2|2:3,2:0:0:0:
57,198,51118,6,0,P|80:220|125:231,1,69.9999978637696,6|0,1:2|2:0,2:0:0:0:
38,132,51397,2,0,P|38:163|62:203,1,69.9999978637696,10|2,2:0|2:0,2:0:0:0:
71,72,51676,2,0,P|49:94|38:140,1,69.9999978637696,8|2,2:0|2:0,2:0:0:0:
138,0,51955,6,0,L|353:25,1,209.999993591309,6|0,1:2|1:0,2:0:0:0:
360,116,52513,2,0,P|397:102|437:43,1,104.999996795654,10|0,2:0|2:0,2:0:0:0:
327,114,52792,6,0,L|293:110,3,34.9999989318848,10|8|10|8,1:2|2:0|2:0|2:0,2:0:0:0:
419,181,53072,2,0,L|453:185,3,34.9999989318848,10|8|8|8,1:2|2:0|2:0|2:0,2:0:0:0:
339,221,53351,6,0,B|304:261|320:314|320:314|379:348,2,139.999995727539,4|8|0,1:2|2:0|1:0,2:0:0:0:
232,292,54048,2,0,B|210:313|187:309|187:309|166:280,1,69.9999978637696,0|8,1:0|2:0,2:0:0:0:
108,234,54327,2,0,P|71:230|52:327,1,139.999995727539,0|0,1:0|1:0,2:0:0:0:
165,382,54746,1,10,2:0:0:0:
186,362,55025,2,0,L|174:280,1,69.9999978637696,2|0,1:2|1:0,2:0:0:0:
108,234,55304,2,0,P|139:154|169:138,1,104.999996795654,10|0,2:0|2:0,2:0:0:0:
192,147,55583,6,0,P|242:166|266:248,2,139.999995727539,0|8|0,1:0|2:0|1:0,2:0:0:0:
80,93,56281,2,0,P|58:49|72:12,1,69.9999978637696,0|8,1:0|2:0,2:0:0:0:
164,2,56560,2,0,L|316:-11,1,139.999995727539,0|0,1:0|1:0,2:0:0:0:
302,71,56979,2,0,B|327:80|327:80|354:80|372:59,1,69.9999978637696,10|2,2:0|2:0,2:0:0:0:
451,88,57258,2,0,P|452:44|438:15,1,69.9999978637696,2|0,1:2|1:0,2:0:0:0:
391,153,57537,2,0,P|390:197|404:226,1,69.9999978637696,10|2,2:0|2:0,2:0:0:0:
467,361,57816,6,0,B|440:333|397:342|397:342|367:372|329:369,1,139.999995727539,6|2,1:2|1:2,2:0:0:0:
230,252,58234,2,0,P|295:236|335:293,1,139.999995727539,10|0,2:0|1:0,2:0:0:0:
179,321,58653,2,0,P|147:272|148:230,1,69.9999978637696,10|0,2:0|2:0,2:0:0:0:
55,277,58932,6,0,P|104:246|111:161,1,127.50000243187,4|0,1:2|2:0,2:0:0:0:
66,121,59211,5,10,2:0:0:0:
51,136,59304,2,0,P|39:163|40:193,1,46.6666652425131,8|8,2:0|2:0,2:0:0:0:
144,102,59490,6,0,P|117:56|76:40,2,93.3333304850261,10|4|4,2:0|2:3|2:3,2:0:0:0:
215,208,60048,6,0,L|268:196,1,52.4999983978272,6|0,1:2|2:0,2:0:0:0:
342,238,61862,5,0,1:0:0:0:
342,238,61932,1,0,2:0:0:0:
342,238,62002,2,0,P|353:186|318:124,1,112.500004291535,10|0,2:0|2:0,2:0:0:0:
263,95,62281,6,0,B|306:113|306:113|404:83,1,131.250001251698,6|0,1:2|2:0,2:0:0:0:
472,13,62560,6,0,L|460:67,1,50,10|0,2:0|2:0,2:0:0:0:
506,198,62699,2,0,L|464:160,1,50,2|0,1:2|2:0,2:0:0:0:
329,134,62979,2,0,L|382:117,1,50,2|0,1:2|2:0,2:0:0:0:
472,13,63258,6,0,L|460:67,1,50,6|0,1:2|1:0,2:0:0:0:
506,198,63676,5,12,2:0:0:0:
506,198,63746,1,8,2:0:0:0:
506,198,63816,2,0,L|464:160,1,50,8|8,2:0|2:0,2:0:0:0:
329,134,63955,6,0,L|382:117,3,50,10|8|8|8,1:2|2:0|2:0|2:0,2:0:0:0:
306,212,64234,1,10,1:2:0:0:
283,202,64303,1,8,2:0:0:0:
264,185,64373,1,8,2:0:0:0:
251,164,64443,1,8,2:0:0:0:
247,139,64513,6,0,B|245:108|263:84|263:84|192:54|150:135,1,175.00000166893,6|8,1:2|2:0,2:0:0:0:
34,203,64932,1,0,2:0:0:0:
34,203,65072,2,0,B|50:163|94:165|94:165|117:195|156:194,1,131.250001251698,2|0,1:2|2:0,2:0:0:0:
161,115,65351,2,0,P|163:68|131:51,1,87.500000834465,10|0,2:0|2:0,2:0:0:0:
115,273,65630,6,0,P|163:274|219:195,1,131.250001251698,0|0,1:0|2:0,2:0:0:0:
308,230,65909,1,10,2:0:0:0:
308,230,66048,1,2,1:2:0:0:
308,230,66188,2,0,L|297:144,1,87.500000834465,2|0,2:0|1:0,2:0:0:0:
409,279,66467,2,0,L|442:199,1,87.500000834465,8|0,2:0|2:0,2:0:0:0:
291,250,66746,5,0,1:0:0:0:
291,250,66885,1,2,2:0:0:0:
291,250,67025,2,0,L|280:164,1,87.500000834465,10|2,2:0|2:0,2:0:0:0:
422,300,67304,2,0,L|455:220,1,87.500000834465,2|2,1:2|1:2,2:0:0:0:
274,270,67583,2,0,L|263:184,1,87.500000834465,10|2,2:0|2:0,2:0:0:0:
438,96,67862,6,0,B|408:137|357:124|357:124|340:99|320:88,1,131.250001251698,0|0,1:0|2:0,2:0:0:0:
301,21,68141,1,10,2:0:0:0:
301,21,68281,2,0,P|255:27|225:65,1,87.500000834465,0|0,1:0|2:0,2:0:0:0:
262,183,68560,1,0,1:0:0:0:
156,22,68699,2,0,P|152:85|199:129,1,131.250001251698,14|0,2:0|2:0,2:0:0:0:
262,183,68979,6,0,B|230:158|192:170|192:170|142:221|84:203,1,175.00000166893,6|8,1:2|2:0,2:0:0:0:
12,154,69397,1,0,2:0:0:0:
73,283,69537,2,0,B|65:322|19:342|19:342|1:289|44:252,1,175.00000166893,2|10,1:2|2:0,2:0:0:0:
159,285,69955,6,0,P|217:279|274:371,1,175.00000166893,2|2,2:0|2:0,2:0:0:0:
136,347,70374,1,10,2:0:0:0:
136,347,70513,2,0,P|171:308|214:307,1,87.500000834465,0|0,1:0|2:0,2:0:0:0:
203,304,70792,1,0,1:0:0:0:
365,370,70932,2,0,B|424:358|425:297|425:297|405:309|403:331,1,131.250001251698,10|0,2:0|2:0,2:0:0:0:
512,337,71211,6,0,P|456:295|467:185,1,175.00000166893,6|2,1:2|2:0,2:0:0:0:
323,211,71630,1,10,2:0:0:0:
323,211,71769,2,0,P|340:228|362:240,1,50,6|4,2:3|2:3,2:0:0:0:
427,77,72048,6,0,P|333:85|296:131,1,131.250001251698,6|0,1:2|2:0,2:0:0:0:
303,125,72327,1,0,1:0:0:0:
226,57,72467,5,8,2:0:0:0:
226,78,72536,1,8,2:0:0:0:
222,100,72606,1,8,2:0:0:0:
213,120,72676,1,8,2:0:0:0:
200,137,72746,1,8,2:0:0:0:
183,151,72815,1,8,2:0:0:0:
164,161,72885,2,0,P|134:152|108:148,1,50,10|4,2:0|2:3,2:0:0:0:
95,226,73165,2,0,P|125:235|151:239,1,50,10|6,2:3|2:3,2:0:0:0:
186,311,73444,6,0,P|227:282|269:278,1,75,2|0,1:2|2:0,2:0:0:0:
305,218,73723,2,0,L|286:362,1,131.250001251698,12|0,2:0|2:0,2:0:0:0:
251,277,74002,2,0,P|226:235|229:187,1,87.500000834465,2|0,1:2|1:0,2:0:0:0:
358,156,74281,2,0,P|383:198|380:246,1,87.500000834465,10|2,2:0|2:0,2:0:0:0:
207,98,74560,6,0,B|238:128|281:123|281:123|304:86|341:77,1,131.250001251698,0|0,1:0|2:0,2:0:0:0:
400,47,74839,1,10,2:0:0:0:
400,47,74979,1,2,1:2:0:0:
400,47,75118,2,0,L|495:28,1,87.500000834465,2|0,2:0|1:0,2:0:0:0:
402,149,75397,2,0,L|493:180,1,87.500000834465,8|0,2:0|2:0,2:0:0:0:
384,33,75676,5,0,1:0:0:0:
384,33,75816,1,2,2:0:0:0:
384,33,75955,2,0,L|479:14,1,87.500000834465,10|2,2:0|2:0,2:0:0:0:
387,163,76234,2,0,L|478:194,1,87.500000834465,2|0,1:2|1:0,2:0:0:0:
368,19,76513,2,0,L|463:0,1,87.500000834465,10|2,2:0|2:0,2:0:0:0:
315,87,76792,6,0,B|302:92|281:123|281:123|238:128|207:98,1,131.250001251698,2|0,1:2|2:0,2:0:0:0:
121,101,77072,1,10,2:0:0:0:
121,101,77211,2,0,P|132:52|164:25,1,87.500000834465,0|0,1:0|2:0,2:0:0:0:
245,19,77490,1,0,1:0:0:0:
164,172,77630,2,0,B|148:223|189:250|189:250|231:235,1,131.250001251698,14|0,2:0|2:0,2:0:0:0:
312,222,77909,6,0,B|348:230|363:278|343:315|343:315|307:323|287:297,1,175.00000166893,6|8,1:2|2:0,2:0:0:0:
229,236,78327,1,0,2:0:0:0:
239,380,78467,2,0,B|210:328|148:335|148:335|114:371|78:366,1,175.00000166893,2|10,1:2|2:0,2:0:0:0:
8,230,78885,1,2,1:2:0:0:
8,230,79025,2,0,P|80:210|77:286,2,175.00000166893,0|10|0,2:0|2:0|2:0,2:0:0:0:
7,256,79862,6,0,L|99:239,1,87.500000834465,10|2,2:0|2:0,2:0:0:0:
232,102,80141,2,0,B|254:81|203:37|131:101|161:185,1,175.00000166893,6|10,1:2|2:0,2:0:0:0:
299,233,80560,1,2,2:0:0:0:
299,233,80699,2,0,B|303:204|275:182|275:182|241:195,1,87.500000834465,2|2,1:2|1:2,2:0:0:0:
179,280,80979,2,0,B|175:309|203:331|203:331|237:318,1,87.500000834465,10|2,2:0|1:2,2:0:0:0:
388,232,81258,6,0,P|445:238|489:351,1,175.00000166893,2|10,2:0|2:0,2:0:0:0:
388,232,81676,1,2,2:0:0:0:
299,233,81816,2,0,P|305:176|353:141,1,87.500000834465,0|0,1:0|1:0,2:0:0:0:
399,109,82095,2,0,B|436:101|439:64|439:64|400:57|379:99,1,131.250001251698,10|0,2:0|2:0,2:0:0:0:
323,154,82374,5,6,1:2:0:0:
212,177,82513,2,0,B|160:137|176:64|176:64|217:96,1,175.00000166893,0|2,1:0|1:2,2:0:0:0:
111,202,82932,2,0,P|35:252|72:303,1,175.00000166893,14|0,2:0|1:0,2:0:0:0:
133,370,83351,1,2,1:2:0:0:
110,384,83630,5,8,2:0:0:0:
192,299,83769,2,0,P|235:300|270:325,1,87.500000834465,2|10,1:2|2:0,2:0:0:0:
282,343,83978,1,8,2:0:0:0:
286,363,84048,6,0,P|289:339|297:315,1,50,10|4,2:0|2:3,2:0:0:0:
387,199,84327,2,0,P|389:223|397:247,1,50,10|4,2:3|2:3,2:0:0:0:
500,361,84606,6,0,P|502:336|510:313,1,48.000001171875,4|2,1:2|2:0,2:0:0:0:
509,314,86839,6,0,L|405:297,2,100,6|8|0,1:2|2:0|1:0,2:0:0:0:
398,215,87537,2,0,L|447:223,2,50,0|8|0,1:0|2:0|2:0,2:0:0:0:
334,338,87955,2,0,L|236:355,1,100,2|8,1:2|2:0,2:0:0:0:
278,263,88374,2,0,L|179:279,1,100,2|0,1:2|1:0,2:0:0:0:
171,194,88792,2,0,L|122:203,1,50,10|0,2:0|2:0,2:0:0:0:
58,38,89072,5,6,1:2:0:0:
38,127,89211,1,10,2:0:0:0:
38,127,89281,1,10,2:0:0:0:
38,127,89351,2,0,L|21:181,1,50,10|10,2:0|2:0,2:0:0:0:
148,55,89630,5,6,1:2:0:0:
165,144,89769,1,10,2:0:0:0:
165,144,89839,1,10,2:0:0:0:
165,144,89909,2,0,L|171:200,1,50,10|10,2:0|2:0,2:0:0:0:
237,33,90188,5,4,1:2:0:0:
288,108,90327,1,10,2:0:0:0:
288,108,90467,2,0,L|316:156,1,50,2|10,1:2|2:0,2:0:0:0:
385,25,90746,6,0,L|430:57,1,50,8|2,2:0|1:2,2:0:0:0:
494,102,90955,1,0,1:2:0:0:
494,102,91025,2,0,L|453:72,3,37.5000014305115,10|0|10|8,2:0|2:0|2:0|2:0,2:0:0:0:
394,129,91304,6,0,P|357:178|466:244,1,200,6|8,1:2|2:0,2:0:0:0:
440,256,91723,1,2,2:0:0:0:
275,384,91862,2,0,P|276:335|306:296,2,100,2|2|8,1:2|1:2|2:0,2:0:0:0:
109,266,92281,6,0,B|146:211|206:217|206:217|241:251,1,150,2|0,1:2|2:0,2:0:0:0:
306,295,92560,2,0,P|336:256|337:206,1,100,2|10,1:2|2:0,2:0:0:0:
231,241,92839,1,2,2:0:0:0:
300,67,92979,2,0,P|270:106|269:156,1,100,2|2,1:2|1:2,2:0:0:0:
381,133,93258,1,10,2:0:0:0:
381,133,93397,1,2,2:0:0:0:
179,168,93537,6,0,B|111:176|79:121|79:121|123:104|165:142,1,200,2|10,1:2|2:0,2:0:0:0:
12,163,93955,2,0,P|2:100|73:42,1,150,2|0,1:2|2:0,2:0:0:0:
137,18,94234,2,0,B|157:47|196:49|196:49|229:27,1,100,2|10,1:2|2:0,2:0:0:0:
414,162,94513,6,0,P|332:185|244:82,1,200,2|2,1:2|1:2,2:0:0:0:
459,91,94932,1,10,2:0:0:0:
406,257,95072,2,0,B|397:314|451:339|451:339|504:318,1,150,14|0,2:0|2:0,2:0:0:0:
372,384,95351,2,0,L|312:357,2,50,10|10|10,2:0|2:0|2:0,2:0:0:0:
319,268,95630,1,10,2:0:0:0:
150,375,95769,6,0,P|205:377|240:343,1,100,6|4,2:3|2:3,2:0:0:0:
245,327,95978,1,4,2:3:0:0:
243,302,96048,1,8,2:0:0:0:
116,216,96188,5,6,1:2:0:0:
86,323,96327,1,2,2:0:0:0:
86,323,96467,2,0,P|31:325|-4:291,1,100,2|8,1:2|2:0,2:0:0:0:
136,142,96746,6,0,B|169:148|199:187|191:230|191:230|244:204,1,150,2|0,1:2|2:0,2:0:0:0:
306,196,97025,2,0,L|216:240,2,100,2|10|2,1:2|2:0|2:0,2:0:0:0:
414,137,97444,1,2,1:2:0:0:
414,137,97583,2,0,L|504:93,1,100,2|8,1:2|2:0,2:0:0:0:
329,111,97862,1,2,2:0:0:0:
503,116,98002,6,0,L|323:203,1,200,6|10,1:2|2:0,2:0:0:0:
246,85,98420,2,0,B|220:25|155:39|155:39|180:100,1,150,6|0,1:2|2:0,2:0:0:0:
136,145,98699,2,0,P|105:195|53:179,1,100,2|10,1:2|2:0,2:0:0:0:
269,266,98979,6,0,P|206:304|228:218,1,200,6|0,1:2|1:0,2:0:0:0:
310,355,99397,1,8,2:0:0:0:
321,349,99466,1,4,2:3:0:0:
332,344,99536,1,4,2:3:0:0:
344,341,99606,1,4,2:3:0:0:
356,338,99676,2,0,P|373:356|384:378,2,50,8|0|10,2:0|1:0|2:0,2:0:0:0:
447,286,100095,5,6,2:3:0:0:
447,286,100165,1,4,2:3:0:0:
447,286,100234,2,0,P|448:226|479:176,1,119.999996337891,6|8,1:2|2:0,2:0:0:0:
501,168,100792,1,2,1:2:0:0:
374,200,100932,2,0,P|337:189|310:171,1,59.9999981689454,2|0,1:2|2:0,2:0:0:0:
478,70,101211,2,0,P|428:108|360:111,1,119.999996337891,8|0,2:0|1:0,2:0:0:0:
372,113,101630,1,8,2:0:0:0:
169,24,101909,2,0,P|195:9|224:2,1,59.9999981689454,2|2,2:0|1:2,2:0:0:0:
136,97,102188,2,0,B|111:91|93:62|93:62|93:91|113:101,1,89.9999972534181,10|0,2:0|2:0,2:0:0:0:
111,107,102467,6,0,P|109:161|42:159,1,119.999996337891,2|8,1:2|2:0,2:0:0:0:
37,150,103025,1,0,1:0:0:0:
0,272,103165,2,0,P|26:258|55:251,1,59.9999981689454,0|2,1:0|2:0,2:0:0:0:
199,348,103444,2,0,B|141:365|141:365|91:319,1,119.999996337891,10|0,2:0|1:0,2:0:0:0:
234,268,103862,2,0,P|277:313|281:368,1,119.999996337891,10|2,2:0|1:2,2:0:0:0:
199,348,104281,1,2,1:2:0:0:
234,267,104420,2,0,P|242:224|227:182,1,89.9999972534181,10|0,2:0|2:0,2:0:0:0:
213,171,104699,6,0,B|236:128|278:134|278:134|306:152|335:151,1,119.999996337891,0|10,1:0|2:0,2:0:0:0:
338,152,105258,1,2,2:0:0:0:
364,21,105397,2,0,P|345:43|333:80,1,59.9999981689454,0|0,1:0|2:0,2:0:0:0:
437,272,105676,2,0,B|394:249|400:207|400:207|418:179|417:150,1,119.999996337891,10|0,2:0|1:0,2:0:0:0:
512,302,106095,2,0,P|441:332|417:385,1,119.999996337891,10|2,2:0|2:0,2:0:0:0:
345,312,106513,1,0,1:0:0:0:
345,312,106653,2,0,P|321:310|260:253,1,89.9999972534181,10|0,2:0|2:0,2:0:0:0:
259,257,106932,6,0,L|238:380,1,119.999996337891,0|10,1:0|2:0,2:0:0:0:
169,286,107351,2,0,L|107:275,1,59.9999981689454,0|0,2:0|1:0,2:0:0:0:
313,192,107630,1,0,1:0:0:0:
313,192,107909,6,0,L|323:130,1,59.9999981689454,8|0,2:0|2:0,2:0:0:0:
205,71,108188,1,0,1:0:0:0:
240,146,108327,1,8,2:0:0:0:
121,73,108467,2,0,P|93:81|69:99,1,59.9999981689454,0|0,2:0|1:0,2:0:0:0:
205,71,108746,5,8,2:0:0:0:
66,116,108885,2,0,P|55:169|84:217,1,112.500004291535,6|0,2:3|2:0,2:0:0:0:
162,208,109165,6,0,P|152:262|94:297,2,119.999996337891,6|8|2,1:2|2:0|1:2,2:0:0:0:
100,310,109862,2,0,P|139:293|164:263,1,59.9999981689454,2|0,1:2|2:0,2:0:0:0:
232,166,110141,2,0,B|279:159|320:197|320:197|353:186,1,119.999996337891,8|0,2:0|1:0,2:0:0:0:
422,181,110560,2,0,P|415:151|396:129,1,59.9999981689454,8|0,2:0|2:0,2:0:0:0:
464,270,110839,2,0,P|486:250|496:222,1,59.9999981689454,2|2,2:0|1:2,2:0:0:0:
464,353,111118,2,0,P|435:359|374:321,1,89.9999972534181,8|0,2:0|2:0,2:0:0:0:
368,307,111397,6,0,B|348:266|294:271|294:271|260:320,2,119.999996337891,2|8|0,1:2|2:0|1:0,2:0:0:0:
234,381,112095,1,0,1:0:0:0:
210,363,112374,2,0,P|184:311|193:252,1,119.999996337891,10|0,2:0|1:0,2:0:0:0:
101,232,112792,2,0,P|117:207|124:178,1,59.9999981689454,10|2,2:0|2:0,2:0:0:0:
69,113,113072,1,2,1:2:0:0:
69,113,113211,1,0,1:0:0:0:
136,48,113351,2,0,P|143:76|159:101,1,59.9999981689454,10|0,2:0|2:0,2:0:0:0:
282,102,113630,6,0,B|302:74|302:74|272:34|215:44,2,119.999996337891,0|10|2,1:0|2:0|1:2,2:0:0:0:
322,191,114327,2,0,L|364:131,1,59.9999981689454,0|0,1:0|2:0,2:0:0:0:
494,33,114606,2,0,P|493:76|423:130,1,119.999996337891,10|0,2:0|1:0,2:0:0:0:
362,14,115025,2,0,L|422:56,1,59.9999981689454,10|2,2:0|2:0,2:0:0:0:
303,192,115304,2,0,L|345:132,1,59.9999981689454,2|0,2:0|1:0,2:0:0:0:
481,251,115583,2,0,L|421:209,1,59.9999981689454,10|0,2:0|2:0,2:0:0:0:
337,142,115862,5,12,2:0:0:0:
328,285,116002,1,0,1:0:0:0:
328,285,116072,1,0,1:0:0:0:
327,285,116141,2,0,P|276:289|240:253,1,104.999996795654,0|0,1:0|1:0,2:0:0:0:
172,211,116420,6,0,B|137:192|137:192|93:199|69:248|84:285|84:285|114:281|123:249,1,209.999993591309,12|6,2:0|2:3,2:0:0:0:
124,239,116909,1,4,2:3:0:0:
123,221,116979,2,0,P|115:186|97:157,1,69.9999978637696,6|0,2:3|1:0,2:0:0:0:
0,104,117258,2,0,P|18:74|25:40,1,69.9999978637696,10|2,2:0|2:0,2:0:0:0:
25,22,117467,1,8,2:0:0:0:
22,5,117537,1,8,2:0:0:0:
137,74,117676,1,4,2:3:0:0:
137,74,117816,2,0,P|171:74|204:63,1,69.9999978637696,10|6,2:3|2:3,2:0:0:0:
290,0,118095,5,6,1:2:0:0:
94,88,127025,6,0,P|188:81|199:193,1,209.999993591309,6|2,1:2|1:2,2:0:0:0:
68,197,127583,2,0,P|101:171|136:167,1,69.9999978637696,10|0,2:0|2:0,2:0:0:0:
129,320,127862,1,2,1:2:0:0:
129,320,128002,2,0,P|122:278|137:246,1,69.9999978637696,2|0,1:2|2:0,2:0:0:0:
263,242,128281,2,0,P|273:310|235:367,1,139.999995727539,8|2,2:0|1:2,2:0:0:0:
355,333,128699,2,0,P|383:361|427:368,1,69.9999978637696,10|2,2:0|2:0,2:0:0:0:
512,262,128979,2,0,P|484:290|440:297,1,69.9999978637696,2|2,2:0|2:0,2:0:0:0:
367,166,129258,6,0,B|346:150|353:124|353:124|408:146|405:213,1,150.000005722046,6|10,1:2|2:0,2:0:0:0:
227,206,129676,6,0,B|202:216|183:197|183:197|230:160|286:196,1,150.000005722046,6|10,1:2|2:0,2:0:0:0:
191,347,130095,6,0,B|187:373|161:380|161:380|153:321|212:290,1,150.000005722046,6|8,1:2|2:0,2:0:0:0:
114,263,130653,2,0,P|88:225|83:184,1,69.9999978637696,2|2,1:2|2:0,2:0:0:0:
114,263,130932,1,10,2:0:0:0:
99,119,131072,2,0,P|32:133|0:193,1,139.999995727539,6|2,1:2|2:0,2:0:0:0:
164,177,131490,6,0,L|209:171,2,34.9999989318848,6|8|8,2:3|2:3|2:3,2:0:0:0:
99,119,131769,1,10,2:0:0:0:
265,107,131909,1,2,1:2:0:0:
265,107,132188,5,2,1:2:0:0:
265,107,132258,1,0,1:0:0:0:
265,107,132327,2,0,P|280:59|326:38,1,104.999996795654,14|0,2:0|2:0,2:0:0:0:
403,54,132606,5,0,1:0:0:0:
480,70,132746,1,12,2:0:0:0:
350,121,132885,2,0,P|358:169|380:193,1,69.9999978637696,14|0,2:0|2:0,2:0:0:0:
500,226,133165,2,0,P|492:274|470:298,1,69.9999978637696,2|8,1:2|2:0,2:0:0:0:
464,299,133374,1,8,2:0:0:0:
447,305,133444,2,0,L|408:298,3,34.9999989318848,10|8|10|8,1:2|2:0|2:0|2:0,2:0:0:0:
334,265,133723,6,0,P|285:316|212:305,2,139.999995727539,6|8|0,1:2|2:0|1:0,2:0:0:0:
185,235,134420,2,0,B|168:208|139:209|139:209|116:235,1,69.9999978637696,0|8,1:0|2:0,2:0:0:0:
61,360,134699,2,0,L|42:210,1,139.999995727539,0|0,1:0|1:0,2:0:0:0:
136,112,135118,1,10,2:0:0:0:
146,85,135397,2,0,P|121:50|86:45,1,69.9999978637696,2|0,1:2|1:0,2:0:0:0:
131,201,135676,2,0,P|202:175|213:134,1,104.999996795654,10|0,2:0|2:0,2:0:0:0:
243,137,135955,6,0,B|254:99|228:61|228:61|241:21|286:18,2,139.999995727539,2|8|0,1:2|2:0|1:0,2:0:0:0:
328,81,136653,2,0,P|370:95|390:121,1,69.9999978637696,0|8,1:0|2:0,2:0:0:0:
343,289,136932,2,0,P|308:237|330:156,1,139.999995727539,0|0,1:0|1:0,2:0:0:0:
404,196,137351,2,0,P|440:182|461:148,1,69.9999978637696,10|2,2:0|2:0,2:0:0:0:
328,81,137630,2,0,P|370:95|390:121,1,69.9999978637696,2|0,1:2|1:0,2:0:0:0:
269,204,137909,2,0,P|305:190|326:156,1,69.9999978637696,10|2,2:0|2:0,2:0:0:0:
209,303,138188,6,0,B|178:262|116:267|116:267|100:290|70:303,1,139.999995727539,6|2,1:2|1:2,2:0:0:0:
6,184,138606,2,0,B|20:166|28:138|28:138|49:234,1,139.999995727539,14|0,2:0|1:0,2:0:0:0:
49,363,139025,2,0,P|24:339|13:307,1,69.9999978637696,14|0,2:0|2:0,2:0:0:0:
125,186,139304,6,0,P|153:119|119:64,1,127.50000243187,4|0,1:2|2:0,2:0:0:0:
164,7,139583,5,10,2:0:0:0:
145,0,139676,2,0,P|105:3|88:14,1,46.6666652425131,8|8,2:0|2:0,2:0:0:0:
18,99,139862,6,0,L|132:83,2,93.3333304850261,10|4|4,2:0|2:3|2:3,2:0:0:0:
164,7,140420,6,0,L|217:17,1,52.4999983978272,6|0,1:2|2:0,2:0:0:0:
418,95,142234,5,0,1:0:0:0:
418,95,142304,1,0,1:2:0:0:
418,95,142374,2,0,P|363:87|361:138,1,112.500004291535,10|0,2:0|2:0,2:0:0:0:
423,172,142653,6,0,L|254:148,1,142.49999619484,6|0,1:2|2:0,2:0:0:0:
207,131,142932,6,0,P|205:156|215:191,1,50,10|0,2:0|2:0,2:0:0:0:
318,253,143072,2,0,P|297:238|262:229,1,50,2|0,1:2|2:0,2:0:0:0:
157,288,143351,2,0,P|179:277|204:251,1,50,2|0,1:2|2:0,2:0:0:0:
207,131,143630,6,0,P|205:156|215:191,1,50.2499976230622,6|0,1:2|2:0,2:0:0:0:
286,164,143909,5,8,2:0:0:0:
286,164,144048,2,0,P|270:174|256:187,3,37.5000014305115,8|0|0|0,2:0|2:0|1:0|1:0,2:0:0:0:
249,304,144327,6,0,P|249:285|245:267,3,37.5000014305115,8|0|0|0,2:0|1:0|1:0|1:0,2:0:0:0:
146,202,144606,6,0,P|163:211|181:216,3,37.5000014305115,14|0|2|0,2:0|2:0|1:2|2:0,2:0:0:0:
51,253,144885,6,0,P|61:189|-5:133,1,150.000005722046,14|2,2:0|1:2,2:0:0:0:
171,0,145304,2,0,P|181:64|115:120,1,150.000005722046,14|2,2:0|1:2,2:0:0:0:
58,63,145723,5,8,2:0:0:0:
146,202,145862,2,0,P|210:192|266:258,1,150.000005722046,6|10,1:2|2:0,2:0:0:0:
356,147,146281,2,0,L|410:137,3,37.5000014305115,10|8|8|8,1:2|2:0|2:0|2:0,2:0:0:0:
290,77,146560,6,0,L|236:67,3,37.5000014305115,10|8|8|8,1:2|2:0|2:0|2:0,2:0:0:0:
370,161,146839,1,10,1:2:0:0:
388,157,146908,1,8,2:0:0:0:
406,154,146978,1,8,2:0:0:0:
425,150,147048,1,8,2:0:0:0:
443,147,147118,6,0,B|492:120|476:47|428:40|428:40|428:68|458:90,1,175.00000166893,6|8,1:2|2:0,2:0:0:0:
512,206,147537,1,0,2:0:0:0:
512,206,147676,2,0,B|468:225|468:289|468:289|485:304|495:323,1,131.250001251698,2|0,1:2|2:0,2:0:0:0:
421,353,147955,2,0,P|385:383|342:360,1,87.500000834465,10|0,2:0|2:0,2:0:0:0:
201,249,148234,6,0,B|233:232|233:232|288:265|268:325,1,131.250001251698,0|0,1:0|2:0,2:0:0:0:
174,332,148513,1,10,2:0:0:0:
174,332,148653,1,2,1:2:0:0:
174,332,148792,2,0,L|81:313,1,87.500000834465,2|0,2:0|1:0,2:0:0:0:
200,222,149072,2,0,L|122:166,1,87.500000834465,8|0,2:0|2:0,2:0:0:0:
184,350,149351,5,0,1:0:0:0:
184,350,149491,1,2,2:0:0:0:
184,350,149630,2,0,L|91:331,1,87.500000834465,10|2,2:0|2:0,2:0:0:0:
217,210,149909,2,0,L|139:154,1,87.500000834465,2|0,1:2|1:0,2:0:0:0:
194,368,150188,2,0,L|101:349,1,87.500000834465,10|2,2:0|2:0,2:0:0:0:
0,264,150467,6,0,P|71:262|89:194,1,131.250001251698,2|0,1:2|2:0,2:0:0:0:
41,153,150746,1,10,2:0:0:0:
41,153,150885,2,0,B|11:129|27:94|27:94|54:81,1,87.500000834465,0|0,1:0|2:0,2:0:0:0:
181,46,151165,1,0,1:0:0:0:
41,0,151304,2,0,L|176:35,1,131.250001251698,14|0,2:0|2:0,2:0:0:0:
210,125,151583,6,0,P|275:106|292:6,1,175.00000166893,6|8,1:2|2:0,2:0:0:0:
126,112,152002,1,0,2:0:0:0:
239,142,152141,2,0,B|308:159|323:229|323:229|257:201,1,175.00000166893,2|10,1:2|2:0,2:0:0:0:
170,280,152560,5,2,2:0:0:0:
170,280,152699,2,0,P|149:236|157:187,1,87.500000834465,0|2,1:0|2:0,2:0:0:0:
260,297,152979,1,10,2:0:0:0:
67,259,153118,2,0,P|17:313|16:368,1,131.250001251698,0|0,1:0|2:0,2:0:0:0:
15,367,153397,1,0,1:0:0:0:
152,198,153537,2,0,B|126:149|74:167|74:167|98:169|115:182,1,131.250001251698,10|0,2:0|2:0,2:0:0:0:
67,259,153816,6,0,L|37:75,1,175.00000166893,6|2,1:2|2:0,2:0:0:0:
168,0,154234,1,10,2:0:0:0:
168,0,154374,2,0,L|153:61,1,50,6|4,2:3|2:3,2:0:0:0:
230,142,154653,6,0,P|296:199|351:190,1,131.250001251698,6|0,1:2|2:0,2:0:0:0:
361,181,154932,1,0,1:0:0:0:
449,243,155072,5,8,2:0:0:0:
427,244,155141,1,8,2:0:0:0:
406,250,155211,1,8,1:2:0:0:
388,261,155281,1,8,2:0:0:0:
372,276,155351,1,8,2:0:0:0:
361,296,155420,1,8,2:0:0:0:
356,316,155490,2,0,P|336:326|303:332,1,50,10|4,1:2|2:3,2:0:0:0:
241,384,155769,2,0,P|216:379|194:368,1,50,10|6,2:3|2:3,2:0:0:0:
125,264,156048,6,0,B|167:255|171:295|94:310|113:365,1,131.250001251698,6|0,1:2|2:0,2:0:0:0:
60,278,156327,2,0,B|17:286|30:325|107:307|112:365,1,131.250001251698,8|0,2:0|2:0,2:0:0:0:
194,368,156606,2,0,L|306:339,1,87.500000834465,2|0,1:2|1:0,2:0:0:0:
225,240,156885,2,0,L|337:211,1,87.500000834465,10|0,2:0|2:0,2:0:0:0:
459,119,157165,6,0,B|436:167|380:164|380:164|362:142|338:139,1,131.250001251698,0|0,1:0|2:0,2:0:0:0:
300,74,157444,1,10,2:0:0:0:
300,74,157583,1,2,1:2:0:0:
300,74,157723,2,0,L|213:59,1,87.500000834465,2|0,2:0|1:0,2:0:0:0:
285,203,158002,2,0,L|200:224,1,87.500000834465,8|0,2:0|2:0,2:0:0:0:
319,65,158281,5,0,1:0:0:0:
319,65,158420,1,2,2:0:0:0:
319,65,158560,2,0,L|232:50,1,87.500000834465,10|2,2:0|2:0,2:0:0:0:
299,217,158839,2,0,L|214:238,1,87.500000834465,2|2,1:2|1:2,2:0:0:0:
338,56,159118,2,0,L|251:41,1,87.500000834465,10|2,2:0|2:0,2:0:0:0:
142,138,159397,6,0,B|81:131|92:88|21:83,1,131.250001251698,2|0,1:2|2:0,2:0:0:0:
24,172,159676,1,10,2:0:0:0:
24,172,159816,2,0,P|31:222|54:212,1,87.500000834465,0|0,1:0|2:0,2:0:0:0:
142,138,160095,1,0,1:0:0:0:
220,292,160234,2,0,P|192:234|130:217,1,131.250001251698,14|0,2:0|2:0,2:0:0:0:
65,297,160513,6,0,B|49:331|64:362|64:362|128:353|143:286,1,175.00000166893,6|8,1:2|2:0,2:0:0:0:
131,216,160932,1,0,2:0:0:0:
194,368,161072,2,0,P|264:360|294:257,1,175.00000166893,2|10,1:2|2:0,2:0:0:0:
457,210,161490,5,2,1:2:0:0:
457,210,161630,2,0,P|385:193|400:266,2,175.00000166893,0|10|0,2:0|2:0|2:0,2:0:0:0:
466,230,162467,6,0,P|486:191|486:148,1,87.500000834465,10|2,2:0|2:0,2:0:0:0:
341,40,162746,2,0,B|326:93|326:93|392:110|447:56,1,175.00000166893,6|10,1:2|2:0,2:0:0:0:
263,6,163165,1,2,2:0:0:0:
246,88,163304,2,0,P|254:134|292:167,1,87.500000834465,2|2,1:2|1:2,2:0:0:0:
181,16,163583,2,0,P|154:54|157:104,1,87.500000834465,10|2,2:0|1:2,2:0:0:0:
28,240,163862,6,0,B|40:179|104:167|104:167|135:192|174:185,1,175.00000166893,2|8,2:0|2:0,2:0:0:0:
162,186,164281,1,2,2:0:0:0:
153,93,164420,2,0,P|121:63|78:57,1,87.500000834465,0|0,1:0|1:0,2:0:0:0:
162,186,164699,2,0,P|222:157|245:78,1,131.250001251698,10|0,2:0|2:0,2:0:0:0:
212,29,164979,5,6,1:2:0:0:
400,103,165118,2,0,B|337:119|278:71|278:71|267:91|246:99,1,175.00000166893,0|0,1:0|1:0,2:0:0:0:
285,57,165467,1,0,1:0:0:0:
292,41,165537,2,0,P|358:3|459:25,1,175.00000166893,14|2,2:0|1:2,2:0:0:0:
500,177,165955,1,14,2:0:0:0:
486,155,166234,5,8,2:0:0:0:
412,240,166374,2,0,P|401:284|409:334,1,87.500000834465,2|8,1:2|2:0,2:0:0:0:
414,345,166583,1,8,2:0:0:0:
425,364,166653,6,0,P|449:360|471:347,1,50,10|4,2:0|2:3,2:0:0:0:
323,316,166932,2,0,P|298:319|276:332,1,50,6|8,2:3|2:3,2:0:0:0:
185,384,167211,6,0,P|161:380|140:366,1,48.000001171875,4|2,1:2|2:0,2:0:0:0:
81,233,169444,5,2,1:2:0:0:
95,158,170281,5,0,1:0:0:0:
67,308,170560,1,10,2:0:0:0:
156,247,171676,5,2,1:2:0:0:
6,219,172095,1,2,1:2:0:0:
81,233,172792,5,8,2:0:0:0:
332,116,173909,5,0,1:0:0:0:
318,41,174746,5,2,1:2:0:0:
346,191,175025,1,8,2:0:0:0:
257,130,176141,5,0,1:0:0:0:
332,116,176560,1,2,1:2:0:0:
407,102,176979,1,0,1:0:0:0:
251,145,177258,5,8,2:0:0:0:
402,304,178374,5,2,1:2:0:0:
482,319,179211,5,0,1:0:0:0:
322,289,179490,1,8,2:0:0:0:
387,384,180606,5,2,1:2:0:0:
417,224,181025,1,2,1:2:0:0:
402,304,181723,5,8,2:0:0:0:
114,93,182839,5,0,1:0:0:0:
194,108,183676,5,2,1:2:0:0:
34,78,183955,1,10,2:0:0:0:
129,13,185071,5,0,1:0:0:0:
114,93,185490,1,0,1:0:0:0:
99,173,185909,1,2,1:2:0:0:
114,0,186188,5,10,2:0:0:0:
99,80,186466,1,2,2:0:0:0:
84,160,186746,1,2,2:0:0:0:
69,240,187025,1,2,2:0:0:0:
269,218,187304,6,0,P|178:243|148:332,1,194.999991073609,6|2,1:2|2:0,2:0:0:0:
69,240,187862,2,0,P|124:272|148:331,1,129.999994049073,2|2,1:2|2:0,2:0:0:0:
59,360,188420,2,0,B|37:384|6:377|6:377|15:332|60:335,1,129.999994049073,2|2,1:2|2:0,2:0:0:0:
280,380,188979,2,0,P|334:305|283:228,1,194.999991073609,0|2,1:0|2:0,2:0:0:0:
230,171,189537,6,0,P|202:123|307:117,1,194.999991073609,2|2,1:2|2:0,2:0:0:0:
217,178,190095,2,0,P|187:115|220:66,1,129.999994049073,2|2,1:2|2:0,2:0:0:0:
299,224,190653,2,0,B|365:205|364:254|432:232,1,129.999994049073,2|2,1:2|2:0,2:0:0:0:
485,88,191211,1,0,1:0:0:0:
485,88,191351,2,0,P|427:93|407:165,1,129.999994049073,0|2,2:0|2:0,2:0:0:0:
490,190,191769,6,0,B|519:235|502:284|502:284|446:283|423:228,1,194.999991073609,2|0,1:2|2:0,2:0:0:0:
345,255,192327,2,0,P|353:192|403:153,1,129.999994049073,0|2,1:0|2:0,2:0:0:0:
323,269,192885,2,0,P|260:261|221:211,1,129.999994049073,2|2,1:2|1:2,2:0:0:0:
104,125,193444,2,0,B|155:62|235:86|235:86|208:137,1,194.999991073609,0|2,1:0|2:0,2:0:0:0:
172,294,194002,6,0,B|121:357|41:333|41:333|68:282,1,194.999991073609,2|2,1:2|2:0,2:0:0:0:
192,309,194560,2,0,P|251:319|290:384,1,129.999994049073,2|0,1:2|1:0,2:0:0:0:
361,309,195118,2,0,P|403:268|477:266,2,129.999994049073,2|2|2,1:2|2:0|1:2,2:0:0:0:
490,277,195955,5,2,2:0:0:0:
395,236,196095,1,2,2:0:0:0:
478,174,196234,2,0,P|496:93|401:63,1,194.999991073609,2|0,1:2|2:0,2:0:0:0:
342,117,196792,2,0,P|297:91|304:12,1,129.999994049073,0|0,1:0|2:0,2:0:0:0:
232,150,197351,2,0,P|168:155|122:199,1,129.999994049073,0|2,1:0|2:0,2:0:0:0:
233,313,197909,2,0,P|286:240|231:169,1,194.999991073609,2|0,1:2|2:0,2:0:0:0:
149,281,198467,6,0,P|85:276|42:225,1,129.999994049073,0|2,1:0|2:0,2:0:0:0:
233,313,198885,1,2,2:0:0:0:
233,313,199025,2,0,B|281:290|315:354|366:329,1,129.999994049073,2|2,1:2|2:0,2:0:0:0:
437,384,199583,2,0,P|461:312|510:290,1,129.999994049073,0|2,1:0|2:0,2:0:0:0:
398,267,200002,1,0,2:0:0:0:
398,267,200141,1,2,1:2:0:0:
398,267,200420,2,0,P|376:244|424:237,1,97.4999955368044,2|0,2:0|2:0,2:0:0:0:
420,229,200699,6,0,L|437:162,1,59.9999981689454,4|0,1:2|2:0,2:0:0:0:
347,184,200979,2,0,L|335:115,1,59.9999981689454,0|0,1:0|2:0,2:0:0:0:
262,172,201258,2,0,L|223:114,1,59.9999981689454,0|0,1:0|2:0,2:0:0:0:
179,196,201537,2,0,L|120:159,1,59.9999981689454,0|0,1:0|2:0,2:0:0:0:
58,124,201816,6,0,P|87:96|123:87,1,59.9999981689454,4|0,1:2|2:0,2:0:0:0:
128,164,202095,2,0,P|167:158|202:172,1,59.9999981689454,2|2,1:2|2:0,2:0:0:0:
161,237,202374,2,0,P|196:255|216:287,1,59.9999981689454,2|0,1:2|2:0,2:0:0:0:
144,315,202653,2,0,P|161:351|159:388,1,59.9999981689454,2|0,1:2|2:0,2:0:0:0:
83,263,202932,6,0,P|66:299|65:335,1,59.9999981689454,4|0,1:2|2:0,2:0:0:0:
144,315,203211,2,0,P|159:351|185:376,1,59.9999981689454,2|2,1:2|2:0,2:0:0:0:
223,304,203490,2,0,P|260:317|296:314,1,59.9999981689454,2|0,1:2|2:0,2:0:0:0:
268,237,203769,2,0,P|302:217|324:189,1,59.9999981689454,2|2,1:2|2:0,2:0:0:0:
402,170,204048,6,0,P|407:199|404:229,1,59.9999981689454,2|0,1:2|2:0,2:0:0:0:
241,149,204327,2,0,P|211:143|185:128,1,59.9999981689454,2|2,1:2|2:0,2:0:0:0:
316,202,204606,2,0,P|295:223|269:237,1,59.9999981689454,2|0,1:2|2:0,2:0:0:0:
243,58,204885,2,0,P|231:29|229:0,1,59.9999981689454,2|0,1:2|2:0,2:0:0:0:
99,92,205165,6,0,P|39:80|34:182,1,175.00000166893,12|0,2:0|1:0,2:0:0:0:
199,282,205583,1,12,2:0:0:0:
199,282,205723,2,0,P|180:235|143:213,1,87.500000834465,0|0,1:0|1:0,2:0:0:0:
0,266,206002,6,0,P|19:323|110:277,1,175.00000166893,12|0,2:0|1:0,2:0:0:0:
133,199,206420,1,12,2:0:0:0:
189,360,206560,2,0,P|232:355|265:327,1,87.500000834465,8|0,2:0|1:0,2:0:0:0:
340,156,206839,6,0,L|328:209,3,43.7500004172325,4|8|4|4,2:3|2:3|2:3|2:3,2:0:0:0:
313,218,207118,2,0,B|319:248|319:248|372:290|356:363,1,131.250001251698,14|0,2:0|2:0,2:0:0:0:
433,384,207397,6,0,P|478:372|499:331,1,87.500000834465,2|8,1:2|2:0,2:0:0:0:
498,317,207606,1,8,2:0:0:0:
490,296,207676,1,10,2:0:0:0:
433,130,207816,6,0,L|408:236,1,93.75,2|0,1:2|2:0,2:0:0:0:
412,221,208095,1,6,2:3:0:0:
490,296,208234,1,6,2:3:0:0:
313,218,208374,6,0,B|219:174|151:253|154:257|157:262|86:346|8:319|-27:251|13:174|61:170|102:182|102:182|56:107|99:7|202:14|202:14|240:100|163:158,1,850,6|2,1:2|2:0,2:0:0:0:
89,108,219676,6,0,P|96:170|182:175,1,150,6|0,1:2|2:0,2:0:0:0:
223,243,220234,2,0,P|247:203|248:183,1,50,2|0,1:2|2:0,2:0:0:0:
324,184,220513,2,0,P|301:143|284:132,1,50,2|0,2:0|2:0,2:0:0:0:
229,66,220792,1,0,1:0:0:0:
229,66,221072,2,0,L|219:131,1,50,2|2,2:0|2:0,2:0:0:0:
300,142,221351,2,0,L|283:249,1,100,2|0,1:2|2:0,2:0:0:0:
455,216,221909,6,0,L|439:314,1,100,0|2,1:0|2:0,2:0:0:0:
352,342,222327,1,2,2:0:0:0:
352,342,222467,2,0,L|359:292,1,50,2|0,1:2|2:0,2:0:0:0:
437,384,222746,2,0,L|444:334,1,50,2|0,2:0|2:0,2:0:0:0:
265,306,223025,2,0,L|258:356,1,50,2|0,1:2|2:0,2:0:0:0:
164,369,223304,1,0,2:0:0:0:
164,369,223444,1,0,2:0:0:0:
164,369,223583,2,0,L|171:319,1,50,2|0,1:2|2:0,2:0:0:0:
84,288,223862,2,0,L|77:338,1,50,2|0,2:0|2:0,2:0:0:0:
20,209,224141,6,0,P|55:175|97:172,1,75,4|0,1:2|2:0,2:0:0:0:
77,92,224420,2,0,P|123:105|153:154,1,89.9999972534181,8|0,2:0|2:0,2:0:0:0:
214,97,224699,2,0,P|225:144|187:203,1,104.999996795654,8|0,1:2|2:0,2:0:0:0:
270,231,224979,2,0,P|235:265|157:257,1,120,8|0,2:0|2:0,2:0:0:0:
91,298,225258,6,0,L|81:203,1,89.9999972534181,8|0,1:2|2:0,2:0:0:0:
13,331,225537,2,0,L|3:236,1,75,8|0,1:2|2:0,2:0:0:0:
72,197,225816,6,0,L|67:145,2,43.3333313496908,8|8|8,1:2|2:0|2:0,2:0:0:0:
7,107,226095,5,10,1:2:0:0:
18,92,226188,2,0,P|45:78|69:75,1,43.3333313496908,8|8,2:0|2:0,2:0:0:0:
143,126,226374,6,0,L|151:81,3,40,2|2|2|2,2:0|2:0|2:0|2:0,2:0:0:0:
242,45,228606,6,0,L|213:202,1,160,6|0,1:2|2:0,2:0:0:0:
143,126,230002,5,6,2:3:0:0:
145,112,230095,5,8,2:3:0:0:
147,99,230188,5,4,2:3:0:0:
150,86,230281,6,0,P|64:61|73:171,1,225.000008583069,10|0,2:0|2:0,2:0:0:0:
122,218,230839,6,0,L|39:198,1,75.0000028610231,4|2,1:2|2:0,2:0:0:0:
97,320,231118,1,2,1:2:0:0:
97,320,231258,1,14,2:0:0:0:
97,320,231397,2,0,L|13:335,1,75.0000028610231,2|2,2:0|1:2,2:0:0:0:
138,204,231676,2,0,L|55:184,1,75.0000028610231,14|2,2:0|2:0,2:0:0:0:
185,285,231955,6,0,L|195:333,2,50.0000019073487,2|8|8,1:2|2:0|2:0,2:0:0:0:
281,231,232234,6,0,L|270:279,2,50.0000019073487,10|8|8,2:0|2:0|2:0,2:0:0:0:
348,311,232513,5,8,2:0:0:0:
357,319,232606,2,0,L|367:367,1,50.0000019073487,8|4,2:0|2:3,2:0:0:0:
460,255,232792,5,6,2:3:0:0:
451,263,232885,2,0,L|441:311,1,50.0000019073487,8|4,2:3|2:3,2:0:0:0:
480,383,233072,6,0,L|446:164,1,205.000003128052,6|8,1:2|2:0,2:0:0:0:
425,29,233490,1,0,2:0:0:0:
264,112,233630,2,0,B|307:167|373:146|373:146|394:113|423:104,1,175.00000166893,2|10,1:2|2:0,2:0:0:0:
230,26,234048,5,2,2:0:0:0:
230,26,234188,2,0,P|182:68|178:147,1,131.250001251698,0|0,1:0|2:0,2:0:0:0:
228,207,234467,2,0,P|194:167|156:153,1,87.500000834465,10|0,2:0|1:0,2:0:0:0:
96,251,234746,2,0,B|78:260|71:279|71:279|122:242|183:259,1,131.250001251698,0|0,2:0|2:0,2:0:0:0:
222,305,235025,2,0,P|245:341|250:384,1,87.500000834465,10|2,2:0|2:0,2:0:0:0:
324,248,235304,6,0,P|256:298|249:383,1,175.00000166893,14|2,2:0|1:2,2:0:0:0:
371,274,235723,2,0,P|290:287|271:368,1,175.00000166893,14|0,2:0|1:0,2:0:0:0:
403,319,236141,2,0,P|313:293|284:332,1,131.250001251698,14|0,2:0|2:0,2:0:0:0:
249,383,236420,5,10,1:2:0:0:
239,375,236490,2,0,L|174:383,2,43.7500004172325,8|8|8,2:0|2:0|2:0,2:0:0:0:
184,292,236699,1,10,1:2:0:0:
173,299,236769,2,0,L|108:291,2,43.7500004172325,8|10|8,2:0|2:0|2:0,2:0:0:0:
27,333,236979,5,10,1:2:0:0:
117,208,237118,1,8,2:0:0:0:
3,107,237258,1,10,2:0:0:0:
132,54,237397,6,0,L|115:122,1,62.5,10|0,2:0|2:0,2:0:0:0:
117,208,237816,6,0,L|149:79,1,131.250001251698,4|0,1:2|2:0,2:0:0:0:
208,15,238095,2,0,P|274:42|282:76,1,87.500000834465,2|2,1:2|1:2,2:0:0:0:
236,209,238374,2,0,P|226:138|251:114,1,87.500000834465,10|0,2:0|2:0,2:0:0:0:
359,95,238653,6,0,P|384:154|371:217,1,131.250001251698,0|0,1:0|2:0,2:0:0:0:
363,312,238932,1,10,2:0:0:0:
363,312,239072,1,2,1:2:0:0:
363,312,239211,2,0,L|344:220,1,87.500000834465,2|0,2:0|1:0,2:0:0:0:
469,353,239490,2,0,L|489:261,1,87.500000834465,8|0,2:0|2:0,2:0:0:0:
346,327,239769,5,0,1:0:0:0:
346,327,239909,1,2,2:0:0:0:
346,327,240048,2,0,L|327:235,1,87.500000834465,10|2,2:0|2:0,2:0:0:0:
481,367,240327,2,0,L|501:275,1,87.500000834465,2|2,1:2|1:2,2:0:0:0:
329,342,240606,2,0,L|310:250,1,87.500000834465,10|2,2:0|2:0,2:0:0:0:
190,362,240885,6,0,P|141:375|81:315,1,131.250001251698,2|0,1:2|2:0,2:0:0:0:
101,241,241165,1,10,2:0:0:0:
101,241,241304,2,0,B|86:222|86:222|50:224|32:268,1,87.500000834465,0|0,1:0|2:0,2:0:0:0:
0,332,241583,1,0,1:0:0:0:
182,273,241723,2,0,B|230:239|218:168|190:156|166:202|181:215,1,131.250001251698,14|0,2:0|2:0,2:0:0:0:
101,241,242002,5,6,1:2:0:0:
101,241,242141,2,0,B|43:202|74:131|74:131|101:123|117:156,1,175.00000166893,0|2,1:0|1:2,2:0:0:0:
210,99,242560,2,0,B|251:94|237:23|189:36|189:36|223:54|212:95,1,175.00000166893,10|2,2:0|1:2,2:0:0:0:
112,52,242979,5,2,1:2:0:0:
112,52,243118,2,0,P|69:30|28:31,1,87.500000834465,0|10,2:0|2:0,2:0:0:0:
210,99,243397,2,0,P|253:77|294:78,1,87.500000834465,2|0,1:2|2:0,2:0:0:0:
381,153,243676,1,8,2:0:0:0:
381,153,243816,2,0,L|394:86,2,50,0|6|10,1:0|2:3|2:3,2:0:0:0:
261,174,244234,6,0,L|296:357,1,175.00000166893,6|2,1:2|2:0,2:0:0:0:
191,298,244653,1,2,1:2:0:0:
191,298,244792,2,0,L|209:395,1,87.500000834465,10|2,2:0|2:0,2:0:0:0:
83,259,245072,2,0,B|97:220|135:213|135:213|169:234,1,87.500000834465,2|2,1:2|1:2,2:0:0:0:
191,298,245351,5,2,2:0:0:0:
4,241,245490,1,8,2:0:0:0:
4,241,245630,2,0,P|35:180|64:157,1,87.500000834465,0|2,1:0|2:0,2:0:0:0:
156,75,245909,2,0,P|148:14|90:33,1,131.250001251698,6|4,2:3|2:3,2:0:0:0:
0,67,246188,2,0,P|65:45|101:50,1,87.500000834465,14|0,2:0|2:0,2:0:0:0:
213,153,246467,5,14,2:0:0:0:
326,56,246606,2,0,B|326:16|326:16|267:29|252:94|297:130,1,175.00000166893,0|14,2:0|2:0,2:0:0:0:
457,92,247025,2,0,P|376:118|367:213,1,175.00000166893,2|14,1:2|2:0,2:0:0:0:
502,164,247444,6,0,P|482:126|444:107,1,87.500000834465,2|0,1:2|1:0,2:0:0:0:
343,210,247723,2,0,L|325:265,1,43.7500004172325,12|0,2:0|2:0,2:0:0:0:
255,206,247862,2,0,P|213:194|183:161,1,87.500000834465,14|2,2:0|1:2,2:0:0:0:
175,142,248072,1,0,1:0:0:0:
174,121,248141,5,6,2:3:0:0:
137,234,248281,1,4,2:3:0:0:
66,73,248420,2,0,P|81:97|89:127,1,50,10|0,2:0|2:0,2:0:0:0:
23,290,248699,6,0,P|35:269|41:246,1,48.000001171875,4|2,1:2|2:0,2:0:0:0:
40,246,250932,6,0,P|87:258|115:298,2,100,6|8|0,1:2|2:0|1:0,2:0:0:0:
155,207,251630,2,0,P|175:195|192:168,2,50,0|8|0,1:0|2:0|2:0,2:0:0:0:
202,302,252048,2,0,P|228:260|276:241,1,100,2|8,1:2|2:0,2:0:0:0:
303,159,252467,2,0,P|271:121|267:69,1,100,2|0,1:2|1:0,2:0:0:0:
342,25,252885,2,0,P|372:45|381:66,1,50,10|0,2:0|2:0,2:0:0:0:
492,167,253165,5,6,1:2:0:0:
399,162,253304,1,10,2:0:0:0:
399,162,253374,1,10,2:0:0:0:
399,162,253444,2,0,L|337:153,1,50,10|10,2:0|2:0,2:0:0:0:
462,251,253723,5,6,1:2:0:0:
369,246,253862,1,10,2:0:0:0:
369,246,253932,1,10,2:0:0:0:
369,246,254002,2,0,L|307:237,1,50,10|10,2:0|2:0,2:0:0:0:
226,346,254281,6,0,B|265:234|212:114|126:103|27:153|82:248|106:263|147:242,1,400,4|10,1:2|1:2,2:0:0:0:
137,245,255118,2,0,P|171:216|167:185,1,80,10|10,2:0|2:0,2:0:0:0:
43,118,255397,6,0,P|127:75|243:106,1,200,6|8,1:2|2:0,2:0:0:0:
226,94,255816,1,2,2:0:0:0:
376,0,255955,2,0,P|334:34|266:31,2,100,2|2|8,1:2|1:2|2:0,2:0:0:0:
512,114,256374,6,0,B|533:175|475:206|475:206|436:191,1,150,2|0,1:2|2:0,2:0:0:0:
356,202,256653,2,0,P|337:262|386:288,1,100,2|10,1:2|2:0,2:0:0:0:
327,126,256932,1,2,2:0:0:0:
437,275,257072,2,0,P|424:331|379:362,1,100,2|2,1:2|1:2,2:0:0:0:
251,236,257351,1,10,2:0:0:0:
251,236,257490,1,2,2:0:0:0:
93,369,257630,6,0,B|125:374|125:374|191:306|282:323,1,200,2|10,1:2|2:0,2:0:0:0:
126,233,258048,2,0,B|29:218|63:120|117:163|109:210,1,150,2|0,1:2|2:0,2:0:0:0:
57,293,258327,2,0,P|16:335|16:396,1,100,2|10,1:2|2:0,2:0:0:0:
126,233,258606,6,0,P|157:148|82:53,1,200,2|2,1:2|1:2,2:0:0:0:
7,25,259025,1,10,2:0:0:0:
222,1,259165,2,0,P|173:56|101:61,1,150,14|0,2:0|2:0,2:0:0:0:
7,25,259444,2,0,L|25:89,2,50,10|10|10,2:0|2:0|2:0,2:0:0:0:
47,156,259723,1,10,2:0:0:0:
191,141,259862,6,0,L|166:256,1,100,6|4,2:3|2:3,2:0:0:0:
163,262,260071,1,4,2:3:0:0:
158,286,260141,1,8,2:0:0:0:
294,227,260281,5,6,1:2:0:0:
270,346,260420,1,2,2:0:0:0:
270,346,260560,2,0,P|307:379|356:384,1,100,2|8,1:2|2:0,2:0:0:0:
418,274,260839,6,0,P|366:222|294:227,1,150,2|0,1:2|2:0,2:0:0:0:
216,199,261118,2,0,B|181:178|189:138|189:138|218:117,1,100,2|10,1:2|2:0,2:0:0:0:
371,45,261397,1,2,2:0:0:0:
281,19,261537,2,0,L|297:121,2,100,2|2|8,1:2|1:2|2:0,2:0:0:0:
211,121,261955,1,2,2:0:0:0:
97,1,262095,6,0,P|10:43|26:145,1,200,6|10,1:2|2:0,2:0:0:0:
192,275,262513,2,0,P|166:207|97:184,1,150,6|0,1:2|2:0,2:0:0:0:
42,247,262792,2,0,P|45:295|80:330,1,100,2|10,1:2|2:0,2:0:0:0:
226,384,263072,6,0,B|275:393|303:338|337:277|395:295,1,200,4|0,1:2|1:0,2:0:0:0:
512,223,263490,1,8,2:0:0:0:
512,223,263560,1,4,2:3:0:0:
512,223,263630,2,0,L|500:274,1,50,4|4,2:3|2:3,2:0:0:0:
481,353,263769,5,8,2:0:0:0:
404,162,263909,1,10,0:2:0:0:
