osu file format v14

[General]
AudioFilename: audio.mp3
AudioLeadIn: 0
PreviewTime: 210118
Countdown: 0
SampleSet: Soft
StackLeniency: 0.7
Mode: 0
LetterboxInBreaks: 0
EpilepsyWarning: 1
WidescreenStoryboard: 0

[Editor]
DistanceSpacing: 1.1
BeatDivisor: 4
GridSize: 32
TimelineZoom: 1

[Metadata]
Title:Natsuhishou
TitleUnicode:夏日章
Artist:nao feat. isui
ArtistUnicode:夏央 feat. 倚水
Creator:Sarawatlism
Version:Rainbow
Source:
Tags:樂 raku japanese rock j-rock jrock jpop pop j-pop サマーライト summer lights [_lost_] conner c_o_n_n_e_r centrak_ amats pnky clammbon natsuhisyou
BeatmapID:4031445
BeatmapSetID:1947986

[Difficulty]
HPDrainRate:6
CircleSize:4
OverallDifficulty:9
ApproachRate:9.3
SliderMultiplier:1.93
SliderTickRate:1

[Events]
//Background and Video events
0,0,"BG.jpg",0,0
Video,-150,"VD.mp4"
//Break Periods
//Storyboard Layer 0 (Background)
//Storyboard Layer 1 (Fail)
//Storyboard Layer 2 (Pass)
//Storyboard Layer 3 (Foreground)
//Storyboard Layer 4 (Overlay)
//Storyboard Sound Samples

[TimingPoints]
886,279.06976744186,4,2,1,50,1,0
886,-142.857142857143,4,2,1,50,0,0
2071,-142.857142857143,4,2,1,5,0,0
2141,-142.857142857143,4,2,1,50,0,0
10513,-71.4285714285714,4,2,1,50,0,0
10932,-83.3333333333333,4,2,1,70,0,0
12118,-83.3333333333333,4,2,1,5,0,0
12188,-83.3333333333333,4,2,1,70,0,0
14350,-83.3333333333333,4,2,1,5,0,0
14420,-83.3333333333333,4,2,1,70,0,0
15118,-76.9230769230769,4,2,1,70,0,0
15397,-83.3333333333333,4,2,1,70,0,0
16583,-83.3333333333333,4,2,1,5,0,0
16653,-83.3333333333333,4,2,1,70,0,0
17630,-76.9230769230769,4,2,1,70,0,0
17839,-76.9230769230769,4,2,1,5,0,0
17909,-76.9230769230769,4,2,1,70,0,0
18048,-71.4285714285714,4,2,1,70,0,0
18257,-71.4285714285714,4,2,1,5,0,0
18327,-71.4285714285714,4,2,1,70,0,0
18606,-66.6666666666667,4,2,1,70,0,0
18815,-66.6666666666667,4,2,1,5,0,0
18885,-66.6666666666667,4,2,1,70,0,0
19583,-83.3333333333333,4,2,2,70,0,0
19722,-83.3333333333333,4,2,1,70,0,0
19862,-111.111111111111,4,2,1,60,0,0
20141,-111.111111111111,4,2,2,60,0,0
21048,-111.111111111111,4,2,2,5,0,0
21118,-111.111111111111,4,2,2,60,0,0
23281,-111.111111111111,4,2,2,5,0,0
23351,-111.111111111111,4,2,2,60,0,0
25513,-111.111111111111,4,2,2,5,0,0
25583,-111.111111111111,4,2,2,60,0,0
27746,-111.111111111111,4,2,2,5,0,0
27816,-111.111111111111,4,2,2,60,0,0
28234,-83.3333333333333,4,2,2,60,0,0
28513,-100,4,2,2,60,0,0
28652,-100,4,2,1,60,0,0
28792,-111.111111111111,4,2,1,60,0,0
29071,-111.111111111111,4,2,2,60,0,0
29978,-111.111111111111,4,2,2,5,0,0
30048,-111.111111111111,4,2,2,60,0,0
32211,-111.111111111111,4,2,2,5,0,0
32281,-111.111111111111,4,2,2,60,0,0
34443,-111.111111111111,4,2,2,5,0,0
34513,-111.111111111111,4,2,2,60,0,0
37165,-90.9090909090908,4,2,2,60,0,0
37444,-111.111111111111,4,2,1,60,0,0
37723,-125,4,2,1,60,0,0
38281,-125,4,2,2,60,0,0
38490,-125,4,2,2,5,0,0
38560,-125,4,2,2,60,0,0
38908,-125,4,2,2,5,0,0
38979,-125,4,2,2,60,0,0
39676,-125,4,2,1,60,0,0
39955,-90.9090909090909,4,2,1,60,0,0
40164,-90.9090909090909,4,2,1,5,0,0
40234,-90.9090909090909,4,2,2,60,0,0
40374,-111.111111111111,4,2,2,60,0,0
40583,-111.111111111111,4,2,2,5,0,0
40653,-111.111111111111,4,2,2,60,0,0
40792,-142.857142857143,4,2,2,60,0,0
41351,-125,4,2,2,60,0,0
44280,-125,4,2,1,60,0,0
44979,-125,4,2,2,60,0,0
45118,-125,4,2,2,5,0,0
45258,-125,4,2,2,60,0,0
45676,-83.3333333333333,4,2,2,60,0,0
46234,-100,4,2,2,60,0,0
46374,-100,4,2,1,60,0,0
46513,-100,4,2,2,60,0,0
46653,-125,4,2,2,60,0,0
47350,-125,4,2,2,5,0,0
47490,-125,4,2,2,60,0,0
48257,-125,4,2,2,5,0,0
48327,-125,4,2,2,60,0,0
48606,-166.666666666667,4,2,1,60,0,0
48885,-90.9090909090909,4,2,1,60,0,0
49094,-90.9090909090909,4,2,1,5,0,0
49165,-90.9090909090909,4,2,2,60,0,0
49304,-111.111111111111,4,2,2,60,0,0
49513,-111.111111111111,4,2,2,5,0,0
49583,-111.111111111111,4,2,2,60,0,0
49723,-142.857142857143,4,2,2,60,0,0
50281,-125,4,2,2,60,0,0
50978,-125,4,2,1,60,0,0
51118,-166.666666666667,4,2,1,60,0,0
51327,-166.666666666667,4,2,1,5,0,0
51397,-100,4,2,2,60,0,0
51955,-125,4,2,2,60,0,0
52303,-125,4,2,2,5,0,0
52374,-125,4,2,2,60,0,0
52513,-76.9230769230769,4,2,2,60,0,0
52932,-71.4285714285714,4,2,2,60,0,0
53351,-83.3333333333333,4,2,2,70,0,0
54536,-83.3333333333333,4,2,2,5,0,0
54606,-83.3333333333333,4,2,2,70,0,0
56769,-83.3333333333333,4,2,2,5,0,0
56839,-83.3333333333333,4,2,2,70,0,0
57816,-76.9230769230769,4,2,2,70,0,0
58025,-76.9230769230769,4,2,2,5,0,0
58095,-76.9230769230769,4,2,2,70,0,0
58234,-90.9090909090909,4,2,2,70,0,0
58443,-90.9090909090909,4,2,2,5,0,0
58513,-90.9090909090909,4,2,2,70,0,0
58653,-111.111111111111,4,2,2,70,0,0
58862,-111.111111111111,4,2,2,5,0,0
58932,-111.111111111111,4,2,2,70,0,0
59141,-111.111111111111,4,2,2,5,0,0
59211,-111.111111111111,4,2,2,70,0,0
59676,-111.111111111111,4,2,1,100,0,0
59862,-111.111111111111,4,2,2,100,0,0
62281,-76.9230769230769,4,2,2,100,0,0
62490,-76.9230769230769,4,2,2,5,0,0
62560,-76.9230769230769,4,2,2,100,0,0
63467,-76.9230769230769,4,2,2,5,0,0
63537,-76.9230769230769,4,2,2,100,0,0
63676,-71.4285714285714,4,2,2,100,0,0
63955,-71.4285714285714,4,2,1,100,0,0
64513,-76.9230769230769,4,2,1,80,0,1
65839,-76.9230769230769,4,2,1,5,0,1
65909,-76.9230769230769,4,2,1,80,0,1
68071,-76.9230769230769,4,2,1,5,0,1
68141,-76.9230769230769,4,2,1,80,0,1
68699,-71.4285714285714,4,2,1,80,0,1
68908,-71.4285714285714,4,2,1,5,0,1
68979,-76.9230769230769,4,2,1,80,0,1
70164,-76.9230769230769,4,2,1,5,0,1
70234,-76.9230769230769,4,2,1,80,0,1
71141,-76.9230769230769,4,2,1,80,0,0
71211,-83.3333333333333,4,2,1,80,0,1
71420,-83.3333333333333,4,2,1,5,0,1
71490,-83.3333333333333,4,2,1,80,0,1
71769,-125,4,2,1,80,0,0
72048,-90.9090909090909,4,2,1,80,0,1
72257,-90.9090909090909,4,2,1,5,0,1
72327,-90.9090909090909,4,2,1,80,0,1
72885,-71.4285714285714,4,2,1,80,0,1
73024,-71.4285714285714,4,2,2,80,0,1
73165,-100,4,2,1,80,0,1
73444,-142.857142857143,4,2,1,80,0,0
73653,-142.857142857143,4,2,1,5,0,0
73723,-66.6666666666667,4,2,1,80,0,1
73862,-66.6666666666667,4,2,1,5,0,1
74002,-66.6666666666667,4,2,1,80,0,1
74281,-76.9230769230769,4,2,1,80,0,1
77001,-76.9230769230769,4,2,1,5,0,1
77072,-76.9230769230769,4,2,1,80,0,1
77630,-71.4285714285714,4,2,1,80,0,1
77839,-71.4285714285714,4,2,1,5,0,1
77909,-76.9230769230769,4,2,1,80,0,1
79094,-76.9230769230769,4,2,1,5,0,1
79165,-76.9230769230769,4,2,1,80,0,1
80350,-76.9230769230769,4,2,1,5,0,1
80420,-76.9230769230769,4,2,1,80,0,1
82095,-71.4285714285714,4,2,1,80,0,1
82304,-71.4285714285714,4,2,1,5,0,0
82374,-71.4285714285714,4,2,1,80,0,1
82513,-125,4,2,1,80,0,1
83071,-125,4,2,1,5,0,1
83211,-125,4,2,1,80,0,1
84187,-125,4,2,2,80,0,1
84327,-125,4,2,1,80,0,1
84606,-250,4,2,1,80,0,1
85723,-250,4,2,1,60,0,0
86839,-100,4,2,1,60,0,0
87118,-100,4,2,2,60,0,0
87815,-100,4,2,2,5,0,0
87955,-100,4,2,2,60,0,0
88164,-100,4,2,2,5,0,0
88234,-100,4,2,2,60,0,0
88583,-100,4,2,2,5,0,0
88653,-100,4,2,2,60,0,0
88931,-100,4,2,2,5,0,0
89072,-100,4,2,2,60,0,0
89211,-100,4,2,1,60,0,0
91025,-90.9090909090909,4,2,1,60,0,0
91304,-83.3333333333333,4,2,1,70,0,0
92490,-83.3333333333333,4,2,1,5,0,0
92560,-83.3333333333333,4,2,1,70,0,0
94722,-83.3333333333333,4,2,1,5,0,0
94792,-83.3333333333333,4,2,1,70,0,0
95769,-142.857142857143,4,2,1,70,0,0
95909,-142.857142857143,4,2,2,70,0,0
96048,-71.4285714285714,4,2,1,70,0,0
96327,-83.3333333333333,4,2,1,70,0,0
96955,-83.3333333333333,4,2,1,5,0,0
97025,-83.3333333333333,4,2,1,70,0,0
98002,-71.4285714285714,4,2,1,70,0,0
98629,-71.4285714285714,4,2,1,5,0,0
98699,-71.4285714285714,4,2,1,70,0,0
98979,-66.6666666666667,4,2,1,70,0,0
99188,-66.6666666666667,4,2,1,5,0,0
99258,-66.6666666666667,4,2,1,70,0,0
99537,-66.6666666666667,4,2,2,70,0,0
99676,-66.6666666666667,4,2,1,70,0,0
99955,-71.4285714285714,4,2,1,70,0,0
100094,-71.4285714285714,4,2,2,70,0,0
100234,-111.111111111111,4,2,2,60,0,0
101420,-111.111111111111,4,2,2,5,0,0
101490,-111.111111111111,4,2,2,60,0,0
101839,-111.111111111111,4,2,2,5,0,0
101909,-111.111111111111,4,2,2,60,0,0
103653,-111.111111111111,4,2,2,5,0,0
103723,-111.111111111111,4,2,2,60,0,0
104071,-111.111111111111,4,2,2,5,0,0
104141,-111.111111111111,4,2,2,60,0,0
105885,-111.111111111111,4,2,2,5,0,0
105955,-111.111111111111,4,2,2,60,0,0
108118,-111.111111111111,4,2,2,5,0,0
108188,-111.111111111111,4,2,2,60,0,0
110350,-111.111111111111,4,2,2,5,0,0
110420,-111.111111111111,4,2,2,60,0,0
110769,-111.111111111111,4,2,2,5,0,0
110839,-111.111111111111,4,2,2,60,0,0
112583,-111.111111111111,4,2,2,5,0,0
112653,-111.111111111111,4,2,2,60,0,0
113001,-111.111111111111,4,2,2,5,0,0
113071,-111.111111111111,4,2,2,60,0,0
114815,-111.111111111111,4,2,2,5,0,0
114885,-111.111111111111,4,2,2,60,0,0
115234,-111.111111111111,4,2,2,5,0,0
115304,-111.111111111111,4,2,2,60,0,0
116420,-83.3333333333333,4,2,2,60,0,0
116839,-90.9090909090909,4,2,1,60,0,0
117258,-111.111111111111,4,2,2,60,0,0
117537,-83.3333333333333,4,2,2,60,0,0
117816,-100,4,2,1,60,0,0
118095,-142.857142857143,4,2,1,60,0,0
118374,-142.857142857143,4,2,3,50,0,0
118862,-142.857142857143,4,2,3,5,0,0
118932,-142.857142857143,4,2,3,50,0,0
120327,-90.9090909090909,4,2,3,50,0,0
120536,-90.9090909090909,4,2,3,5,0,0
120606,-90.9090909090909,4,2,3,50,0,0
120746,-111.111111111111,4,2,3,50,0,0
120955,-111.111111111111,4,2,3,5,0,0
121025,-111.111111111111,4,2,3,50,0,0
121165,-142.857142857143,4,2,3,50,0,0
121513,-142.857142857143,4,2,3,5,0,0
121583,-142.857142857143,4,2,3,50,0,0
122560,-100,4,2,1,50,0,0
122839,-100,4,2,3,50,0,0
123397,-125,4,2,3,50,0,0
123955,-142.857142857143,4,2,3,50,0,0
126048,-90.9090909090909,4,2,3,50,0,0
126257,-90.9090909090909,4,2,3,5,0,0
126327,-90.9090909090909,4,2,3,50,0,0
126606,-111.111111111111,4,2,3,50,0,0
126746,-111.111111111111,4,2,2,50,0,0
126815,-111.111111111111,4,2,2,5,0,0
126885,-111.111111111111,4,2,1,50,0,0
127025,-125,4,2,1,60,0,0
127583,-125,4,2,2,60,0,0
127792,-125,4,2,2,5,0,0
127862,-125,4,2,2,60,0,0
128979,-166.666666666667,4,2,2,60,0,0
129258,-83.3333333333333,4,2,2,60,0,0
129467,-83.3333333333333,4,2,2,5,0,0
129537,-83.3333333333333,4,2,2,60,0,0
129676,-100,4,2,2,60,0,0
129885,-100,4,2,2,5,0,0
129955,-100,4,2,2,60,0,0
130095,-125,4,2,2,60,0,0
130443,-125,4,2,2,5,0,0
130513,-125,4,2,2,60,0,0
131560,-125,4,2,1,60,0,0
131769,-125,4,2,2,60,0,0
132327,-100,4,2,2,60,0,0
132885,-76.9230769230769,4,2,2,60,0,0
133094,-76.9230769230769,4,2,2,5,0,0
133165,-76.9230769230769,4,2,2,60,0,0
133723,-83.3333333333333,4,2,2,70,0,0
134908,-83.3333333333333,4,2,2,5,0,0
134979,-83.3333333333333,4,2,2,70,0,0
137141,-83.3333333333333,4,2,2,5,0,0
137211,-83.3333333333333,4,2,2,70,0,0
138188,-71.4285714285714,4,2,2,70,0,0
138397,-71.4285714285714,4,2,2,5,0,0
138467,-71.4285714285714,4,2,2,70,0,0
138606,-76.9230769230769,4,2,2,70,0,0
138815,-76.9230769230769,4,2,2,5,0,0
138885,-76.9230769230769,4,2,2,70,0,0
139025,-83.3333333333333,4,2,2,70,0,0
139234,-83.3333333333333,4,2,2,5,0,0
139304,-90.9090909090909,4,2,2,70,0,0
139513,-90.9090909090909,4,2,2,5,0,0
139583,-111.111111111111,4,2,2,70,0,0
140048,-111.111111111111,4,2,1,70,0,0
140234,-111.111111111111,4,2,2,70,0,0
142653,-76.9230769230769,4,2,2,70,0,0
142862,-76.9230769230769,4,2,2,5,0,0
142932,-76.9230769230769,4,2,2,70,0,0
143839,-76.9230769230769,4,2,2,5,0,0
143909,-76.9230769230769,4,2,2,70,0,0
145862,-71.4285714285714,4,2,2,70,0,0
146071,-71.4285714285714,4,2,2,5,0,0
146141,-71.4285714285714,4,2,2,70,0,0
146281,-66.6666666666667,4,2,2,70,0,0
146560,-66.6666666666667,4,2,1,70,0,0
147118,-76.9230769230769,4,2,1,80,0,1
148164,-76.9230769230769,4,2,1,5,0,1
148234,-76.9230769230769,4,2,1,80,0,1
150118,-76.9230769230769,4,2,1,5,0,1
150188,-76.9230769230769,4,2,1,80,0,1
150676,-76.9230769230769,4,2,1,5,0,1
150746,-76.9230769230769,4,2,1,80,0,1
151304,-71.4285714285714,4,2,1,80,0,1
151513,-71.4285714285714,4,2,1,5,0,1
151583,-76.9230769230769,4,2,1,80,0,1
152769,-76.9230769230769,4,2,1,5,0,1
152839,-76.9230769230769,4,2,1,80,0,1
153746,-76.9230769230769,4,2,1,80,0,0
153816,-83.3333333333333,4,2,1,80,0,1
154025,-83.3333333333333,4,2,1,5,0,1
154095,-83.3333333333333,4,2,1,80,0,1
154374,-125,4,2,1,80,0,0
154653,-90.9090909090909,4,2,1,80,0,1
154862,-90.9090909090909,4,2,1,5,0,1
154932,-90.9090909090909,4,2,1,80,0,1
155490,-71.4285714285714,4,2,1,80,0,1
155629,-71.4285714285714,4,2,2,80,0,1
155769,-100,4,2,1,80,0,1
156048,-142.857142857143,4,2,1,80,0,0
156257,-142.857142857143,4,2,1,5,0,0
156327,-66.6666666666667,4,2,1,80,0,1
156466,-66.6666666666667,4,2,1,5,0,1
156606,-66.6666666666667,4,2,1,80,0,1
156885,-76.9230769230769,4,2,1,80,0,1
159048,-76.9230769230769,4,2,1,5,0,1
159118,-76.9230769230769,4,2,1,80,0,1
159606,-76.9230769230769,4,2,1,5,0,1
159676,-76.9230769230769,4,2,1,80,0,1
160234,-71.4285714285714,4,2,1,80,0,1
160443,-71.4285714285714,4,2,1,5,0,1
160513,-76.9230769230769,4,2,1,80,0,1
161699,-76.9230769230769,4,2,1,5,0,1
161769,-76.9230769230769,4,2,1,80,0,1
162955,-76.9230769230769,4,2,1,5,0,1
163025,-76.9230769230769,4,2,1,80,0,1
164699,-71.4285714285714,4,2,1,80,0,1
164909,-71.4285714285714,4,2,1,5,0,0
164979,-71.4285714285714,4,2,1,80,0,1
165118,-125,4,2,1,80,0,1
165676,-125,4,2,1,5,0,1
165816,-125,4,2,1,80,0,1
166164,-125,4,2,1,5,0,1
166234,-125,4,2,1,80,0,1
166932,-125,4,2,2,80,0,1
167071,-125,4,2,1,80,0,1
167211,-250,4,2,1,80,0,1
168327,-250,4,2,1,60,0,0
169444,-166.666666666667,4,2,4,40,0,0
173909,-166.666666666667,4,2,5,40,0,0
175025,-166.666666666667,4,2,4,40,0,0
176141,-166.666666666667,4,2,5,40,0,0
176839,-166.666666666667,4,2,1,40,0,0
176978,-166.666666666667,4,2,5,40,0,0
177258,-166.666666666667,4,2,4,40,0,0
178374,-166.666666666667,4,2,5,40,0,0
179490,-166.666666666667,4,2,4,40,0,0
180606,-166.666666666667,4,2,5,40,0,0
181723,-166.666666666667,4,2,4,40,0,0
182839,-166.666666666667,4,2,5,40,0,0
183955,-166.666666666667,4,2,4,40,0,0
185072,-166.666666666667,4,2,5,40,0,0
186188,-166.666666666667,4,2,4,40,0,0
187304,-125,4,2,1,50,0,0
200699,-100,4,2,1,60,0,0
200838,-100,4,2,1,5,0,0
200979,-100,4,2,1,60,0,0
201118,-100,4,2,1,5,0,0
201258,-100,4,2,1,60,0,0
201397,-100,4,2,1,5,0,0
201537,-100,4,2,1,60,0,0
201676,-100,4,2,1,5,0,0
201816,-100,4,2,1,60,0,0
201955,-100,4,2,1,5,0,0
202095,-100,4,2,1,60,0,0
202513,-100,4,2,1,5,0,0
202653,-100,4,2,1,60,0,0
202792,-100,4,2,1,5,0,0
202932,-100,4,2,1,60,0,0
203629,-100,4,2,1,5,0,0
203769,-100,4,2,1,60,0,0
204257,-100,4,2,1,5,0,0
204327,-100,4,2,1,60,0,0
204745,-100,4,2,1,5,0,0
204885,-100,4,2,1,60,0,0
205024,-100,4,2,1,5,0,0
205165,-83.3333333333333,4,2,1,70,0,0
205374,-83.3333333333333,4,2,1,5,0,0
205444,-83.3333333333333,4,2,1,70,0,0
205583,-71.4285714285714,4,2,1,70,0,0
205792,-71.4285714285714,4,2,1,5,0,0
205862,-71.4285714285714,4,2,1,70,0,0
206002,-62.5,4,2,1,70,0,0
206211,-62.5,4,2,1,5,0,0
206281,-62.5,4,2,1,70,0,0
206839,-62.5,4,2,2,70,0,0
206909,-62.5,4,2,1,70,0,0
208374,-333.333333333333,4,2,1,70,0,0
210746,-250,4,2,1,40,0,0
219676,-166.666666666667,4,2,1,60,0,0
224280,-166.666666666667,4,2,1,5,0,0
224420,-166.666666666667,4,2,2,60,0,0
224559,-166.666666666667,4,2,2,5,0,0
224699,-125,4,2,2,60,0,0
224838,-125,4,2,2,5,0,0
224979,-125,4,2,2,60,0,0
225118,-125,4,2,2,5,0,0
225258,-100,4,2,2,60,0,0
225397,-100,4,2,2,5,0,0
225538,-100,4,2,2,60,0,0
225677,-100,4,2,2,5,0,0
225816,-100,4,2,2,60,0,0
225909,-90.9090909090909,4,2,2,60,0,0
228606,-166.666666666667,4,2,2,60,0,1
228676,-166.666666666667,4,2,2,60,0,0
230002,-250,4,2,1,60,0,0
230188,-250,4,2,2,60,0,0
230281,-125,4,2,2,60,0,0
230699,-125,4,2,2,5,0,0
230839,-90.9090909090909,4,2,2,70,0,1
230909,-90.9090909090909,4,2,2,70,0,0
231676,-76.9230769230769,4,2,2,70,0,0
231955,-90.9090909090909,4,2,2,70,0,0
232885,-90.9090909090909,4,2,1,70,0,0
233072,-76.9230769230769,4,2,1,80,0,1
234257,-76.9230769230769,4,2,1,5,0,1
234327,-76.9230769230769,4,2,1,80,0,1
235234,-76.9230769230769,4,2,1,5,0,1
235304,-66.6666666666667,4,2,1,80,0,1
235443,-66.6666666666667,4,2,1,5,0,1
235583,-66.6666666666667,4,2,1,80,0,1
237537,-142.857142857143,4,2,1,80,0,0
237746,-142.857142857143,4,2,1,5,0,0
237816,-66.6666666666667,4,2,1,80,0,1
237955,-66.6666666666667,4,2,1,5,0,1
238095,-76.9230769230769,4,2,1,80,0,1
241723,-66.6666666666667,4,2,1,80,0,1
241932,-66.6666666666667,4,2,1,5,0,0
242002,-66.6666666666667,4,2,1,80,0,1
242141,-125,4,2,1,80,0,1
242699,-125,4,2,1,5,0,1
242839,-125,4,2,1,80,0,1
243536,-125,4,2,1,5,0,1
243676,-125,4,2,1,80,0,1
243955,-125,4,2,2,80,0,1
244094,-125,4,2,1,80,0,1
246048,-125,4,2,2,80,0,1
246188,-66.6666666666667,4,2,1,80,0,1
246327,-66.6666666666667,4,2,1,5,0,1
246397,-66.6666666666667,4,2,1,5,0,0
246467,-71.4285714285714,4,2,1,80,0,1
248141,-71.4285714285714,4,2,2,80,0,1
248211,-71.4285714285714,4,2,1,80,0,1
248699,-200,4,2,1,80,0,1
249816,-200,4,2,1,60,0,0
250932,-100,4,2,1,60,0,0
251211,-100,4,2,2,60,0,0
251908,-100,4,2,2,5,0,0
252048,-100,4,2,2,60,0,0
252257,-100,4,2,2,5,0,0
252327,-100,4,2,2,60,0,0
252676,-100,4,2,2,5,0,0
252746,-100,4,2,2,60,0,0
253024,-100,4,2,2,5,0,0
253165,-100,4,2,2,60,0,0
253304,-100,4,2,1,60,0,0
255118,-90.9090909090909,4,2,1,60,0,0
255397,-83.3333333333333,4,2,1,70,0,0
256583,-83.3333333333333,4,2,1,5,0,0
256653,-83.3333333333333,4,2,1,70,0,0
258815,-83.3333333333333,4,2,1,5,0,0
258885,-83.3333333333333,4,2,1,70,0,0
259862,-142.857142857143,4,2,1,70,0,0
260002,-142.857142857143,4,2,2,70,0,0
260141,-71.4285714285714,4,2,1,70,0,0
260420,-83.3333333333333,4,2,1,70,0,0
261048,-83.3333333333333,4,2,1,5,0,0
261118,-83.3333333333333,4,2,1,70,0,0
262095,-71.4285714285714,4,2,1,70,0,0
262304,-71.4285714285714,4,2,1,5,0,0
262374,-71.4285714285714,4,2,1,70,0,0
262722,-71.4285714285714,4,2,1,5,0,0
262792,-71.4285714285714,4,2,1,70,0,0
263072,-66.6666666666667,4,2,1,70,0,0
263281,-66.6666666666667,4,2,1,5,0,0
263351,-66.6666666666667,4,2,1,70,0,0
263630,-66.6666666666667,4,2,2,70,0,0
263769,-66.6666666666667,4,2,1,70,0,0

[Colours]
Combo1 : 172,117,132
Combo2 : 128,128,192
Combo3 : 0,102,204
Combo4 : 245,173,107

[HitObjects]
69,147,886,6,0,P|126:92|183:120,1,135.099995877075,2|2,2:0|2:0,2:0:0:0:
207,179,1304,1,2,2:0:0:0:
157,243,1444,2,0,P|115:233|85:225,2,67.5499979385377,2|2|0,2:0|2:0|2:0,2:0:0:0:
221,291,1862,6,0,P|292:271|337:258,1,101.324996907806,2|0,2:0|2:0,2:0:0:0:
341,257,2141,1,2,2:0:0:0:
354,176,2281,2,0,P|316:187|266:202,1,67.5499979385377,2|2,2:0|2:0,2:0:0:0:
421,221,2560,2,0,P|435:185|426:153,2,67.5499979385377,2|2|2,2:0|2:0|2:0,2:0:0:0:
341,257,2979,1,2,2:0:0:0:
253,141,3118,6,0,P|303:122|349:202,1,135.099995877075,2|2,2:0|2:0,2:0:0:0:
213,210,3537,2,0,P|220:139|228:47,1,135.099995877075,2|2,2:0|2:0,2:0:0:0:
101,71,3955,1,2,2:0:0:0:
141,0,4095,6,0,L|141:152,1,135.099995877075,2|2,2:0|2:0,2:0:0:0:
104,207,4513,1,2,2:0:0:0:
4,157,4653,2,0,P|51:144|86:134,1,67.5499979385377,2|0,2:0|2:0,2:0:0:0:
67,278,4932,2,0,P|34:268|1:259,1,67.5499979385377,2|2,2:0|2:0,2:0:0:0:
104,207,5211,1,2,2:0:0:0:
165,260,5351,6,0,B|214:268|236:238|227:236|252:204|294:218,1,135.099995877075,2|2,2:0|2:0,2:0:0:0:
359,249,5769,1,2,2:0:0:0:
416,191,5909,2,0,P|401:146|396:121,2,67.5499979385377,2|2|2,2:0|2:0|2:0,2:0:0:0:
469,257,6327,6,0,P|510:216|475:136,1,135.099995877075,2|2,2:0|2:0,2:0:0:0:
426,99,6746,1,2,2:0:0:0:
353,135,6885,2,0,P|312:146|274:149,1,67.5499979385377,2|2,2:0|2:0,2:0:0:0:
243,80,7165,2,0,P|275:69|308:65,1,67.5499979385377,2|0,2:0|2:0,2:0:0:0:
198,150,7444,1,2,2:0:0:0:
198,150,7513,1,2,2:0:0:0:
198,150,7583,6,0,B|108:131|108:131|95:102|114:85,1,135.099995877075,2|2,2:0|2:0,2:0:0:0:
162,25,8002,1,2,2:0:0:0:
243,80,8141,2,0,P|276:76|308:65,1,67.5499979385377,2|2,2:0|2:0,2:0:0:0:
240,0,8420,5,2,2:0:0:0:
100,146,8560,1,2,2:0:0:0:
256,192,8630,12,10,10234,2:0:0:0:
100,146,10513,6,0,P|131:135|173:117,1,67.5499979385377,2|0,1:2|1:2,2:0:0:0:
287,211,10653,2,0,P|255:197|224:186,1,67.5499979385377,10|8,2:0|2:0,2:0:0:0:
68,254,10792,2,0,P|99:240|130:229,1,67.5499979385377,10|8,2:0|2:0,2:0:0:0:
229,332,10932,6,0,P|156:285|216:176,1,231.599992932129,6|8,1:2|2:0,2:0:0:0:
341,281,11351,1,2,2:0:0:0:
306,96,11490,2,0,P|295:159|284:225,1,115.799996466065,2|2,1:2|1:2,2:0:0:0:
401,118,11769,1,8,2:0:0:0:
212,3,11909,6,0,L|212:191,1,173.699994699097,2|0,1:2|2:0,2:0:0:0:
211,202,12188,1,2,1:2:0:0:
401,118,12327,2,0,B|353:76|353:76|298:93,1,115.799996466065,10|2,2:0|2:0,2:0:0:0:
213,219,12606,1,2,1:2:0:0:
105,130,12746,1,2,1:2:0:0:
213,219,12885,2,0,P|248:177|232:120,1,115.799996466065,10|2,2:0|2:0,2:0:0:0:
78,0,13165,6,0,L|79:236,1,231.599992932129,2|10,1:2|2:0,2:0:0:0:
171,334,13583,1,2,1:2:0:0:
280,247,13723,2,0,P|217:226|164:208,1,115.799996466065,0|2,2:0|1:2,2:0:0:0:
327,326,14002,1,10,2:0:0:0:
63,337,14141,6,0,B|122:311|157:354|147:357|186:388|234:364,1,173.699994699097,2|0,1:2|2:0,2:0:0:0:
247,353,14420,1,2,1:2:0:0:
170,210,14560,2,0,P|102:218|76:264,1,115.799996466065,10|14,2:0|2:0,2:0:0:0:
280,247,14839,1,2,2:0:0:0:
262,57,14979,1,10,2:0:0:0:
262,57,15048,1,10,2:0:0:0:
262,57,15118,6,0,P|246:147|238:197,1,125.449994257355,10|10,2:0|2:0,2:0:0:0:
415,315,15397,6,0,B|446:174|446:174|424:127|358:142,1,231.599992932129,6|8,1:2|2:0,2:0:0:0:
280,247,15816,1,2,2:0:0:0:
160,176,15955,2,0,P|231:157|277:143,1,115.799996466065,2|2,1:2|1:2,2:0:0:0:
69,152,16234,1,8,2:0:0:0:
160,2,16374,6,0,L|160:190,1,173.699994699097,2|0,1:2|2:0,2:0:0:0:
159,201,16653,1,2,1:2:0:0:
338,117,16792,2,0,P|284:67|229:82,1,115.799996466065,10|2,2:0|2:0,2:0:0:0:
325,248,17072,1,2,1:2:0:0:
435,114,17211,1,2,1:2:0:0:
238,181,17351,1,8,2:0:0:0:
493,224,17490,1,2,2:0:0:0:
323,0,17630,6,0,L|323:191,1,188.174991386033,6|0,1:2|2:0,2:0:0:0:
323,218,17909,1,10,2:0:0:0:
180,293,18048,6,0,B|242:268|285:320|265:324|304:376|374:347,1,202.649993815613,6|0,1:2|2:0,2:0:0:0:
392,337,18327,1,2,1:2:0:0:
323,188,18467,1,10,2:0:0:0:
156,369,18606,6,0,B|32:343|32:343|1:298|38:256,1,217.125008282662,6|0,1:2|2:0,2:0:0:0:
52,239,18885,1,0,1:0:0:0:
178,377,19025,1,12,2:0:0:0:
177,153,19165,1,8,2:0:0:0:
177,153,19234,1,8,2:0:0:0:
177,153,19304,6,0,P|129:219|141:279,1,144.750005521775,8|4,2:0|2:3,2:0:0:0:
265,155,19583,6,0,P|289:98|262:44,1,115.799996466065,6|10,2:3|2:3,2:0:0:0:
100,0,19862,6,0,L|100:193,2,173.699994699097,6|8|2,1:2|2:0|1:2,2:0:0:0:
184,124,20560,1,0,1:0:0:0:
184,124,20839,6,0,B|139:122|120:155|128:155|105:186|53:183,1,130.274996024323,8|0,2:0|2:0,2:0:0:0:
46,176,21118,1,0,1:0:0:0:
183,35,21258,2,0,P|237:7|306:93,1,173.699994699097,8|2,2:0|2:0,2:0:0:0:
377,154,21676,1,2,1:2:0:0:
469,95,21816,2,0,P|408:76|369:62,1,86.8499973495484,8|0,2:0|2:0,2:0:0:0:
298,186,22095,6,0,B|336:140|390:165|390:165|414:204|463:208,2,173.699994699097,2|8|0,1:2|2:0|1:0,2:0:0:0:
238,271,22792,1,0,1:0:0:0:
238,271,23072,6,0,P|188:221|220:164,1,130.274996024323,10|0,2:0|2:0,2:0:0:0:
223,157,23351,1,0,1:0:0:0:
337,271,23490,2,0,B|446:251|446:251|401:238|379:219,1,173.699994699097,10|2,2:0|1:2,2:0:0:0:
305,162,23909,1,0,1:0:0:0:
230,282,24048,2,0,P|189:272|141:262,1,86.8499973495484,10|0,2:0|2:0,2:0:0:0:
141,113,24327,6,0,B|217:129|217:129|235:146|235:146|309:162,2,173.699994699097,0|10|2,1:0|2:0|1:2,2:0:0:0:
54,171,25025,1,0,1:0:0:0:
54,171,25304,6,0,B|144:140|144:140|97:117,1,130.274996024323,10|0,2:0|2:0,2:0:0:0:
85,112,25583,1,0,1:0:0:0:
257,261,25723,2,0,B|141:226|141:226|188:203,1,173.699994699097,10|2,2:0|2:0,2:0:0:0:
334,218,26141,1,0,1:0:0:0:
284,96,26281,2,0,P|271:141|258:187,1,86.8499973495484,10|0,2:0|2:0,2:0:0:0:
481,146,26560,6,0,B|435:138|408:181|421:184|391:228|322:216,1,173.699994699097,0|10,1:0|2:0,2:0:0:0:
284,96,26979,1,10,2:0:0:0:
284,96,27048,1,2,2:0:0:0:
284,96,27118,2,0,P|341:97|367:126,1,86.8499973495484,2|2,1:2|1:2,2:0:0:0:
177,144,27397,1,2,2:0:0:0:
250,0,27537,6,0,L|250:150,1,130.274996024323,10|0,2:0|2:0,2:0:0:0:
249,156,27816,1,2,1:2:0:0:
96,89,27955,2,0,P|158:71|187:61,1,86.8499973495484,10|2,2:0|2:0,2:0:0:0:
34,174,28234,6,0,P|18:118|0:63,1,115.799996466065,2|8,1:2|2:0,2:0:0:0:
177,144,28513,6,0,P|162:189|147:245,1,96.5,6|10,2:3|2:3,2:0:0:0:
56,284,28792,6,0,B|116:259|148:305|139:303|178:348|231:323,2,173.699994699097,6|8|2,1:2|2:0|1:2,2:0:0:0:
232,219,29490,1,0,1:0:0:0:
232,219,29769,6,0,P|316:207|337:261,1,130.274996024323,8|0,2:0|2:0,2:0:0:0:
345,267,30048,1,0,1:0:0:0:
219,225,30188,2,0,P|152:172|212:106,1,173.699994699097,8|2,2:0|2:0,2:0:0:0:
343,122,30606,1,2,1:2:0:0:
285,34,30746,2,0,P|276:77|264:125,1,86.8499973495484,8|0,2:0|2:0,2:0:0:0:
433,117,31025,6,0,B|373:103|343:145|343:145|336:188|290:197,2,173.699994699097,2|8|0,1:2|2:0|1:0,2:0:0:0:
481,208,31723,1,0,1:0:0:0:
481,208,32002,6,0,B|463:110|463:110|510:137,1,130.274996024323,10|0,2:0|2:0,2:0:0:0:
509,140,32281,1,0,1:0:0:0:
396,231,32420,2,0,B|373:350|373:350|420:323,1,173.699994699097,10|2,2:0|1:2,2:0:0:0:
481,208,32839,1,0,1:0:0:0:
418,323,32979,2,0,L|330:345,1,86.8499973495484,10|0,2:0|2:0,2:0:0:0:
227,273,33258,6,0,L|396:230,2,173.699994699097,0|10|2,1:0|2:0|1:2,2:0:0:0:
126,298,33955,1,0,1:0:0:0:
126,298,34234,6,0,P|59:268|79:204,1,130.274996024323,10|0,2:0|2:0,2:0:0:0:
75,201,34513,1,0,1:0:0:0:
137,309,34653,2,0,B|250:275|250:275|219:269|194:251,1,173.699994699097,10|2,2:0|2:0,2:0:0:0:
65,370,35072,1,0,1:0:0:0:
137,309,35211,2,0,P|93:298|51:289,1,86.8499973495484,10|0,2:0|2:0,2:0:0:0:
209,364,35490,6,0,P|241:309|340:323,1,173.699994699097,0|10,1:0|2:0,2:0:0:0:
474,249,35909,1,8,2:0:0:0:
511,345,36048,2,0,P|443:322|420:317,1,86.8499973495484,0|0,1:0|1:0,2:0:0:0:
391,222,36327,2,0,P|459:245|482:250,1,86.8499973495484,0|10,2:0|2:0,2:0:0:0:
410,135,36606,5,2,2:0:0:0:
309,216,36746,1,0,1:0:0:0:
488,161,36885,1,10,2:0:0:0:
322,35,37025,1,10,2:0:0:0:
322,35,37095,1,8,2:0:0:0:
322,35,37165,6,0,P|305:93|323:134,1,106.150003239441,8|4,2:0|2:3,2:0:0:0:
488,161,37444,6,0,P|502:111|483:68,1,86.8499973495484,10|6,2:3|2:3,2:0:0:0:
407,0,37723,6,0,L|407:171,1,154.4,6|0,1:2|2:0,2:0:0:0:
448,236,38141,1,2,1:2:0:0:
390,308,38281,2,0,P|343:257|288:273,1,115.8,10|0,2:0|2:0,2:0:0:0:
288,273,38560,1,2,1:2:0:0:
390,323,38699,6,0,B|438:302|438:302|448:291|448:291|512:267,1,115.8,2|0,2:0|2:0,2:0:0:0:
508,266,38979,1,8,2:0:0:0:
490,175,39118,2,0,L|403:209,1,77.2,2|2,2:0|1:2,2:0:0:0:
297,119,39397,2,0,P|343:119|369:139,1,77.2,10|6,2:0|2:3,2:0:0:0:
214,143,39676,2,0,P|226:84|231:50,1,77.2,10|6,2:3|2:3,2:0:0:0:
268,279,39955,6,0,B|216:257|159:244|159:244|189:238|222:222,1,159.225004859162,6|0,1:2|2:0,2:0:0:0:
218,219,40234,1,10,2:0:0:0:
336,323,40374,6,0,B|379:304|426:294|426:294|401:289|390:283,1,130.274996024323,6|0,1:2|2:0,2:0:0:0:
376,267,40653,1,10,2:0:0:0:
273,373,40792,6,0,B|253:320|307:269|307:296|353:241|330:179,1,202.649993815613,6|8,1:2|2:0,2:0:0:0:
332,96,41351,6,0,P|370:108|410:121,1,77.2,2|2,1:2|2:0,2:0:0:0:
333,190,41630,2,0,P|295:178|255:165,1,77.2,10|2,2:0|1:2,2:0:0:0:
144,72,41909,2,0,P|182:60|222:47,1,77.2,2|6,2:0|2:3,2:0:0:0:
227,60,42118,1,4,2:3:0:0:
227,60,42188,6,0,B|126:96|126:96|95:77|104:47,1,154.4,6|2,1:2|2:0,2:0:0:0:
269,138,42606,1,2,1:2:0:0:
211,220,42746,2,0,P|186:177|190:143,1,77.2,8|2,2:0|2:0,2:0:0:0:
282,0,43025,6,0,L|282:160,1,154.4,6|0,1:2|2:0,2:0:0:0:
330,233,43444,1,8,2:0:0:0:
433,177,43583,2,0,P|382:161|347:147,1,77.2,2|2,1:2|2:0,2:0:0:0:
488,261,43862,2,0,P|504:210|518:175,1,77.2,10|0,2:0|1:0,2:0:0:0:
399,312,44141,2,0,P|450:328|485:342,1,77.2,6|4,2:3|2:3,2:0:0:0:
344,243,44420,6,0,B|298:234|273:275|289:275|258:316|207:304,1,154.4,4|2,1:2|2:0,2:0:0:0:
134,254,44839,1,2,1:2:0:0:
168,167,44979,2,0,P|211:168|241:197,1,77.2,10|0,2:0|2:0,2:0:0:0:
75,182,45258,1,2,1:2:0:0:
220,69,45397,1,2,1:2:0:0:
220,69,45676,6,0,P|146:53|92:40,1,115.799996466065,12|2,2:0|2:0,2:0:0:0:
247,199,45955,1,6,2:3:0:0:
247,199,46025,1,4,2:3:0:0:
247,199,46095,1,2,1:2:0:0:
333,91,46234,6,0,B|274:80|245:132|262:128|227:178|165:166,1,193,12|4,2:0|2:3,2:0:0:0:
437,56,46653,6,0,B|424:90|401:139|401:139|421:175|461:171,1,154.4,6|0,1:2|2:0,2:0:0:0:
333,91,47072,1,2,1:2:0:0:
436,44,47211,2,0,P|478:61|521:75,1,77.2,14|0,2:0|2:0,2:0:0:0:
253,79,47490,1,2,1:2:0:0:
303,1,47630,6,0,L|303:168,1,154.4,2|8,1:2|2:0,2:0:0:0:
173,206,48048,2,0,B|135:189|135:189|222:167,1,115.8,2|0,2:0|2:0,2:0:0:0:
230,167,48327,1,10,2:0:0:0:
146,105,48467,1,6,2:3:0:0:
293,209,48606,6,0,P|306:173|299:147,1,57.8999982330323,10|4,2:3|2:3,2:0:0:0:
206,35,48885,6,0,B|167:34|139:53|139:53|125:72|125:72|99:97|48:92,1,159.225004859162,6|0,1:2|2:0,2:0:0:0:
41,81,49165,1,10,2:0:0:0:
38,226,49304,6,0,P|74:172|148:193,1,130.274996024323,6|0,1:2|2:0,2:0:0:0:
153,196,49583,1,10,2:0:0:0:
302,142,49723,6,0,B|299:93|241:72|195:115|195:115|225:127|237:165,1,202.649993815613,6|8,1:2|2:0,2:0:0:0:
208,325,50281,6,0,P|219:283|228:232,1,77.2,2|0,1:2|2:0,2:0:0:0:
372,332,50560,2,0,P|330:321|279:312,1,77.2,10|6,2:0|1:2,2:0:0:0:
438,213,50839,2,0,P|399:228|363:241,1,77.2,2|6,2:0|2:3,2:0:0:0:
297,109,51118,6,0,B|333:100|347:123|341:125|356:145|384:137,1,86.8499973495484,6|0,1:2|2:0,2:0:0:0:
397,140,51397,6,0,P|387:91|378:30,1,96.5,10|2,2:0|2:0,2:0:0:0:
212,122,51676,2,0,P|222:84|235:18,1,96.5,8|2,2:0|2:0,2:0:0:0:
111,232,51955,6,0,B|237:272|237:272|211:239|200:208,1,193,6|0,1:2|2:0,2:0:0:0:
199,201,52374,1,0,1:0:0:0:
118,321,52513,6,0,L|-11:277,1,125.449994257355,10|0,2:0|2:0,2:0:0:0:
4,77,52792,5,10,1:2:0:0:
4,77,52862,1,8,2:0:0:0:
4,77,52932,2,0,P|45:90|90:106,1,67.5499979385377,10|8,2:0|2:0,2:0:0:0:
199,201,53072,5,10,1:2:0:0:
199,201,53141,1,8,2:0:0:0:
199,201,53212,2,0,P|240:188|285:172,1,67.5499979385377,8|8,2:0|2:0,2:0:0:0:
252,74,53351,6,0,B|183:67|149:128|162:127|131:188|51:173,2,231.599992932129,4|8|0,1:2|2:0|1:0,2:0:0:0:
344,176,54048,1,0,1:0:0:0:
252,74,54188,1,8,2:0:0:0:
344,176,54327,6,0,B|459:136|459:136|467:97|435:70,1,173.699994699097,0|0,1:0|2:0,2:0:0:0:
430,66,54606,1,0,1:0:0:0:
338,193,54746,2,0,P|279:176|206:153,1,115.799996466065,10|2,2:0|2:0,2:0:0:0:
157,38,55025,2,0,P|216:57|289:80,1,115.799996466065,2|0,1:2|1:0,2:0:0:0:
166,214,55304,2,0,P|122:167|142:110,1,115.799996466065,10|0,2:0|2:0,2:0:0:0:
317,0,55583,6,0,L|317:249,1,231.599992932129,0|8,1:0|2:0,2:0:0:0:
398,344,56002,1,0,2:0:0:0:
500,251,56141,2,0,P|425:224|374:203,1,115.799996466065,0|0,1:0|1:0,2:0:0:0:
306,367,56420,1,8,2:0:0:0:
166,214,56560,6,0,B|221:182|270:230|270:230|277:269|317:288,1,173.699994699097,0|0,1:0|2:0,2:0:0:0:
330,278,56839,1,0,1:0:0:0:
141,372,56979,2,0,P|107:332|127:256,1,115.799996466065,10|2,2:0|2:0,2:0:0:0:
267,119,57258,2,0,P|250:201|242:246,1,115.799996466065,2|0,1:2|1:0,2:0:0:0:
40,255,57537,2,0,P|57:173|65:128,1,115.799996466065,10|2,2:0|2:0,2:0:0:0:
151,0,57816,6,0,L|151:194,1,188.174991386033,6|0,1:2|2:0,2:0:0:0:
151,224,58095,1,2,1:2:0:0:
389,155,58234,6,0,P|309:96|256:135,1,159.225004859162,10|0,2:0|2:0,2:0:0:0:
244,147,58513,1,0,1:0:0:0:
383,286,58653,6,0,B|476:258|476:258|443:249,1,130.274996024323,10|0,2:0|2:0,2:0:0:0:
376,296,58932,6,0,B|342:262|302:275|302:275|292:299|266:308,1,130.274996024323,4|0,1:2|2:0,2:0:0:0:
195,262,59211,6,0,L|134:286,2,57.8999982330323,10|8|8,2:0|2:0|2:0,2:0:0:0:
244,147,59490,6,0,B|284:139|306:165|301:167|328:190|370:180,2,115.799996466065,10|4|4,2:0|2:3|2:3,2:0:0:0:
180,74,60048,5,6,1:2:0:0:
256,192,60118,12,10,62002,2:0:0:0:
180,74,62281,6,0,B|123:61|92:113|100:114|79:161|11:151,1,188.174991386033,6|0,1:2|2:0,2:0:0:0:
0,139,62560,1,10,2:0:0:0:
183,205,62699,6,0,P|190:140|199:72,1,125.449994257355,2|0,1:2|2:0,2:0:0:0:
123,323,62979,2,0,P|180:303|252:283,1,125.449994257355,2|2,1:2|2:0,2:0:0:0:
391,131,63258,6,0,B|313:153|313:153|287:175|287:175|199:202,1,188.174991386033,6|0,1:2|2:0,2:0:0:0:
183,205,63537,1,0,1:0:0:0:
395,326,63676,6,0,P|435:269|415:201,1,135.099995877075,12|0,2:0|2:0,2:0:0:0:
255,28,63955,5,10,1:2:0:0:
255,28,64025,1,8,2:0:0:0:
255,28,64095,2,0,P|250:70|240:119,1,67.5499979385377,8|8,2:0|2:0,2:0:0:0:
17,225,64234,5,10,1:2:0:0:
17,225,64304,1,8,2:0:0:0:
17,225,64374,2,0,P|22:183|32:134,1,67.5499979385377,8|8,2:0|2:0,2:0:0:0:
133,0,64513,6,0,L|133:262,1,250.89998851471,6|8,1:2|2:0,2:0:0:0:
235,361,64932,1,0,2:0:0:0:
350,263,65072,2,0,P|254:235|214:218,1,125.449994257355,2|0,1:2|1:0,2:0:0:0:
393,365,65351,2,0,P|451:343|512:327,1,125.449994257355,10|0,2:0|2:0,2:0:0:0:
505,177,65630,6,0,B|450:168|418:220|438:217|399:278|336:260,1,188.174991386033,0|0,1:0|2:0,2:0:0:0:
313,250,65909,1,10,2:0:0:0:
404,131,66048,1,2,1:2:0:0:
313,250,66188,2,0,P|270:203|292:126,1,125.449994257355,2|0,2:0|1:0,2:0:0:0:
367,26,66467,2,0,P|410:73|387:149,1,125.449994257355,8|0,2:0|2:0,2:0:0:0:
239,15,66746,5,0,1:0:0:0:
404,131,66885,1,2,2:0:0:0:
167,131,67025,1,10,2:0:0:0:
367,26,67165,1,2,2:0:0:0:
313,250,67304,2,0,P|251:234|187:218,1,125.449994257355,2|2,1:2|1:2,2:0:0:0:
118,70,67583,2,0,P|180:86|244:102,1,125.449994257355,10|2,2:0|2:0,2:0:0:0:
504,67,67862,6,0,B|449:58|417:110|437:107|398:168|335:150,1,188.174991386033,0|0,1:0|2:0,2:0:0:0:
309,142,68141,1,10,2:0:0:0:
399,20,68281,1,0,1:0:0:0:
498,192,68420,2,0,P|529:142|509:77,1,125.449994257355,0|0,2:0|1:0,2:0:0:0:
281,0,68699,6,0,L|281:225,1,202.649993815613,14|0,2:0|2:0,2:0:0:0:
296,240,68979,6,0,P|270:165|135:209,1,250.89998851471,6|8,1:2|2:0,2:0:0:0:
307,334,69397,1,0,2:0:0:0:
122,327,69537,2,0,P|178:278|229:290,1,125.449994257355,2|0,1:2|1:0,2:0:0:0:
346,153,69816,1,10,2:0:0:0:
440,346,69955,6,0,B|315:320|315:320|301:291|315:260,1,188.174991386033,2|0,2:0|2:0,2:0:0:0:
334,242,70234,1,2,2:0:0:0:
481,137,70374,2,0,P|455:227|445:268,1,125.449994257355,10|0,2:0|1:0,2:0:0:0:
292,75,70653,2,0,P|379:54|423:40,1,125.449994257355,0|0,2:0|1:0,2:0:0:0:
227,184,70932,2,0,P|166:166|105:152,1,125.449994257355,10|2,2:0|2:0,2:0:0:0:
24,6,71211,6,0,L|24:191,1,173.699994699097,6|0,1:2|2:0,2:0:0:0:
24,204,71490,1,2,2:0:0:0:
153,81,71630,1,10,2:0:0:0:
24,204,71769,6,0,P|64:173|117:175,1,77.2,6|4,2:3|2:3,2:0:0:0:
214,302,72048,6,0,B|97:287|97:287|142:253,1,159.225004859162,6|0,1:2|2:0,2:0:0:0:
144,240,72327,1,0,1:0:0:0:
282,357,72467,1,8,2:0:0:0:
399,219,72606,5,8,2:0:0:0:
373,197,72676,1,8,2:0:0:0:
339,190,72746,1,8,2:0:0:0:
308,201,72816,1,8,2:0:0:0:
286,225,72885,6,0,P|297:140|300:73,1,135.099995877075,10|4,2:0|2:3,2:0:0:0:
492,292,73165,6,0,P|481:207|478:165,1,96.5,10|6,2:3|2:3,2:0:0:0:
402,16,73444,6,0,L|402:120,1,101.324996907806,2|0,1:2|2:0,2:0:0:0:
415,143,73723,6,0,P|355:85|273:110,1,144.750005521775,12|0,2:0|2:0,2:0:0:0:
185,189,74002,5,2,1:2:0:0:
66,97,74141,1,0,1:0:0:0:
185,189,74281,2,0,P|227:140|210:77,1,125.449994257355,10|2,2:0|2:0,2:0:0:0:
62,0,74560,6,0,L|62:262,1,250.89998851471,0|10,1:0|2:0,2:0:0:0:
166,360,74979,1,2,1:2:0:0:
270,252,75118,2,0,P|194:237|137:217,1,125.449994257355,2|0,2:0|1:0,2:0:0:0:
348,332,75397,2,0,P|407:312|469:301,1,125.449994257355,8|0,2:0|2:0,2:0:0:0:
372,141,75676,5,0,1:0:0:0:
270,252,75816,1,2,2:0:0:0:
452,182,75955,1,10,2:0:0:0:
250,108,76095,1,2,2:0:0:0:
348,332,76234,2,0,P|407:312|469:301,1,125.449994257355,2|0,1:2|1:0,2:0:0:0:
493,110,76513,2,0,P|433:129|371:140,1,125.449994257355,10|2,2:0|2:0,2:0:0:0:
106,183,76792,6,0,B|163:164|196:214|184:216|217:267|290:248,1,188.174991386033,2|0,1:2|2:0,2:0:0:0:
303,234,77072,1,10,2:0:0:0:
189,116,77211,1,0,1:0:0:0:
306,21,77351,2,0,P|290:90|276:165,1,125.449994257355,0|0,2:0|1:0,2:0:0:0:
58,256,77630,6,0,P|2:216|42:92,1,202.649993815613,14|0,2:0|2:0,2:0:0:0:
51,81,77909,6,0,B|104:92|154:99|154:99|184:138|184:138|234:144|294:158,1,250.89998851471,6|8,1:2|2:0,2:0:0:0:
421,204,78327,1,0,2:0:0:0:
471,61,78467,2,0,P|395:60|366:106,1,125.449994257355,2|0,1:2|1:0,2:0:0:0:
512,158,78746,1,10,2:0:0:0:
293,0,78885,6,0,L|293:193,1,188.174991386033,2|0,1:2|2:0,2:0:0:0:
293,213,79165,1,2,1:2:0:0:
407,309,79304,2,0,P|448:249|426:201,1,125.449994257355,10|0,2:0|2:0,2:0:0:0:
210,361,79583,2,0,P|268:345|341:330,1,125.449994257355,0|0,2:0|1:0,2:0:0:0:
341,122,79862,2,0,P|282:137|210:153,1,125.449994257355,10|2,2:0|2:0,2:0:0:0:
13,219,80141,6,0,B|62:189|109:236|96:238|131:290|193:263,1,188.174991386033,6|0,1:2|2:0,2:0:0:0:
219,256,80420,1,10,2:0:0:0:
121,140,80560,1,2,2:0:0:0:
219,256,80699,1,2,1:2:0:0:
194,65,80839,1,2,1:2:0:0:
13,219,80979,1,10,2:0:0:0:
268,142,81118,1,2,1:2:0:0:
23,0,81258,6,0,B|23:260,1,250.89998851471,2|10,2:0|2:0,2:0:0:0:
115,368,81676,1,2,2:0:0:0:
219,256,81816,2,0,P|175:216|108:222,1,125.449994257355,0|0,1:0|1:0,2:0:0:0:
332,339,82095,6,0,B|461:307|461:307|411:300|386:280,1,202.649993815613,10|0,2:0|2:0,2:0:0:0:
375,266,82374,5,6,1:2:0:0:
319,350,82513,2,0,B|328:287|328:287|320:250|320:250|336:177,1,154.4,0|2,1:0|1:2,2:0:0:0:
340,170,82862,1,0,1:2:0:0:
340,170,82932,2,0,P|302:178|255:190,1,77.2,14|0,2:0|2:0,2:0:0:0:
145,110,83211,1,0,1:0:0:0:
149,216,83351,6,0,B|248:184|248:184|182:164,1,154.4,2|8,1:2|2:0,2:0:0:0:
136,223,83769,2,0,P|100:212|57:203,1,77.2,2|10,1:2|2:0,2:0:0:0:
49,182,83979,1,8,2:0:0:0:
49,182,84048,2,0,P|84:192|128:202,1,77.2,10|4,2:0|2:3,2:0:0:0:
145,110,84327,2,0,P|109:99|66:90,1,77.2,10|4,2:3|2:3,2:0:0:0:
340,170,84606,6,0,B|440:195|501:151|518:76|445:27|400:47|378:112,1,308.8,4|2,1:2|2:0,2:0:0:0:
383,98,86839,6,0,B|397:168|397:168|385:208|385:208|401:291,2,193,6|8|0,1:2|2:0|1:0,2:0:0:0:
468,218,87537,1,0,1:0:0:0:
315,152,87676,2,0,P|294:100|314:59,1,96.5,8|0,2:0|2:0,2:0:0:0:
474,0,87955,6,0,L|474:158,1,144.75,2|0,1:2|2:0,2:0:0:0:
475,175,88234,1,8,2:0:0:0:
269,245,88374,2,0,B|319:231|341:266|331:267|364:300|406:284,1,144.75,2|0,1:2|2:0,2:0:0:0:
424,275,88653,1,0,1:0:0:0:
315,152,88792,2,0,P|258:169|220:179,1,96.5,10|0,2:0|2:0,2:0:0:0:
134,256,89072,5,6,1:2:0:0:
237,93,89211,1,10,2:0:0:0:
237,93,89281,1,10,2:0:0:0:
237,93,89351,1,10,2:0:0:0:
63,199,89490,1,10,2:0:0:0:
315,152,89630,5,6,1:2:0:0:
87,82,89769,1,10,2:0:0:0:
87,82,89839,1,10,2:0:0:0:
87,82,89909,1,10,2:0:0:0:
259,268,90048,1,10,2:0:0:0:
329,66,90188,6,0,P|280:82|224:95,1,96.5,4|10,1:2|2:0,2:0:0:0:
182,195,90467,2,0,P|231:179|287:166,1,96.5,2|10,1:2|2:0,2:0:0:0:
476,297,90746,6,0,P|452:289|430:281,1,48.25,8|0,2:0|2:0,2:0:0:0:
364,245,90885,2,0,P|387:252|409:260,1,48.25,2|0,1:2|1:2,2:0:0:0:
452,370,91025,6,0,P|426:362|401:355,1,53.0750016197205,10|0,2:0|2:0,2:0:0:0:
364,160,91165,2,0,P|389:167|414:174,1,53.0750016197205,10|8,2:0|2:0,2:0:0:0:
497,286,91304,6,0,B|429:259|379:313|396:318|352:362|283:335,1,231.599992932129,6|8,1:2|2:0,2:0:0:0:
161,283,91723,1,2,2:0:0:0:
256,148,91862,2,0,P|277:204|246:259,1,115.799996466065,2|2,1:2|1:2,2:0:0:0:
61,204,92141,1,8,2:0:0:0:
162,0,92281,6,0,L|162:174,1,173.699994699097,2|0,1:2|2:0,2:0:0:0:
162,202,92560,1,2,1:2:0:0:
351,137,92699,2,0,P|266:113|219:93,1,115.799996466065,10|2,2:0|2:0,2:0:0:0:
402,254,92979,2,0,P|456:233|512:219,1,115.799996466065,2|2,1:2|1:2,2:0:0:0:
507,21,93258,2,0,P|452:41|396:55,1,115.799996466065,10|2,2:0|2:0,2:0:0:0:
240,102,93537,6,0,B|308:75|358:129|341:134|385:178|454:151,1,231.599992932129,2|10,1:2|2:0,2:0:0:0:
373,37,93955,1,2,1:2:0:0:
259,185,94095,2,0,P|198:177|157:133,1,115.799996466065,0|2,2:0|1:2,2:0:0:0:
376,122,94374,1,10,2:0:0:0:
261,0,94513,6,0,L|261:194,1,173.699994699097,2|0,1:2|2:0,2:0:0:0:
261,210,94792,1,2,1:2:0:0:
72,138,94932,2,0,P|134:119|198:93,1,115.799996466065,10|14,2:0|2:0,2:0:0:0:
17,221,95211,1,2,2:0:0:0:
181,100,95351,1,10,2:0:0:0:
181,100,95420,1,10,2:0:0:0:
181,100,95490,1,10,2:0:0:0:
17,221,95630,1,10,2:0:0:0:
238,296,95769,6,0,L|182:278,1,33.7749989692688,6|4,2:3|2:3,2:0:0:0:
135,272,95909,2,0,L|191:290,1,33.7749989692688,4|4,2:3|2:3,2:0:0:0:
317,159,96048,6,0,B|255:179|255:179|248:189|248:189|180:211,1,135.099995877075,8|6,2:0|1:2,2:0:0:0:
368,315,96327,6,0,B|406:264|406:264|384:210,1,115.799996466065,2|2,2:0|1:2,2:0:0:0:
193,206,96606,1,8,2:0:0:0:
312,0,96746,6,0,L|312:181,1,173.699994699097,2|0,1:2|2:0,2:0:0:0:
312,204,97025,1,2,1:2:0:0:
137,134,97165,2,0,P|196:90|251:105,1,115.799996466065,10|2,2:0|2:0,2:0:0:0:
312,204,97444,1,2,1:2:0:0:
395,93,97583,1,2,1:2:0:0:
193,206,97723,1,8,2:0:0:0:
422,260,97862,1,2,2:0:0:0:
234,95,98002,6,0,P|177:94|124:153,1,135.099995877075,6|0,1:2|2:0,2:0:0:0:
312,204,98281,1,10,2:0:0:0:
112,280,98420,6,0,B|153:234|222:264|222:264|244:311|289:308,1,202.649993815613,6|0,1:2|2:0,2:0:0:0:
310,304,98699,1,2,1:2:0:0:
125,148,98839,1,10,2:0:0:0:
416,142,98979,6,0,B|335:165|335:165|316:192|316:192|218:222,1,217.125008282662,6|0,1:2|2:0,2:0:0:0:
188,231,99258,1,0,1:0:0:0:
459,351,99397,1,8,2:0:0:0:
479,331,99467,1,4,2:3:0:0:
487,299,99537,1,4,2:3:0:0:
481,270,99606,1,4,2:3:0:0:
460,249,99676,6,0,B|410:240|386:277|399:275|375:309|326:305,1,144.750005521775,8|0,2:0|1:0,2:0:0:0:
125,148,99955,6,0,B|165:151|189:117|176:119|200:82|254:92,1,135.099995877075,10|6,2:0|2:3,2:0:0:0:
262,95,100165,1,4,2:3:0:0:
262,95,100234,6,0,B|150:64|150:64|181:56|201:34,2,173.699994699097,6|8|2,1:2|2:0|1:2,2:0:0:0:
347,34,100932,1,2,1:2:0:0:
347,34,101211,6,0,P|397:21|439:88,1,130.274996024323,8|0,2:0|2:0,2:0:0:0:
439,103,101490,1,0,1:0:0:0:
312,255,101630,2,0,B|325:201|325:201|343:182|343:182|356:132,1,130.274996024323,8|0,2:0|2:0,2:0:0:0:
361,111,101909,1,2,2:0:0:0:
414,248,102048,1,2,1:2:0:0:
278,135,102188,2,0,P|210:154|175:162,1,86.8499973495484,10|0,2:0|2:0,2:0:0:0:
110,279,102467,6,0,B|163:258|197:298|188:298|221:337|269:323,2,173.699994699097,2|8|0,1:2|2:0|1:0,2:0:0:0:
26,341,103165,1,0,1:0:0:0:
26,341,103444,6,0,B|13:295|13:295|23:262|23:262|8:205,1,130.274996024323,10|0,2:0|2:0,2:0:0:0:
3,192,103723,1,0,1:0:0:0:
15,360,103862,2,0,B|40:327|83:338|83:338|105:364|141:366,1,130.274996024323,10|0,2:0|2:0,2:0:0:0:
161,361,104141,1,2,1:2:0:0:
94,255,104281,1,2,1:2:0:0:
193,194,104420,2,0,P|179:251|171:284,1,86.8499973495484,10|0,2:0|2:0,2:0:0:0:
115,130,104699,6,0,B|157:122|183:151|183:151|190:174|190:174|214:205|267:209,2,173.699994699097,0|10|2,1:0|2:0|2:0,2:0:0:0:
3,192,105397,1,0,1:0:0:0:
3,192,105676,6,0,B|90:160|90:160|39:141,1,130.274996024323,10|0,2:0|2:0,2:0:0:0:
31,133,105955,1,0,1:0:0:0:
221,278,106095,2,0,B|105:238|105:238|180:210,1,173.699994699097,10|2,2:0|2:0,2:0:0:0:
295,235,106513,1,0,1:0:0:0:
250,105,106653,2,0,P|237:148|224:188,1,86.8499973495484,10|0,2:0|2:0,2:0:0:0:
411,186,106932,6,0,P|342:161|298:248,2,173.699994699097,0|10|0,1:0|2:0|1:0,2:0:0:0:
470,272,107630,1,0,1:0:0:0:
470,272,107909,6,0,P|479:212|491:129,1,130.274996024323,8|0,2:0|2:0,2:0:0:0:
495,116,108188,1,0,1:0:0:0:
480,289,108327,2,0,P|438:277|379:262,1,86.8499973495484,8|0,2:0|2:0,2:0:0:0:
323,155,108606,2,0,P|365:167|424:182,1,86.8499973495484,0|8,1:0|2:0,2:0:0:0:
274,315,108885,1,6,2:3:0:0:
223,223,109025,1,6,2:3:0:0:
223,223,109095,1,4,2:3:0:0:
223,223,109165,6,0,B|281:201|315:243|307:243|335:280|399:263,2,173.699994699097,6|8|2,1:2|2:0|1:2,2:0:0:0:
141,287,109862,1,2,1:2:0:0:
141,287,110141,6,0,B|48:255|48:255|73:250|97:238,1,130.274996024323,8|0,2:0|2:0,2:0:0:0:
94,223,110420,1,0,1:0:0:0:
206,337,110560,2,0,P|192:258|180:187,1,130.274996024323,8|0,2:0|2:0,2:0:0:0:
177,180,110839,1,2,2:0:0:0:
279,280,110979,1,2,1:2:0:0:
344,168,111118,2,0,P|292:186|248:201,1,86.8499973495484,8|0,2:0|2:0,2:0:0:0:
130,88,111397,6,0,P|195:52|237:130,2,173.699994699097,2|8|0,1:2|2:0|1:0,2:0:0:0:
49,154,112095,1,0,1:0:0:0:
49,154,112374,6,0,B|27:76|27:76|37:42|61:37,1,130.274996024323,10|0,2:0|2:0,2:0:0:0:
74,35,112653,1,0,1:0:0:0:
68,159,112792,2,0,B|46:237|46:237|56:271|80:276,1,130.274996024323,10|0,2:0|2:0,2:0:0:0:
93,278,113071,1,2,1:2:0:0:
156,194,113211,1,0,1:0:0:0:
258,301,113351,2,0,P|205:282|174:273,1,86.8499973495484,10|0,2:0|2:0,2:0:0:0:
226,140,113630,6,0,B|288:124|314:173|303:172|325:214|394:199,2,173.699994699097,0|10|2,1:0|2:0|1:2,2:0:0:0:
144,204,114327,1,0,1:0:0:0:
144,204,114606,6,0,P|156:137|169:51,1,130.274996024323,10|0,2:0|2:0,2:0:0:0:
170,48,114885,1,0,1:0:0:0:
335,6,115025,2,0,P|323:73|310:159,1,130.274996024323,10|0,2:0|2:0,2:0:0:0:
309,162,115304,1,2,2:0:0:0:
244,79,115444,1,0,1:0:0:0:
390,142,115583,2,0,P|432:128|478:111,1,86.8499973495484,10|0,2:0|2:0,2:0:0:0:
386,234,115862,5,12,2:0:0:0:
309,162,116002,1,0,1:0:0:0:
309,162,116072,1,0,1:0:0:0:
309,162,116141,1,0,1:0:0:0:
466,248,116281,1,0,1:0:0:0:
361,347,116420,6,0,P|372:300|389:210,1,115.799996466065,12|0,2:0|2:0,2:0:0:0:
224,280,116699,1,0,1:0:0:0:
281,153,116839,6,0,P|290:192|307:282,1,106.150003239441,6|6,2:3|2:3,2:0:0:0:
221,102,117118,1,0,1:0:0:0:
109,229,117258,6,0,P|151:216|210:195,1,86.8499973495484,10|2,2:0|2:0,2:0:0:0:
197,188,117467,1,8,2:0:0:0:
197,188,117537,6,0,P|155:201|84:225,1,115.799996466065,8|4,2:0|2:3,2:0:0:0:
50,343,117816,6,0,P|92:330|159:308,1,96.5,10|6,2:3|2:3,2:0:0:0:
247,366,118095,6,0,P|195:343|229:273,1,135.099995877075,6|8,1:2|2:0,2:0:0:0:
277,229,118513,1,2,2:0:0:0:
277,229,118653,2,0,B|315:217|336:243|329:245|346:267|390:259,1,101.324996907806,10|0,2:0|2:0,2:0:0:0:
384,256,118932,1,10,1:2:0:0:
448,146,119072,6,0,P|387:123|373:183,1,135.099995877075,2|0,2:0|2:0,2:0:0:0:
463,147,119490,2,0,P|450:100|443:69,1,67.5499979385377,10|2,2:0|2:0,2:0:0:0:
509,215,119769,2,0,P|496:262|489:293,1,67.5499979385377,10|2,2:0|2:0,2:0:0:0:
406,314,120048,2,0,P|419:267|426:236,1,67.5499979385377,10|2,2:0|1:2,2:0:0:0:
463,147,120327,6,0,B|399:164|399:164|381:188|381:188|317:206,1,159.225004859162,2|0,1:2|2:0,2:0:0:0:
292,220,120606,1,2,2:0:0:0:
194,80,120746,6,0,B|232:57|266:75|266:75|277:107|305:119,1,130.274996024323,2|0,1:2|2:0,2:0:0:0:
313,121,121025,1,2,2:0:0:0:
199,258,121165,6,0,B|82:217|82:217|121:209|144:189,1,168.874994846344,2|0,1:2|2:0,2:0:0:0:
132,183,121583,1,0,2:0:0:0:
211,262,121723,2,0,P|247:248|290:237,1,67.5499979385377,2|10,2:0|2:0,2:0:0:0:
292,220,121932,1,2,2:0:0:0:
292,220,122002,2,0,P|328:234|371:245,1,67.5499979385377,10|2,2:0|2:0,2:0:0:0:
439,187,122281,2,0,P|403:173|360:162,1,67.5499979385377,10|2,2:0|2:0,2:0:0:0:
408,314,122560,6,0,B|523:283|523:283|473:275|440:255,1,193,6|10,1:2|2:0,2:0:0:0:
309,314,122979,1,2,2:0:0:0:
264,212,123118,2,0,P|300:226|364:243,1,96.5,8|2,2:0|2:0,2:0:0:0:
356,373,123397,6,0,P|306:354|209:324,1,154.4,10|8,1:2|2:0,2:0:0:0:
163,243,123816,1,0,2:0:0:0:
60,345,123955,6,0,P|101:337|132:312,1,67.5499979385377,10|2,2:0|2:0,2:0:0:0:
78,254,124234,2,0,P|39:262|5:286,1,67.5499979385377,10|0,2:0|2:0,2:0:0:0:
163,243,124513,2,0,P|181:201|165:164,1,67.5499979385377,10|0,2:0|2:0,2:0:0:0:
120,122,124792,6,0,B|72:118|53:154|60:152|42:185|-9:184,1,135.099995877075,8|10,1:2|2:0,2:0:0:0:
54,61,125211,1,2,1:2:0:0:
131,124,125351,2,0,B|165:111|197:102|197:102|199:78|177:68,1,101.324996907806,10|8,2:0|2:0,2:0:0:0:
171,61,125630,1,2,2:0:0:0:
265,158,125769,1,8,2:0:0:0:
265,158,126048,6,0,B|205:176|174:186|174:186|174:232|202:243,1,159.225004859162,0|0,1:0|2:0,2:0:0:0:
217,253,126327,1,2,2:0:0:0:
303,87,126467,1,2,2:0:0:0:
425,267,126606,6,0,B|371:249|340:240|340:240|340:194|368:183,1,130.274996024323,0|0,1:0|2:0,2:0:0:0:
365,186,126885,1,8,2:3:0:0:
435,287,127025,6,0,P|489:264|481:176,1,154.4,6|0,1:2|2:0,2:0:0:0:
365,186,127444,1,2,1:2:0:0:
400,0,127583,2,0,B|410:52|410:52|405:69|405:69|418:129,1,115.8,10|0,2:0|2:0,2:0:0:0:
421,132,127862,1,2,1:2:0:0:
279,232,128002,6,0,B|323:226|363:188|363:188|351:222|356:248,1,154.4,2|8,1:2|2:0,2:0:0:0:
283,139,128420,2,0,P|241:129|204:118,1,77.2,2|2,2:0|1:2,2:0:0:0:
120,187,128699,2,0,P|161:196|199:208,1,77.2,10|2,2:0|2:0,2:0:0:0:
77,114,128979,6,0,P|74:86|91:52,1,57.8999982330323,2|2,2:0|2:0,2:0:0:0:
283,139,129258,6,0,B|323:82|301:26|301:26|281:51|254:69,1,173.699994699097,6|0,1:2|2:0,2:0:0:0:
243,66,129537,1,10,2:0:0:0:
120,187,129676,6,0,B|170:173|199:206|188:209|219:244|269:227,1,144.75,6|0,1:2|2:0,2:0:0:0:
280,225,129955,1,10,2:0:0:0:
165,81,130095,6,0,B|94:66|63:123|63:123|60:172|12:188,1,193,6|0,1:2|2:0,2:0:0:0:
4,186,130513,1,8,2:0:0:0:
141,261,130653,2,0,P|131:228|117:179,1,77.2,2|2,1:2|2:0,2:0:0:0:
243,96,130932,2,0,P|232:133|221:170,1,77.2,10|6,2:0|1:2,2:0:0:0:
321,293,131211,2,0,P|310:255|299:218,1,77.2,2|2,2:0|2:0,2:0:0:0:
393,106,131490,5,6,2:3:0:0:
387,123,131560,1,8,2:3:0:0:
381,140,131630,1,8,2:3:0:0:
308,35,131769,1,10,2:0:0:0:
467,154,131909,1,2,1:2:0:0:
467,154,132188,1,2,1:2:0:0:
467,154,132258,1,0,1:0:0:0:
467,154,132327,6,0,B|408:133|376:179|394:183|359:233|282:216,1,193,14|0,2:0|1:0,2:0:0:0:
212,140,132746,1,12,2:0:0:0:
135,260,132885,6,0,P|172:189|281:208,1,188.174991386033,14|0,2:0|2:0,2:0:0:0:
298,218,133165,1,2,1:2:0:0:
126,109,133304,1,8,2:0:0:0:
333,38,133444,1,10,1:2:0:0:
323,29,133513,1,8,2:0:0:0:
313,19,133583,1,10,2:0:0:0:
304,10,133653,1,8,2:0:0:0:
293,0,133723,6,0,L|293:232,2,231.599992932129,6|8|0,1:2|2:0|1:0,2:0:0:0:
372,113,134420,1,0,1:0:0:0:
212,19,134560,1,8,2:0:0:0:
374,197,134699,6,0,B|476:162|476:162|494:118|458:92,1,173.699994699097,0|0,1:0|2:0,2:0:0:0:
448,84,134979,1,0,1:0:0:0:
363,209,135118,2,0,P|308:194|242:179,1,115.799996466065,10|2,2:0|2:0,2:0:0:0:
211,31,135397,2,0,P|266:46|332:61,1,115.799996466065,2|0,1:2|1:0,2:0:0:0:
191,270,135676,2,0,P|136:255|70:240,1,115.799996466065,10|2,2:0|2:0,2:0:0:0:
39,107,135955,6,0,B|113:93|157:150|139:155|176:204|255:186,2,231.599992932129,2|8|0,1:2|2:0|1:0,2:0:0:0:
78,241,136653,1,0,1:0:0:0:
216,110,136792,1,8,2:0:0:0:
9,0,136932,6,0,L|9:188,1,173.699994699097,0|0,1:0|2:0,2:0:0:0:
8,200,137211,1,0,1:0:0:0:
216,110,137351,2,0,P|153:94|101:77,1,115.799996466065,10|2,2:0|2:0,2:0:0:0:
324,147,137630,1,2,1:2:0:0:
226,24,137769,1,0,1:0:0:0:
324,147,137909,2,0,P|374:124|436:104,1,115.799996466065,10|2,2:0|2:0,2:0:0:0:
234,282,138188,6,0,B|101:241|101:241|140:239|186:211,1,202.649993815613,6|0,1:2|2:0,2:0:0:0:
175,204,138467,1,2,1:2:0:0:
359,357,138606,6,0,B|490:314|490:314|451:312|405:284,1,188.174991386033,14|0,2:0|2:0,2:0:0:0:
418,278,138885,1,0,1:0:0:0:
324,136,139025,6,0,B|276:123|245:167|256:169|233:211|175:204,1,173.699994699097,14|0,2:0|2:0,2:0:0:0:
176,133,139304,6,0,B|212:129|243:155|243:155|251:171|251:171|277:202|319:196,1,159.225004859162,4|0,1:2|2:0,2:0:0:0:
398,175,139583,6,0,P|429:163|469:151,2,57.8999982330323,10|8|8,2:0|2:0|2:0,2:0:0:0:
439,73,139862,2,0,P|371:97|307:120,2,115.799996466065,10|4|4,2:0|2:3|2:3,2:0:0:0:
257,14,140420,5,6,1:2:0:0:
256,192,140490,12,10,142374,2:0:0:0:
257,14,142653,6,0,L|257:217,1,188.174991386033,6|0,1:2|2:0,2:0:0:0:
257,238,142932,1,10,2:0:0:0:
82,171,143072,2,0,P|131:123|199:143,1,125.449994257355,2|0,1:2|2:0,2:0:0:0:
129,340,143351,2,0,P|68:344|28:299,1,125.449994257355,2|0,1:2|2:0,2:0:0:0:
158,210,143630,6,0,B|219:194|254:241|239:241|270:284|336:273,1,188.174991386033,6|0,1:2|2:0,2:0:0:0:
354,258,143909,1,8,2:0:0:0:
435,132,144048,2,0,P|370:148|297:165,1,125.449994257355,8|0,2:0|1:0,2:0:0:0:
419,332,144327,1,8,2:0:0:0:
427,335,144397,1,0,1:0:0:0:
435,338,144467,1,0,1:0:0:0:
441,341,144537,1,0,1:0:0:0:
448,344,144606,2,0,P|485:281|459:226,1,125.449994257355,14|2,2:0|1:2,2:0:0:0:
250,80,144885,5,14,2:0:0:0:
354,258,145025,1,0,1:0:0:0:
354,258,145165,1,2,1:2:0:0:
154,191,145304,5,14,2:0:0:0:
378,88,145443,1,0,1:0:0:0:
378,88,145583,1,2,1:2:0:0:
266,306,145723,5,8,2:0:0:0:
104,114,145862,6,0,B|184:133|184:133|207:163|207:163|287:184,1,202.649993815613,6|0,1:2|2:0,2:0:0:0:
321,190,146141,1,10,2:0:0:0:
109,314,146281,6,0,P|63:259|80:193,1,144.750005521775,10|8,1:2|2:0,2:0:0:0:
326,15,146560,5,10,1:2:0:0:
326,15,146630,1,8,2:0:0:0:
326,15,146699,2,0,P|314:56|301:105,1,72.3750027608873,8|8,2:0|2:0,2:0:0:0:
79,193,146839,5,10,1:2:0:0:
79,193,146909,1,8,2:0:0:0:
79,193,146978,2,0,L|104:103,1,72.3750027608873,8|8,2:0|2:0,2:0:0:0:
218,0,147118,6,0,L|218:263,1,250.89998851471,6|8,1:2|2:0,2:0:0:0:
315,366,147537,1,0,2:0:0:0:
412,252,147676,2,0,P|359:209|295:212,1,125.449994257355,2|2,1:2|1:2,2:0:0:0:
439,340,147955,2,0,P|502:249|465:185,1,188.174991386033,10|0,2:0|2:0,2:0:0:0:
436,164,148234,6,0,B|364:139|320:203|331:204|298:266|216:250,1,250.89998851471,0|10,1:0|2:0,2:0:0:0:
99,155,148653,1,2,1:2:0:0:
193,38,148792,2,0,P|226:100|205:153,1,125.449994257355,2|0,2:0|1:0,2:0:0:0:
47,220,149072,2,0,P|14:158|35:105,1,125.449994257355,8|0,2:0|2:0,2:0:0:0:
191,16,149351,5,0,1:0:0:0:
99,155,149490,1,2,2:0:0:0:
306,89,149630,1,10,2:0:0:0:
90,4,149769,1,2,2:0:0:0:
157,239,149909,2,0,P|197:172|302:192,1,188.174991386033,2|0,1:2|2:0,2:0:0:0:
324,217,150188,1,10,2:0:0:0:
164,97,150327,1,2,2:0:0:0:
324,0,150467,6,0,L|324:193,1,188.174991386033,2|0,1:2|2:0,2:0:0:0:
324,217,150746,1,10,2:0:0:0:
164,97,150885,1,0,1:0:0:0:
136,261,151025,2,0,P|185:207|259:213,1,125.449994257355,0|0,2:0|1:0,2:0:0:0:
83,349,151304,6,0,P|13:313|36:198,1,202.649993815613,14|0,2:0|2:0,2:0:0:0:
56,184,151583,6,0,B|144:148|192:209|175:216|225:263|307:237,1,250.89998851471,6|8,1:2|2:0,2:0:0:0:
405,143,152002,1,0,2:0:0:0:
484,271,152141,2,0,P|435:227|359:237,1,125.449994257355,2|0,1:2|1:0,2:0:0:0:
512,134,152420,1,10,2:0:0:0:
378,3,152560,6,0,B|378:199,1,188.174991386033,2|0,2:0|2:0,2:0:0:0:
378,227,152839,1,2,2:0:0:0:
170,116,152979,2,0,P|230:100|290:82,1,125.449994257355,10|0,2:0|1:0,2:0:0:0:
71,210,153258,2,0,P|57:148|39:88,1,125.449994257355,0|0,2:0|1:0,2:0:0:0:
197,297,153537,2,0,P|135:311|75:328,1,125.449994257355,10|2,2:0|2:0,2:0:0:0:
262,197,153816,6,0,B|323:181|352:227|337:226|375:265|436:251,1,173.699994699097,6|0,1:2|2:0,2:0:0:0:
456,229,154095,1,2,2:0:0:0:
364,124,154234,1,10,2:0:0:0:
456,229,154374,6,0,P|465:176|476:125,1,77.2,6|4,2:3|2:3,2:0:0:0:
221,1,154653,6,0,B|175:12|169:68|169:68|198:95|201:134,1,159.225004859162,6|0,1:2|2:0,2:0:0:0:
192,153,154932,1,0,1:0:0:0:
87,43,155072,1,8,2:0:0:0:
92,281,155211,5,8,1:2:0:0:
118,259,155281,1,8,2:0:0:0:
152,252,155351,1,8,2:0:0:0:
183,263,155420,1,8,2:0:0:0:
205,287,155490,6,0,P|194:202|191:135,1,135.099995877075,10|4,1:2|2:3,2:0:0:0:
365,337,155769,6,0,P|376:252|379:210,1,96.5,10|6,2:3|2:3,2:0:0:0:
294,78,156048,6,0,L|294:182,1,101.324996907806,2|0,1:2|2:0,2:0:0:0:
307,205,156327,6,0,P|247:147|165:172,1,144.750005521775,12|0,2:0|2:0,2:0:0:0:
386,115,156606,5,2,1:2:0:0:
238,9,156746,1,0,1:0:0:0:
386,115,156885,2,0,P|447:108|481:47,1,125.449994257355,10|0,2:0|2:0,2:0:0:0:
497,294,157165,6,0,P|438:210|313:251,1,250.89998851471,0|10,1:0|2:0,2:0:0:0:
222,370,157583,1,2,1:2:0:0:
141,242,157723,2,0,P|189:200|256:206,1,125.449994257355,2|0,2:0|1:0,2:0:0:0:
130,340,158002,2,0,P|68:341|23:300,1,125.449994257355,8|0,2:0|2:0,2:0:0:0:
89,164,158281,5,0,1:0:0:0:
218,279,158420,1,2,2:0:0:0:
17,213,158560,1,10,2:0:0:0:
249,97,158699,1,2,2:0:0:0:
101,0,158839,2,0,L|101:204,1,188.174991386033,2|0,1:2|2:0,2:0:0:0:
102,219,159118,1,10,2:0:0:0:
14,95,159258,1,2,2:0:0:0:
218,279,159397,6,0,B|234:195|234:195|254:169|254:169|270:88,1,188.174991386033,2|0,1:2|2:0,2:0:0:0:
278,64,159676,1,10,2:0:0:0:
352,195,159816,1,0,1:0:0:0:
471,68,159955,2,0,P|404:93|339:113,1,125.449994257355,0|0,2:0|1:0,2:0:0:0:
170,50,160234,6,0,B|238:33|274:87|261:92|294:125|360:107,1,202.649993815613,14|0,2:0|2:0,2:0:0:0:
341,29,160513,6,0,B|288:21|245:61|245:61|230:99|230:99|195:142|132:135,1,250.89998851471,6|8,1:2|2:0,2:0:0:0:
16,43,160932,1,0,2:0:0:0:
10,193,161072,2,0,P|50:148|116:145,1,125.449994257355,2|0,1:2|1:0,2:0:0:0:
236,229,161351,1,10,2:0:0:0:
82,369,161490,6,0,B|62:254|62:254|83:218|127:226,1,188.174991386033,2|0,1:2|2:0,2:0:0:0:
149,250,161769,1,2,1:2:0:0:
325,163,161909,2,0,P|264:146|198:122,1,125.449994257355,10|0,2:0|2:0,2:0:0:0:
382,257,162188,2,0,P|441:235|501:219,1,125.449994257355,0|0,2:0|1:0,2:0:0:0:
330,354,162467,2,0,P|270:332|210:316,1,125.449994257355,10|2,2:0|2:0,2:0:0:0:
381,33,162746,6,0,B|381:226,1,188.174991386033,6|0,1:2|2:0,2:0:0:0:
382,257,163025,1,10,2:0:0:0:
476,139,163165,1,2,2:0:0:0:
294,233,163304,1,2,1:2:0:0:
512,252,163444,1,2,1:2:0:0:
297,115,163583,1,10,2:0:0:0:
452,329,163723,1,2,1:2:0:0:
230,319,163862,6,0,P|251:231|389:283,1,250.89998851471,2|8,2:0|2:0,2:0:0:0:
295,380,164281,1,2,2:0:0:0:
137,325,164420,2,0,P|151:259|159:193,1,125.449994257355,0|0,1:0|1:0,2:0:0:0:
253,0,164699,6,0,L|253:220,1,202.649993815613,10|0,2:0|2:0,2:0:0:0:
253,231,164979,1,6,1:2:0:0:
66,160,165118,6,0,P|88:105|169:133,1,154.4,0|0,1:0|1:0,2:0:0:0:
179,120,165467,1,0,1:0:0:0:
179,120,165537,2,0,P|142:83|110:86,1,77.2,14|0,2:0|2:0,2:0:0:0:
256,141,165816,1,2,1:2:0:0:
168,256,165955,6,0,B|90:235|90:235|135:216,1,115.8,14|0,2:0|2:0,2:0:0:0:
141,204,166234,1,8,2:0:0:0:
253,231,166374,2,0,P|242:271|234:309,1,77.2,2|8,1:2|2:0,2:0:0:0:
243,326,166583,1,8,2:0:0:0:
243,326,166653,2,0,P|253:285|262:248,1,77.2,10|4,2:0|2:3,2:0:0:0:
355,212,166932,2,0,P|344:252|336:290,1,77.2,6|8,2:3|2:3,2:0:0:0:
164,334,167211,6,0,B|233:306|275:365|253:367|297:398|356:395|409:334|347:253|290:300,1,308.8,4|2,1:2|2:0,2:0:0:0:
298,294,169444,6,0,P|327:235|303:192,1,115.799996466065,2|0,1:2|2:0,2:0:0:0:
245,150,169862,2,0,B|207:149|188:177|199:178|178:208|138:200,2,115.799996466065,2|2|2,2:0|2:0|2:0,2:0:0:0:
306,194,170560,6,0,B|350:205|377:174|377:174|379:148|401:131,1,115.799996466065,10|0,2:0|2:0,2:0:0:0:
469,115,170979,2,0,P|402:122|434:35,1,173.699994699097,2|2,2:0|2:0,2:0:0:0:
192,13,171676,6,0,P|183:104|179:140,1,115.799996466065,2|2,1:2|2:0,2:0:0:0:
103,166,172095,2,0,P|112:75|116:39,2,115.799996466065,2|2|2,1:2|2:0|2:0,2:0:0:0:
40,218,172792,2,0,B|105:186|145:253|133:254|166:297|254:298|286:248|285:183|248:155|197:158,1,347.399989398194,8|2,2:0|2:0,2:0:0:0:
211,158,173909,6,0,B|148:138|100:200|122:203|82:260|-6:232,1,231.599992932129,0|0,1:0|2:0,2:0:0:0:
77,115,174746,1,2,1:2:0:0:
197,244,175025,2,0,B|260:224|308:286|286:289|326:346|414:318,1,231.599992932129,8|0,2:0|2:0,2:0:0:0:
494,221,175862,1,2,2:0:0:0:
411,108,176141,6,0,B|362:98|327:139|349:137|320:174|243:162,2,173.699994699097,0|2|0,1:0|1:2|1:0,2:0:0:0:
511,11,177258,2,0,P|502:57|488:132,1,115.799996466065,8|0,2:0|2:0,2:0:0:0:
429,185,177676,2,0,B|441:238|453:303|453:303|461:269|475:239,1,173.699994699097,2|0,2:0|2:0,2:0:0:0:
469,252,178374,6,0,P|415:249|380:305,1,115.799996466065,2|0,1:2|2:0,2:0:0:0:
325,350,178792,2,0,B|278:341|278:341|262:329|262:329|198:320,2,115.799996466065,2|2|2,2:0|2:0|2:0,2:0:0:0:
309,261,179490,6,0,B|279:232|295:200|295:200|323:180|317:141,1,115.799996466065,8|0,2:0|2:0,2:0:0:0:
276,95,179909,2,0,P|230:66|159:158,1,173.699994699097,2|2,2:0|2:0,2:0:0:0:
39,346,180606,6,0,P|31:262|26:222,1,115.799996466065,2|0,1:2|2:0,2:0:0:0:
101,183,181025,2,0,P|109:267|114:307,2,115.799996466065,2|2|2,1:2|2:0|2:0,2:0:0:0:
50,122,181723,6,0,B|-24:98|-38:29|55:-46|176:-6|196:63|119:116,1,347.399989398194,8|2,2:0|2:0,2:0:0:0:
354,234,182839,6,0,P|425:209|334:136,1,231.599992932129,0|0,1:0|2:0,2:0:0:0:
275,305,183676,1,2,1:2:0:0:
185,199,183955,2,0,B|250:174|298:234|287:234|324:290|401:263,1,231.599992932129,10|2,2:0|2:0,2:0:0:0:
350,125,184792,1,2,2:0:0:0:
185,282,185072,6,0,B|63:244|63:244|118:211,2,173.699994699097,0|0|2,1:0|1:0|1:2,2:0:0:0:
212,111,186188,2,0,P|197:60|144:77,1,115.799996466065,10|2,2:0|2:0,2:0:0:0:
95,130,186606,1,0,2:0:0:0:
95,130,186746,2,0,P|109:36|114:-5,1,115.799996466065,2|2,2:0|2:0,2:0:0:0:
324,0,187304,6,0,L|324:174,1,154.4,6|2,1:2|2:0,2:0:0:0:
382,226,187723,1,2,2:0:0:0:
382,226,187862,2,0,P|425:206|456:198,1,77.2,2|2,1:2|2:0,2:0:0:0:
325,287,188141,2,0,P|282:267|251:259,1,77.2,2|2,2:0|2:0,2:0:0:0:
386,348,188420,6,0,B|488:324|488:324|441:298,2,154.4,2|2|0,1:2|2:0|1:0,2:0:0:0:
164,362,189258,2,0,P|177:296|183:263,1,77.2,2|2,2:0|2:0,2:0:0:0:
130,220,189537,6,0,P|94:184|46:269,1,154.4,2|2,1:2|2:0,2:0:0:0:
14,332,189955,1,2,2:0:0:0:
14,332,190095,2,0,P|66:313|99:309,1,77.2,2|2,1:2|2:0,2:0:0:0:
138,232,190374,2,0,P|190:251|223:255,1,77.2,2|2,2:0|2:0,2:0:0:0:
256,335,190653,6,0,B|309:306|363:304|363:304|328:320|314:357,2,154.4,2|2|0,1:2|2:0|1:0,2:0:0:0:
422,168,191490,2,0,P|377:158|341:145,1,77.2,2|2,2:0|2:0,2:0:0:0:
258,122,191769,6,0,P|334:124|318:40,1,154.4,2|2,1:2|2:0,2:0:0:0:
266,4,192188,1,0,2:0:0:0:
266,4,192327,2,0,B|217:-4|192:33|203:33|177:67|115:58,1,154.4,0|2,1:0|2:0,2:0:0:0:
44,97,192746,1,0,2:0:0:0:
44,97,192885,6,0,P|31:37|23:14,1,77.2,2|0,1:2|2:0,2:0:0:0:
123,136,193165,2,0,P|111:172|105:210,1,77.2,2|0,1:2|2:0,2:0:0:0:
16,240,193444,2,0,B|68:226|93:263|82:263|115:299|168:283,1,154.4,0|2,1:0|2:0,2:0:0:0:
407,156,194002,6,0,B|345:175|345:175|330:192|330:192|263:213,1,154.4,2|0,1:2|2:0,2:0:0:0:
286,122,194420,1,2,2:0:0:0:
260,224,194560,2,0,B|323:203|323:203|338:186|338:186|400:167,1,154.4,2|0,1:2|1:0,2:0:0:0:
492,221,194979,1,2,2:0:0:0:
447,296,195118,6,0,P|404:278|369:271,1,77.2,2|0,1:2|2:0,2:0:0:0:
286,122,195397,2,0,P|374:148|445:163,2,154.4,2|2|2,2:0|1:2|2:0,2:0:0:0:
10,78,196234,6,0,B|35:50|50:12|50:12|87:39|134:46,1,154.4,2|0,1:2|2:0,2:0:0:0:
192,100,196653,1,0,2:0:0:0:
129,167,196792,2,0,B|142:104|142:104|160:81|160:81|177:5,1,154.4,0|0,1:0|2:0,2:0:0:0:
190,339,197351,6,0,B|212:244|212:244|139:274,1,154.4,0|2,1:0|2:0,2:0:0:0:
89,326,197769,1,2,2:0:0:0:
178,351,197909,2,0,L|265:318,1,77.2,2|0,1:2|2:0,2:0:0:0:
295,218,198188,2,0,L|222:245,1,77.2,2|0,2:0|2:0,2:0:0:0:
130,252,198467,6,0,B|176:237|207:276|194:277|222:308|271:304,1,154.4,0|2,1:0|2:0,2:0:0:0:
295,218,198885,1,2,2:0:0:0:
295,218,199025,2,0,P|259:156|186:185,1,154.4,2|2,1:2|2:0,2:0:0:0:
456,328,199583,6,0,P|466:220|472:165,1,154.4,0|2,1:0|2:0,2:0:0:0:
405,107,200002,1,0,2:0:0:0:
405,107,200141,2,0,P|352:125|325:133,1,77.2,2|0,1:2|2:0,2:0:0:0:
269,62,200420,2,0,P|305:49|342:37,1,77.2,2|0,2:0|2:0,2:0:0:0:
190,176,200699,6,0,P|129:158|93:152,1,96.5,4|0,1:2|2:0,2:0:0:0:
256,224,200979,2,0,P|220:171|197:143,1,96.5,0|0,1:0|2:0,2:0:0:0:
269,303,201258,2,0,P|276:239|275:203,1,96.5,0|0,1:0|2:0,2:0:0:0:
222,368,201537,2,0,P|268:324|291:295,1,96.5,0|0,1:0|2:0,2:0:0:0:
114,254,201816,6,0,P|48:275|11:286,1,96.5,4|0,1:2|2:0,2:0:0:0:
192,259,202095,2,0,P|126:238|89:227,1,96.5,2|2,1:2|2:0,2:0:0:0:
269,251,202374,2,0,P|203:272|166:283,1,96.5,2|0,1:2|2:0,2:0:0:0:
347,256,202653,2,0,P|281:235|244:224,1,96.5,2|0,1:2|2:0,2:0:0:0:
435,302,202932,6,0,P|499:256|431:187,1,193,4|2,1:2|1:2,2:0:0:0:
351,109,203351,1,2,2:0:0:0:
448,15,203490,2,0,P|436:68|425:116,1,96.5,2|0,1:2|2:0,2:0:0:0:
271,45,203769,2,0,P|325:27|375:7,1,96.5,2|2,1:2|2:0,2:0:0:0:
202,147,204048,6,0,P|150:91|80:121,1,144.75,2|0,1:2|2:0,2:0:0:0:
68,125,204327,2,0,P|77:69|81:28,1,96.5,2|2,1:2|2:0,2:0:0:0:
218,152,204606,2,0,P|165:172|127:189,1,96.5,2|0,1:2|2:0,2:0:0:0:
174,5,204885,2,0,P|217:40|251:64,1,96.5,2|0,1:2|2:0,2:0:0:0:
43,208,205165,6,0,B|103:193|132:240|112:242|154:279|208:263,1,173.699994699097,12|0,2:0|2:0,2:0:0:0:
230,256,205444,1,0,1:0:0:0:
374,78,205583,6,0,B|254:109|254:109|236:162|287:186,1,202.649993815613,12|0,2:0|2:0,2:0:0:0:
301,189,205862,1,0,1:0:0:0:
434,356,206002,6,0,B|394:294|445:237|466:279|517:192|461:127,1,231.6,12|0,2:0|2:0,2:0:0:0:
451,125,206281,1,0,1:0:0:0:
316,314,206420,1,12,2:0:0:0:
152,146,206560,6,0,P|231:169|304:189,1,154.4,8|0,2:0|1:0,2:0:0:0:
108,324,206839,1,4,2:3:0:0:
97,330,206909,1,8,2:3:0:0:
89,336,206979,1,4,2:3:0:0:
79,342,207048,1,4,2:3:0:0:
69,348,207118,2,0,B|28:325|10:287|10:287|19:239|45:210,1,154.4,14|2,2:0|2:0,2:0:0:0:
139,70,207397,5,2,1:2:0:0:
233,150,207537,1,8,2:0:0:0:
233,150,207606,1,8,2:0:0:0:
233,150,207676,1,10,2:0:0:0:
68,130,207816,1,2,1:2:0:0:
68,130,208095,5,6,2:3:0:0:
266,27,208234,1,6,2:3:0:0:
238,275,208374,6,0,B|158:233|94:293|136:306|83:349|-6:316,1,260.549992048645,6|2,1:2|2:0,2:0:0:0:
72,171,210746,6,0,P|41:164|-13:152,2,77.2,2|2|2,2:0|2:0|2:0,2:0:0:0:
351,305,211862,6,0,P|388:296|426:288,2,77.2,2|2|2,2:0|2:0|2:0,2:0:0:0:
284,261,212699,1,2,2:0:0:0:
305,185,212979,6,0,B|332:153|379:173|379:173|403:211|443:208,1,154.4,2|2,2:0|2:0,2:0:0:0:
487,146,213816,1,2,2:0:0:0:
461,72,214095,6,0,P|419:31|358:49,2,115.8,2|0|2,2:0|2:0|2:0,2:0:0:0:
222,156,215211,6,0,P|234:101|238:63,2,77.2,2|2|2,2:0|2:0|2:0,2:0:0:0:
167,229,216048,1,2,2:0:0:0:
71,165,216327,6,0,P|108:155|145:146,1,77.2,2|2,2:0|2:0,2:0:0:0:
83,255,216885,2,0,P|45:264|8:273,1,77.2,2|2,2:0|2:0,2:0:0:0:
142,324,217444,6,0,P|173:298|157:220,2,115.8,2|2|2,2:0|2:0|2:0,2:0:0:0:
83,255,218560,2,0,B|137:239|166:273|154:278|181:306|242:289,1,154.4,0|2,2:0|2:0,2:0:0:0:
298,239,219397,1,2,2:0:0:0:
250,166,219676,6,0,P|195:146|151:183,1,115.799996466065,6|0,1:2|2:0,2:0:0:0:
101,240,220095,1,0,2:0:0:0:
101,240,220234,2,0,P|90:183|77:126,1,115.799996466065,2|2,1:2|2:0,2:0:0:0:
349,3,220792,6,0,P|336:59|325:116,1,115.799996466065,0|2,1:0|2:0,2:0:0:0:
374,181,221211,1,2,2:0:0:0:
374,181,221351,2,0,P|428:164|448:160,1,57.8999982330323,2|0,1:2|2:0,2:0:0:0:
479,227,221630,2,0,P|425:244|405:248,1,57.8999982330323,0|0,2:0|2:0,2:0:0:0:
353,284,221909,6,0,B|393:280|415:306|415:306|424:340|454:348,2,115.799996466065,0|2|2,1:0|2:0|1:2,2:0:0:0:
282,243,222606,1,0,2:0:0:0:
280,324,222746,2,0,P|322:312|343:303,1,57.8999982330323,2|0,2:0|2:0,2:0:0:0:
208,276,223025,6,0,P|182:243|105:277,1,115.799996466065,2|0,1:2|2:0,2:0:0:0:
77,327,223444,1,0,2:0:0:0:
77,327,223583,2,0,P|67:242|60:197,1,115.799996466065,2|2,1:2|2:0,2:0:0:0:
51,131,224002,1,0,2:0:0:0:
126,159,224141,6,0,P|154:153|182:146,1,57.8999982330323,4|0,1:2|2:0,2:0:0:0:
259,149,224420,2,0,P|230:142|202:136,1,57.8999982330323,8|0,2:0|2:0,2:0:0:0:
161,34,224699,6,0,P|167:62|178:111,1,77.2,8|0,1:2|2:0,2:0:0:0:
259,149,224979,2,0,P|264:120|278:67,1,77.2,8|0,2:0|2:0,2:0:0:0:
295,258,225258,6,0,P|260:248|200:233,1,96.5,8|0,1:2|2:0,2:0:0:0:
32,182,225538,2,0,P|60:175|131:157,1,96.5,8|0,1:2|2:0,2:0:0:0:
135,299,225816,5,8,1:2:0:0:
135,299,225909,2,0,P|111:303|61:317,1,70.766668826294,8|8,2:0|2:0,2:0:0:0:
201,233,226095,5,10,1:2:0:0:
201,233,226188,2,0,P|232:226|276:218,1,70.766668826294,8|8,2:0|2:0,2:0:0:0:
125,158,226374,5,2,2:0:0:0:
125,158,228606,6,0,B|35:204|-69:75|72:-34|195:10|204:109|135:169|202:205|266:202,1,463.199985864258,6|0,1:2|2:0,2:0:0:0:
262,202,230002,6,0,P|255:170|253:158,2,25.7333333333333,6|8|4,2:3|2:3|2:3,2:0:0:0:
391,206,230281,6,0,B|321:184|279:240|279:240|280:305|199:324,1,231.6,10|0,2:0|2:0,2:0:0:0:
132,197,230839,6,0,B|183:189|216:221|216:221|231:250|231:250|263:289|328:282,1,212.300006478882,4|2,1:2|1:2,2:0:0:0:
410,204,231258,1,14,2:0:0:0:
322,111,231397,2,0,P|291:159|308:207,1,106.150003239441,2|2,2:0|1:2,2:0:0:0:
437,32,231676,6,0,P|367:15|288:-8,1,125.449994257355,14|2,2:0|2:0,2:0:0:0:
410,204,231955,6,0,P|446:191|483:182,2,70.766668826294,2|8|8,1:2|2:0|2:0,2:0:0:0:
322,111,232234,6,0,P|285:123|249:133,2,70.766668826294,10|8|8,2:0|2:0|2:0,2:0:0:0:
112,202,232513,5,8,2:0:0:0:
158,177,232606,1,8,2:0:0:0:
206,193,232699,1,4,2:3:0:0:
257,272,232792,5,6,2:3:0:0:
303,297,232885,1,8,2:3:0:0:
351,281,232978,1,4,2:3:0:0:
411,203,233072,6,0,B|341:179|290:245|312:255|261:322|172:287,1,250.89998851471,6|8,1:2|2:0,2:0:0:0:
86,189,233490,1,0,2:0:0:0:
180,71,233630,2,0,P|257:102|305:118,1,125.449994257355,2|0,1:2|1:0,2:0:0:0:
9,133,233909,1,10,2:0:0:0:
96,11,234048,6,0,L|96:203,1,188.174991386033,2|0,2:0|2:0,2:0:0:0:
97,232,234327,1,2,2:0:0:0:
9,133,234467,1,10,2:0:0:0:
194,210,234606,1,0,1:0:0:0:
26,336,234746,2,0,B|-17:287|-17:287|14:208,1,125.449994257355,0|0,2:0|1:0,2:0:0:0:
277,299,235025,2,0,B|215:313|182:275|193:272|153:230|95:256,1,188.174991386033,10|0,2:0|2:0,2:0:0:0:
86,271,235304,6,0,P|181:244|193:186,1,144.750005521775,14|0,2:0|2:0,2:0:0:0:
253,45,235583,1,2,1:2:0:0:
401,273,235723,6,0,P|362:214|293:211,1,144.750005521775,14|2,2:0|1:2,2:0:0:0:
149,112,236002,1,0,1:0:0:0:
414,287,236141,6,0,P|466:212|435:146,1,144.750005521775,14|2,2:0|2:0,2:0:0:0:
168,19,236420,1,10,1:2:0:0:
128,5,236490,1,8,2:0:0:0:
88,15,236560,1,8,2:0:0:0:
60,36,236630,1,8,2:0:0:0:
48,69,236699,2,0,P|58:106|65:140,1,72.3750027608873,10|8,1:2|2:0,2:0:0:0:
176,279,236839,2,0,P|182:243|192:208,1,72.3750027608873,10|8,2:0|2:0,2:0:0:0:
210,123,236979,5,10,1:2:0:0:
98,215,237118,1,8,2:0:0:0:
310,107,237258,1,10,2:0:0:0:
88,15,237397,1,10,2:0:0:0:
307,187,237537,6,0,P|362:174|388:123,1,101.324996907806,2|0,2:0|2:0,2:0:0:0:
380,110,237816,6,0,B|323:132|323:132|308:150|308:150|246:175,1,144.750005521775,4|0,1:2|2:0,2:0:0:0:
49,97,238095,6,0,B|99:115|99:115|114:133|114:133|176:158,1,125.449994257355,2|2,1:2|1:2,2:0:0:0:
159,302,238374,2,0,B|109:284|109:284|94:266|94:266|32:241,1,125.449994257355,10|0,2:0|2:0,2:0:0:0:
49,97,238653,6,0,B|122:72|164:135|148:137|195:198|278:173,1,250.89998851471,0|10,1:0|2:0,2:0:0:0:
368,59,239072,1,2,1:2:0:0:
444,187,239211,2,0,P|393:138|324:149,1,125.449994257355,2|0,2:0|1:0,2:0:0:0:
409,309,239490,2,0,P|470:306|511:261,1,125.449994257355,8|0,2:0|2:0,2:0:0:0:
341,139,239769,5,0,1:0:0:0:
236,257,239909,1,2,2:0:0:0:
211,81,240048,1,10,2:0:0:0:
341,230,240188,1,2,2:0:0:0:
149,164,240327,1,2,1:2:0:0:
331,46,240467,1,2,1:2:0:0:
149,164,240606,1,10,2:0:0:0:
365,143,240746,1,2,2:0:0:0:
165,11,240885,6,0,B|92:26|19:40|19:40|-12:98|39:133,1,250.89998851471,2|10,1:2|2:0,2:0:0:0:
233,173,241304,1,0,1:0:0:0:
103,250,241444,2,0,P|122:182|137:116,1,125.449994257355,0|0,2:0|1:0,2:0:0:0:
235,0,241723,6,0,L|235:223,1,217.125008282662,14|0,2:0|2:0,2:0:0:0:
235,243,242002,1,6,1:2:0:0:
168,364,242141,6,0,P|106:326|158:283,1,154.4,0|2,1:0|1:2,2:0:0:0:
150,268,242490,1,0,1:2:0:0:
150,268,242560,2,0,P|87:289|55:297,1,77.2,10|0,2:0|2:0,2:0:0:0:
148,176,242839,1,2,1:2:0:0:
235,243,242979,6,0,B|290:251|314:217|306:214|332:181|386:197,1,154.4,2|10,1:2|2:0,2:0:0:0:
447,297,243397,2,0,P|409:286|373:273,1,77.2,2|0,1:2|2:0,2:0:0:0:
374,180,243676,2,0,P|411:190|447:203,1,77.2,8|0,2:0|1:0,2:0:0:0:
305,124,243955,2,0,P|268:136|231:147,1,77.2,6|10,2:3|2:3,2:0:0:0:
374,62,244234,5,6,1:2:0:0:
305,124,244374,1,2,1:2:0:0:
374,62,244513,1,2,2:0:0:0:
279,26,244653,1,2,1:2:0:0:
448,112,244792,2,0,P|455:67|460:26,1,77.2,10|2,2:0|2:0,2:0:0:0:
279,26,245072,2,0,P|283:64|289:102,1,77.2,2|2,1:2|1:2,2:0:0:0:
371,0,245351,6,0,L|371:168,1,154.4,2|0,2:0|1:0,2:0:0:0:
316,228,245769,1,2,2:0:0:0:
181,151,245909,1,6,2:3:0:0:
203,142,245979,1,8,2:3:0:0:
228,133,246048,1,4,2:3:0:0:
224,322,246188,6,0,P|145:299|78:280,1,144.750005521775,14|0,2:0|2:0,2:0:0:0:
50,122,246467,6,0,P|125:147|192:166,1,135.099995877075,14|0,2:0|2:0,2:0:0:0:
308,63,246746,5,0,1:0:0:0:
176,176,246885,2,0,P|101:151|34:132,1,135.099995877075,14|2,2:0|1:2,2:0:0:0:
383,120,247165,5,0,1:0:0:0:
311,264,247304,2,0,P|263:218|281:151,1,135.099995877075,14|2,2:0|1:2,2:0:0:0:
388,23,247583,5,0,1:0:0:0:
176,176,247723,1,12,2:0:0:0:
435,277,247862,6,0,P|483:231|465:164,1,135.099995877075,14|2,2:0|1:2,2:0:0:0:
196,11,248141,1,6,2:3:0:0:
164,0,248211,1,8,2:3:0:0:
126,2,248281,1,4,2:3:0:0:
95,18,248351,1,4,2:3:0:0:
75,38,248420,6,0,B|51:102|51:102|88:172,1,135.099995877075,10|0,2:0|2:0,2:0:0:0:
380,118,248699,6,0,B|301:96|252:170|252:170|237:251|139:247|139:247|193:236|218:188,1,386,4|2,1:2|2:0,2:0:0:0:
208,203,250932,6,0,P|289:179|347:270,2,193,6|8|0,1:2|2:0|1:0,2:0:0:0:
106,146,251630,1,0,1:0:0:0:
112,261,251769,2,0,P|174:247|193:205,1,96.5,8|0,2:0|2:0,2:0:0:0:
184,105,252048,6,0,B|129:127|129:127|112:150|112:150|45:177,1,144.75,2|0,1:2|2:0,2:0:0:0:
36,185,252327,1,8,2:0:0:0:
170,22,252467,6,0,B|218:13|244:40|244:40|249:78|286:93,1,144.75,2|0,1:2|2:0,2:0:0:0:
306,95,252746,1,0,1:0:0:0:
462,24,252885,2,0,P|396:28|378:57,1,96.5,10|0,2:0|2:0,2:0:0:0:
508,137,253165,5,6,1:2:0:0:
385,202,253304,1,10,2:0:0:0:
392,176,253374,1,10,2:0:0:0:
398,150,253444,1,10,2:0:0:0:
474,260,253583,5,10,2:0:0:0:
306,95,253723,1,6,1:2:0:0:
255,280,253862,1,10,2:0:0:0:
281,273,253932,1,10,2:0:0:0:
307,267,254002,1,10,2:0:0:0:
220,157,254141,1,10,2:0:0:0:
142,243,254281,6,0,P|82:231|27:220,1,96.5,4|10,1:2|2:0,2:0:0:0:
9,114,254560,2,0,P|56:123|103:132,1,96.5,2|10,1:2|2:0,2:0:0:0:
293,19,254839,6,0,P|264:27|240:36,1,48.25,10|8,2:0|2:0,2:0:0:0:
194,63,254979,2,0,P|222:54|247:46,1,48.25,10|0,1:2|2:0,2:0:0:0:
372,123,255118,6,0,P|347:112|322:104,1,53.0750016197205,10|0,2:0|2:0,2:0:0:0:
208,190,255258,2,0,P|233:181|257:171,1,53.0750016197205,10|8,2:0|2:0,2:0:0:0:
386,0,255397,6,0,L|386:246,1,231.599992932129,6|8,1:2|2:0,2:0:0:0:
298,340,255816,1,2,2:0:0:0:
182,264,255955,2,0,P|217:220|287:222,1,115.799996466065,2|2,1:2|1:2,2:0:0:0:
383,312,256234,1,8,2:0:0:0:
167,357,256374,6,0,P|102:318|126:214,1,173.699994699097,2|0,1:2|2:0,2:0:0:0:
122,205,256653,1,2,1:2:0:0:
225,113,256792,2,0,P|288:129|357:143,1,115.799996466065,10|2,2:0|2:0,2:0:0:0:
196,34,257072,1,2,1:2:0:0:
337,139,257211,1,2,1:2:0:0:
138,117,257351,1,10,2:0:0:0:
334,24,257490,1,2,2:0:0:0:
345,233,257630,6,0,P|313:160|178:189,1,231.599992932129,2|10,1:2|2:0,2:0:0:0:
264,292,258048,1,2,1:2:0:0:
434,207,258188,2,0,P|420:140|410:87,1,115.799996466065,0|2,2:0|1:2,2:0:0:0:
173,202,258467,1,10,2:0:0:0:
257,0,258606,6,0,L|257:190,1,173.699994699097,2|0,1:2|2:0,2:0:0:0:
256,204,258885,1,2,1:2:0:0:
68,134,259025,2,0,P|148:110|197:92,1,115.799996466065,10|14,2:0|2:0,2:0:0:0:
44,229,259304,1,2,2:0:0:0:
178,99,259444,1,10,2:0:0:0:
178,99,259513,1,10,2:0:0:0:
178,99,259583,1,10,2:0:0:0:
44,229,259723,1,10,2:0:0:0:
256,204,259862,6,0,L|199:186,1,33.7749989692688,6|4,2:3|2:3,2:0:0:0:
169,187,260002,2,0,L|223:206,1,33.7749989692688,4|4,2:3|2:3,2:0:0:0:
389,92,260141,6,0,P|311:87|274:136,1,135.099995877075,8|6,2:0|1:2,2:0:0:0:
334,278,260420,6,0,P|370:234|363:178,1,115.799996466065,2|2,2:0|1:2,2:0:0:0:
169,187,260699,1,8,2:0:0:0:
248,334,260839,6,0,B|314:321|314:321|352:335|352:335|435:318,1,173.699994699097,2|0,1:2|2:0,2:0:0:0:
443,312,261118,1,2,1:2:0:0:
363,179,261258,2,0,P|288:202|279:237,1,115.799996466065,10|2,2:0|2:0,2:0:0:0:
165,319,261537,1,2,1:2:0:0:
51,239,261676,1,2,1:2:0:0:
165,319,261816,2,0,P|208:270|189:218,1,115.799996466065,8|2,2:0|2:0,2:0:0:0:
60,31,262095,6,0,B|6:69|35:133|35:133|71:170|61:216,1,202.649993815613,6|0,1:2|2:0,2:0:0:0:
51,239,262374,1,10,2:0:0:0:
170,80,262513,6,0,P|245:44|331:143,1,202.649993815613,6|0,1:2|2:0,2:0:0:0:
336,139,262792,1,2,1:2:0:0:
180,187,262932,1,10,2:0:0:0:
373,0,263072,6,0,L|373:223,1,217.125008282662,4|0,1:2|2:0,2:0:0:0:
375,245,263351,1,0,1:0:0:0:
251,96,263490,1,8,2:0:0:0:
470,229,263630,1,4,2:3:0:0:
470,229,263699,1,4,2:3:0:0:
470,229,263769,5,8,2:0:0:0:
180,187,263909,5,10,0:2:0:0:
