osu file format v14

[General]
AudioFilename: audio.mp3
AudioLeadIn: 0
PreviewTime: 210118
Countdown: 0
SampleSet: Soft
StackLeniency: 0.7
Mode: 0
LetterboxInBreaks: 0
EpilepsyWarning: 1
WidescreenStoryboard: 0

[Editor]
Bookmarks: 10653
DistanceSpacing: 1.4
BeatDivisor: 4
GridSize: 32
TimelineZoom: 2

[Metadata]
Title:Natsuhishou
TitleUnicode:夏日章
Artist:nao feat. isui
ArtistUnicode:夏央 feat. 倚水
Creator:Sarawatlism
Version:Amats' Hard
Source:
Tags:樂 raku japanese rock j-rock jrock jpop pop j-pop サマーライト summer lights [_lost_] conner c_o_n_n_e_r centrak_ amats pnky clammbon natsuhisyou
BeatmapID:4150842
BeatmapSetID:1947986

[Difficulty]
HPDrainRate:4.5
CircleSize:3.4
OverallDifficulty:7
ApproachRate:8
SliderMultiplier:1.4
SliderTickRate:1

[Events]
//Background and Video events
0,0,"BG.jpg",0,0
Video,-150,"VD.mp4"
//Break Periods
2,118295,126275
2,169644,186554
2,210946,218926
//Storyboard Layer 0 (Background)
//Storyboard Layer 1 (Fail)
//Storyboard Layer 2 (Pass)
//Storyboard Layer 3 (Foreground)
//Storyboard Layer 4 (Overlay)
//Storyboard Sound Samples

[TimingPoints]
886,279.06976744186,4,2,1,50,1,0
10234,-111.111111111111,4,2,1,50,0,0
10932,-100,4,2,1,70,0,0
19583,-100,4,2,2,70,0,0
19723,-100,4,2,1,70,0,0
19862,-125,4,2,1,60,0,0
20141,-125,4,2,2,60,0,0
28652,-125,4,2,1,60,0,0
29071,-125,4,2,2,60,0,0
37165,-111.111111111111,4,2,2,60,0,0
37444,-111.111111111111,4,2,1,60,0,0
38281,-111.111111111111,4,2,2,60,0,0
39676,-111.111111111111,4,2,1,60,0,0
40234,-111.111111111111,4,2,2,60,0,0
44280,-111.111111111111,4,2,1,60,0,0
44979,-111.111111111111,4,2,2,60,0,0
46374,-111.111111111111,4,2,1,60,0,0
46513,-111.111111111111,4,2,2,60,0,0
48606,-111.111111111111,4,2,1,60,0,0
49164,-111.111111111111,4,2,2,60,0,0
50979,-111.111111111111,4,2,1,60,0,0
51397,-111.111111111111,4,2,2,60,0,0
52792,-100,4,2,2,60,0,0
53351,-100,4,2,2,70,0,0
59676,-100,4,2,1,100,0,0
59862,-100,4,2,2,100,0,0
63955,-100,4,2,1,100,0,0
64513,-100,4,2,1,80,0,1
73024,-100,4,2,2,80,0,1
73165,-100,4,2,1,80,0,1
73444,-100,4,2,1,80,0,0
73723,-100,4,2,1,80,0,1
82304,-100,4,2,1,80,0,0
82374,-100,4,2,1,80,0,1
82513,-111.111111111111,4,2,1,80,0,1
84188,-111.111111111111,4,2,2,80,0,1
84327,-111.111111111111,4,2,1,80,0,1
84606,-142.857142857143,4,2,1,80,0,0
85722,-142.857142857143,4,2,1,60,0,0
86839,-125,4,2,1,60,0,0
87118,-125,4,2,2,60,0,0
89211,-125,4,2,1,60,0,0
89351,-100,4,2,1,60,0,0
91304,-100,4,2,1,70,0,0
95908,-100,4,2,2,70,0,0
96048,-100,4,2,1,70,0,0
99536,-100,4,2,2,70,0,0
99676,-100,4,2,1,70,0,0
100094,-100,4,2,2,70,0,0
100234,-125,4,2,2,60,0,0
116141,-111.111111111111,4,2,2,60,0,0
116839,-111.111111111111,4,2,1,60,0,0
117258,-111.111111111111,4,2,2,60,0,0
117816,-111.111111111111,4,2,1,60,0,0
127583,-111.111111111111,4,2,2,60,0,0
131559,-111.111111111111,4,2,1,60,0,0
131769,-111.111111111111,4,2,2,60,0,0
133165,-99.9999999999999,4,2,2,60,0,0
133723,-99.9999999999999,4,2,2,70,0,0
140048,-99.9999999999999,4,2,1,70,0,0
140234,-99.9999999999999,4,2,2,70,0,0
146560,-99.9999999999999,4,2,1,70,0,0
147118,-99.9999999999999,4,2,1,80,0,1
155629,-99.9999999999999,4,2,2,80,0,1
155769,-99.9999999999999,4,2,1,80,0,1
156048,-99.9999999999999,4,2,1,80,0,0
156327,-99.9999999999999,4,2,1,80,0,1
164909,-99.9999999999999,4,2,1,80,0,0
164979,-99.9999999999999,4,2,1,80,0,1
165118,-111.111111111111,4,2,1,80,0,1
166932,-111.111111111111,4,2,2,80,0,1
167072,-111.111111111111,4,2,1,80,0,1
167211,-142.857142857143,4,2,1,80,0,0
168327,-142.857142857143,4,2,1,60,0,0
169444,-142.857142857143,4,2,4,40,0,0
187304,-125,4,2,1,50,0,0
200699,-111.111111111111,4,2,1,60,0,0
202025,-111.111111111111,4,2,1,5,0,0
202095,-111.111111111111,4,2,1,60,0,0
202374,-111.111111111111,4,2,1,60,0,0
202513,-111.111111111111,4,2,1,5,0,0
202653,-111.111111111111,4,2,1,60,0,0
202792,-111.111111111111,4,2,1,5,0,0
202932,-111.111111111111,4,2,1,60,0,0
204188,-111.111111111111,4,2,1,5,0,0
204327,-111.111111111111,4,2,1,60,0,0
204606,-105.263157894737,4,2,1,60,0,0
204746,-105.263157894737,4,2,1,5,0,0
204885,-100,4,2,1,60,0,0
205025,-100,4,2,1,5,0,0
205165,-100,4,2,1,70,0,0
206839,-100,4,2,2,70,0,0
206908,-100,4,2,1,70,0,0
208374,-200,4,2,1,70,0,0
210746,-200,4,2,1,40,0,0
219676,-125,4,2,1,60,0,0
224420,-125,4,2,2,60,0,0
225816,-111.111111111111,4,2,2,60,0,0
228606,-125,4,2,2,60,0,0
230002,-100,4,2,1,60,0,0
230188,-100,4,2,2,60,0,0
230281,-133.333333333333,4,2,2,60,0,0
230839,-100,4,2,2,70,0,0
232885,-100,4,2,1,70,0,0
233072,-100,4,2,1,80,0,1
237537,-100,4,2,1,80,0,0
237746,-100,4,2,1,5,0,0
237816,-100,4,2,1,80,0,1
242141,-111.111111111111,4,2,1,80,0,1
243955,-111.111111111111,4,2,2,80,0,1
244094,-111.111111111111,4,2,1,80,0,1
245909,-100,4,2,1,80,0,1
246048,-100,4,2,2,80,0,1
246188,-111.111111111111,4,2,1,80,0,1
246397,-111.111111111111,4,2,1,80,0,0
246467,-99.9999999999999,4,2,1,80,0,1
248141,-99.9999999999999,4,2,2,80,0,1
248210,-99.9999999999999,4,2,1,80,0,1
248699,-125,4,2,1,80,0,0
249815,-125,4,2,1,60,0,0
251211,-125,4,2,2,60,0,0
253304,-125,4,2,1,60,0,0
253444,-100,4,2,1,60,0,0
255397,-100,4,2,1,70,0,0
260001,-100,4,2,2,70,0,0
260141,-100,4,2,1,70,0,0
263629,-100,4,2,2,70,0,0
263769,-100,4,2,1,70,0,0

[Colours]
Combo1 : 172,117,132
Combo2 : 128,128,192
Combo3 : 0,102,204
Combo4 : 245,173,107

[HitObjects]
256,192,8560,12,2,9816,2:0:0:0:
208,96,10234,6,0,P|202:131|196:166,1,62.9999980773926,10|0,2:0|2:0,0:0:0:0:
117,176,10513,1,2,1:2:0:0:
117,176,10583,1,8,2:0:0:0:
117,176,10653,2,0,P|123:211|129:246,1,62.9999980773926,10|10,2:0|2:0,0:0:0:0:
185,320,10932,6,0,P|234:279|312:300,1,140,6|8,1:2|2:0,0:0:0:0:
383,351,11351,1,2,2:0:0:0:
470,304,11490,1,2,1:2:0:0:
470,304,11630,2,0,P|464:269|458:234,1,70,2|8,1:2|2:0,0:0:0:0:
472,130,11909,6,0,B|394:112|414:176|320:159,1,140,2|2,1:2|1:2,0:0:0:0:
245,183,12327,2,0,P|239:148|233:113,1,70,10|2,2:0|2:0,0:0:0:0:
183,27,12606,2,0,P|217:21|252:15,1,70,2|2,1:2|1:2,0:0:0:0:
330,76,12885,1,10,2:0:0:0:
423,45,13025,6,0,P|464:94|443:172,1,140,2|2,2:0|2:0,0:0:0:0:
388,240,13444,1,10,2:0:0:0:
388,240,13583,2,0,P|393:274|399:309,1,70,2|0,1:2|2:0,0:0:0:0:
318,365,13862,2,0,P|313:331|307:296,1,70,2|10,1:2|2:0,0:0:0:0:
210,255,14141,6,0,B|148:264|148:264|136:278|136:278|66:290,1,140,2|2,1:2|1:2,0:0:0:0:
16,211,14560,2,0,P|21:176|27:141,1,70,10|14,2:0|2:0,0:0:0:0:
69,53,14839,1,2,2:0:0:0:
159,114,14979,1,10,2:0:0:0:
159,114,15048,1,10,2:0:0:0:
159,114,15118,2,0,P|193:108|228:102,1,70,10|10,2:0|2:0,0:0:0:0:
308,34,15397,6,0,B|346:72|346:72|325:171,1,140,6|8,1:2|2:0,0:0:0:0:
239,196,15816,1,2,2:0:0:0:
302,277,15955,1,2,1:2:0:0:
302,277,16095,2,0,P|336:271|370:265,1,70,2|8,1:2|2:0,0:0:0:0:
442,341,16374,6,0,P|483:292|462:214,1,140,2|2,1:2|1:2,0:0:0:0:
399,152,16792,2,0,P|364:158|330:163,1,70,10|2,2:0|2:0,0:0:0:0:
239,196,17072,1,2,1:2:0:0:
239,196,17211,2,0,B|180:186|180:186|168:172|168:172|106:163,1,140,2|2,1:2|2:0,0:0:0:0:
11,115,17630,6,0,B|-7:193|57:173|40:267,1,140,6|10,1:2|2:0,0:0:0:0:
80,336,18048,2,0,P|129:295|207:316,1,140,6|2,1:2|1:2,0:0:0:0:
277,380,18467,1,10,2:0:0:0:
360,329,18606,6,0,P|347:260|334:191,1,140,6|0,1:2|1:0,0:0:0:0:
252,138,19025,2,0,P|255:116|259:95,3,35,12|8|8|8,2:0|2:0|2:0|2:0,0:0:0:0:
267,55,19304,2,0,P|232:59|199:47,2,70,8|4|6,2:0|2:3|2:3,0:0:0:0:
362,22,19723,1,10,2:3:0:0:
362,22,19862,6,0,P|351:76|341:132,1,112,6|8,1:2|2:0,0:0:0:0:
227,239,20420,1,2,1:2:0:0:
227,239,20560,2,0,P|172:228|116:218,1,112,0|8,1:0|2:0,0:0:0:0:
186,365,21118,5,0,1:0:0:0:
186,365,21258,2,0,P|240:354|296:344,1,112,8|2,2:0|2:0,0:0:0:0:
371,366,21676,2,0,P|399:317|377:249,1,112,2|0,1:2|2:0,0:0:0:0:
341,201,22095,6,0,P|286:211|230:221,1,112,2|8,1:2|2:0,0:0:0:0:
128,109,22653,1,0,1:0:0:0:
128,109,22793,2,0,P|183:99|238:88,1,112,0|10,1:0|2:0,0:0:0:0:
377,13,23351,5,0,1:0:0:0:
377,13,23491,2,0,P|366:67|356:123,1,112,10|2,2:0|1:2,0:0:0:0:
301,177,23909,1,0,1:0:0:0:
301,177,24048,1,10,2:0:0:0:
405,294,24327,6,0,P|356:266|288:288,1,112,0|10,1:0|2:0,0:0:0:0:
173,360,24885,1,2,1:2:0:0:
173,360,25025,2,0,P|163:304|152:249,1,112,0|10,1:0|2:0,0:0:0:0:
78,117,25583,5,0,1:0:0:0:
78,117,25723,2,0,P|133:107|188:96,1,112,10|2,2:0|2:0,0:0:0:0:
250,50,26141,2,0,P|239:104|229:160,1,112,0|0,1:0|2:0,0:0:0:0:
267,229,26560,5,0,1:0:0:0:
411,168,26839,2,0,P|441:173|480:181,1,56,10|10,2:0|2:0,0:0:0:0:
452,255,27118,2,0,P|424:249|396:244,1,56,2|2,1:2|1:2,0:0:0:0:
340,299,27397,1,2,2:0:0:0:
340,299,27537,6,0,B|274:304|297:329|231:339,1,112,10|2,2:0|1:2,0:0:0:0:
177,288,27955,1,10,2:0:0:0:
250,151,28234,1,2,1:2:0:0:
250,151,28374,1,8,2:0:0:0:
186,104,28513,2,0,P|158:109|130:114,1,56,6|10,2:3|2:3,0:0:0:0:
48,95,28792,6,0,P|58:149|68:205,1,112,6|8,1:2|2:0,0:0:0:0:
173,329,29351,1,2,1:2:0:0:
173,329,29491,2,0,P|227:318|283:308,1,112,0|8,1:0|2:0,0:0:0:0:
441,335,30048,5,0,1:0:0:0:
441,335,30188,2,0,P|469:286|447:218,1,112,8|2,2:0|2:0,0:0:0:0:
423,164,30606,2,0,P|368:174|312:184,1,112,2|0,1:2|2:0,0:0:0:0:
237,206,31025,6,0,P|209:157|231:89,1,112,2|8,1:2|2:0,0:0:0:0:
345,10,31583,1,0,1:0:0:0:
345,10,31723,2,0,P|399:20|455:30,1,112,0|10,1:0|2:0,0:0:0:0:
491,188,32281,5,0,1:0:0:0:
491,188,32421,2,0,P|436:177|380:167,1,112,10|2,2:0|1:2,0:0:0:0:
309,189,32839,1,0,1:0:0:0:
309,189,32979,1,10,2:0:0:0:
166,123,33258,6,0,P|194:172|172:240,1,112,0|10,1:0|2:0,0:0:0:0:
71,333,33816,1,2,1:2:0:0:
71,333,33955,2,0,P|43:284|65:216,1,112,0|10,1:0|2:0,0:0:0:0:
190,317,34513,5,0,1:0:0:0:
190,317,34653,2,0,P|244:306|300:296,1,112,10|2,2:0|2:0,0:0:0:0:
376,314,35072,2,0,P|404:265|382:197,1,112,0|0,1:0|2:0,0:0:0:0:
334,162,35490,5,0,1:0:0:0:
180,191,35769,2,0,P|175:161|167:122,1,56,10|8,2:0|2:0,0:0:0:0:
109,85,36048,2,0,P|158:57|226:79,1,112,0|0,1:0|2:0,0:0:0:0:
282,109,36467,1,10,2:0:0:0:
282,109,36607,6,0,P|336:98|392:88,1,112,2|10,2:0|2:0,0:0:0:0:
475,115,37025,1,10,2:0:0:0:
475,115,37095,1,8,2:0:0:0:
475,115,37165,2,0,P|470:146|465:183,1,62.9999980773926,8|4,2:0|2:3,0:0:0:0:
379,198,37444,2,0,P|384:229|389:266,1,62.9999980773926,10|6,2:3|2:3,0:0:0:0:
450,332,37723,6,0,B|393:359|393:359|310:329,1,125.999996154785,6|0,1:2|2:0,0:0:0:0:
262,295,38141,1,2,1:2:0:0:
262,295,38281,2,0,P|199:304|137:315,1,125.999996154785,10|2,2:0|1:2,0:0:0:0:
48,342,38699,6,0,P|16:295|38:221,1,125.999996154785,2|8,2:0|2:0,0:0:0:0:
70,152,39118,1,2,2:0:0:0:
239,200,39397,2,0,P|270:195|301:190,1,62.9999980773926,10|6,2:0|2:3,0:0:0:0:
373,242,39676,2,0,P|404:236|435:232,1,62.9999980773926,10|6,2:3|2:3,0:0:0:0:
512,177,39955,6,0,B|503:127|503:127|484:112|484:112|471:42,1,125.999996154785,6|10,1:2|2:0,0:0:0:0:
402,10,40374,2,0,P|339:21|277:30,1,125.999996154785,6|10,1:2|2:0,0:0:0:0:
187,6,40792,2,0,B|170:110|247:69|236:185,1,188.999994232178,6|8,1:2|2:0,0:0:0:0:
152,210,41351,6,0,P|157:241|161:272,1,62.9999980773926,2|2,1:2|2:0,0:0:0:0:
253,280,41630,1,10,2:0:0:0:
253,280,41769,2,0,P|247:311|243:342,1,62.9999980773926,2|2,1:2|2:0,0:0:0:0:
154,362,42048,1,6,2:3:0:0:
154,362,42118,1,4,2:3:0:0:
154,362,42188,6,0,P|94:376|42:343,1,125.999996154785,6|2,1:2|2:0,0:0:0:0:
0,267,42606,2,0,P|11:204|20:142,1,125.999996154785,2|2,1:2|2:0,0:0:0:0:
83,72,43025,2,0,B|187:55|146:132|262:121,1,188.999994232178,6|8,1:2|2:0,0:0:0:0:
331,72,43583,6,0,P|362:77|393:81,1,62.9999980773926,2|2,1:2|2:0,0:0:0:0:
473,119,43862,1,10,2:0:0:0:
473,119,44002,1,0,1:0:0:0:
398,166,44141,2,0,P|403:197|407:228,1,62.9999980773926,6|4,2:3|2:3,0:0:0:0:
467,301,44420,6,0,B|410:328|410:328|327:298,1,125.999996154785,4|2,1:2|2:0,0:0:0:0:
216,191,44979,2,0,P|184:195|153:200,1,62.9999980773926,10|0,2:0|2:0,0:0:0:0:
68,177,45258,2,0,P|72:208|77:239,1,62.9999980773926,2|2,1:2|1:2,0:0:0:0:
72,337,45537,1,2,2:0:0:0:
72,337,45676,6,0,B|122:328|122:328|137:309|137:309|207:296,1,125.999996154785,12|6,2:0|2:3,0:0:0:0:
363,340,46234,1,12,2:0:0:0:
363,340,46374,2,0,P|368:308|372:277,1,62.9999980773926,4|4,2:3|2:3,0:0:0:0:
439,212,46653,6,0,P|387:179|327:193,1,125.999996154785,6|0,1:2|2:0,0:0:0:0:
249,230,47072,1,2,1:2:0:0:
249,230,47212,2,0,P|237:167|228:105,1,125.999996154785,14|2,2:0|1:2,0:0:0:0:
160,46,47630,6,0,P|211:13|271:27,1,125.999996154785,2|8,1:2|2:0,0:0:0:0:
336,85,48048,2,0,P|368:80|399:76,1,62.9999980773926,2|2,2:0|1:2,0:0:0:0:
485,61,48327,2,0,P|480:93|476:124,1,62.9999980773926,10|6,2:0|2:3,0:0:0:0:
396,162,48606,2,0,P|401:194|405:225,1,62.9999980773926,10|4,2:3|2:3,0:0:0:0:
471,289,48885,6,0,P|419:322|359:308,1,125.999996154785,6|10,1:2|2:0,0:0:0:0:
302,240,49304,2,0,P|242:226|190:259,1,125.999996154785,6|10,1:2|2:0,0:0:0:0:
130,331,49723,2,0,B|81:288|81:288|129:143,1,188.999994232178,6|8,1:2|2:0,0:0:0:0:
102,83,50281,6,0,P|133:87|164:91,1,62.9999980773926,2|2,1:2|2:0,0:0:0:0:
241,144,50560,1,10,2:0:0:0:
241,144,50700,2,0,P|304:132|366:123,1,125.999996154785,6|6,1:2|2:3,0:0:0:0:
430,54,51118,6,0,P|462:105|449:165,2,125.999996154785,6|10|8,1:2|2:0|2:0,0:0:0:0:
355,16,51816,1,2,2:0:0:0:
355,16,51955,2,0,P|292:28|230:37,1,125.999996154785,6|0,1:2|2:0,0:0:0:0:
153,80,52374,5,0,1:0:0:0:
67,61,52513,2,0,P|71:92|75:123,1,62.9999980773926,10|0,2:0|2:0,0:0:0:0:
133,203,52792,2,0,P|152:199|179:193,3,35,10|8|10|8,1:2|2:0|2:0|2:0,0:0:0:0:
212,175,53072,2,0,P|229:178|246:181,3,35,10|8|8|8,1:2|2:0|2:0|2:0,0:0:0:0:
293,166,53351,6,0,B|321:246|321:246|286:288,1,140,4|8,1:2|2:0,0:0:0:0:
206,343,53769,1,0,2:0:0:0:
206,343,53909,2,0,P|171:335|137:330,1,70,0|0,1:0|1:0,0:0:0:0:
49,374,54188,1,8,2:0:0:0:
3,282,54327,6,0,B|12:220|12:220|26:208|26:208|38:138,1,140,0|0,1:0|1:0,0:0:0:0:
113,89,54746,2,0,P|147:96|181:101,1,70,10|2,2:0|2:0,0:0:0:0:
275,133,55025,2,0,P|267:98|262:64,1,70,2|0,1:2|1:0,0:0:0:0:
370,96,55304,2,0,P|362:130|357:164,1,70,10|0,2:0|2:0,0:0:0:0:
406,259,55583,6,0,P|339:243|282:281,1,140,0|8,1:0|2:0,0:0:0:0:
92,311,56141,1,0,1:0:0:0:
92,311,56281,2,0,P|84:276|79:242,1,70,0|8,1:0|2:0,0:0:0:0:
55,141,56560,6,0,B|117:150|117:150|129:164|129:164|199:176,1,140,0|0,1:0|1:0,0:0:0:0:
284,186,56979,2,0,P|276:151|271:117,1,70,10|2,2:0|2:0,0:0:0:0:
296,22,57258,2,0,P|261:29|227:34,1,70,2|0,1:2|1:0,0:0:0:0:
351,88,57537,2,0,P|385:80|419:75,1,70,10|2,2:0|2:0,0:0:0:0:
512,35,57816,6,0,B|503:97|503:97|489:109|489:109|477:179,1,140,6|2,1:2|1:2,0:0:0:0:
436,255,58234,2,0,P|379:217|312:232,1,140,10|0,2:0|1:0,0:0:0:0:
237,295,58653,1,10,2:0:0:0:
51,232,58932,6,0,P|59:197|64:163,1,70,4|0,1:2|2:0,0:0:0:0:
151,117,59211,2,0,P|154:91|158:67,2,46.6666666666667,10|8|8,2:0|2:0|2:0,0:0:0:0:
128,55,59490,2,0,P|81:78|21:54,2,93.3333333333333,10|4|4,2:0|2:3|2:3,0:0:0:0:
208,6,60048,5,6,1:2:0:0:
37,135,62002,6,0,P|71:142|105:147,1,70,10|2,2:0|2:0,0:0:0:0:
188,211,62281,6,0,P|225:154|210:87,1,140,6|10,1:2|2:0,0:0:0:0:
147,12,62699,2,0,P|181:6|215:0,1,70,2|0,1:2|2:0,0:0:0:0:
296,56,62979,2,0,P|330:48|364:43,1,70,2|2,1:2|2:0,0:0:0:0:
468,11,63258,6,0,B|459:73|459:73|445:85|445:85|433:155,1,140,6|0,1:2|1:0,0:0:0:0:
455,238,63676,2,0,P|420:230|386:225,1,70,12|0,2:0|2:0,0:0:0:0:
301,164,63955,2,0,P|283:167|266:170,3,35,10|8|8|8,1:2|2:0|2:0|2:0,0:0:0:0:
219,185,64234,2,0,P|199:181|172:175,3,35,10|8|8|8,1:2|2:0|2:0|2:0,0:0:0:0:
136,168,64513,6,0,B|112:253|112:253|143:294,1,140,6|8,1:2|2:0,0:0:0:0:
218,365,64932,1,0,2:0:0:0:
218,365,65072,2,0,P|253:357|287:352,1,70,2|0,1:2|1:0,0:0:0:0:
352,278,65351,2,0,P|387:286|421:291,1,70,10|0,2:0|2:0,0:0:0:0:
491,368,65630,6,0,P|530:304|503:235,1,140,0|10,1:0|2:0,0:0:0:0:
434,196,66048,1,2,1:2:0:0:
434,196,66188,2,0,P|442:161|447:127,1,70,2|0,2:0|1:0,0:0:0:0:
468,31,66467,2,0,B|406:40|406:40|394:54|394:54|324:66,1,140,8|0,2:0|1:0,0:0:0:0:
248,38,66885,5,2,2:0:0:0:
248,38,67025,2,0,P|256:73|261:107,1,70,10|2,2:0|2:0,0:0:0:0:
183,166,67304,1,2,1:2:0:0:
272,207,67444,1,2,1:2:0:0:
197,270,67583,2,0,P|162:262|128:257,1,70,10|2,2:0|2:0,0:0:0:0:
29,281,67862,6,0,P|-10:217|17:148,1,140,0|10,1:0|2:0,0:0:0:0:
64,78,68281,2,0,P|133:91|202:103,1,140,0|0,1:0|1:0,0:0:0:0:
295,149,68699,2,0,P|330:141|364:136,1,70,14|2,2:0|2:0,0:0:0:0:
457,104,68979,6,0,B|448:166|448:166|434:178|434:178|422:248,1,140,6|8,1:2|2:0,0:0:0:0:
263,348,69537,2,0,P|199:309|130:336,1,140,2|10,1:2|2:0,0:0:0:0:
48,359,69955,6,0,P|36:290|23:221,1,140,2|2,2:0|2:0,0:0:0:0:
92,151,70374,2,0,P|127:159|161:164,1,70,10|0,2:0|1:0,0:0:0:0:
243,216,70653,1,0,2:0:0:0:
243,216,70792,1,0,1:0:0:0:
334,180,70932,2,0,P|326:146|321:111,1,70,10|2,2:0|2:0,0:0:0:0:
394,40,71211,6,0,P|330:1|261:28,1,140,6|2,1:2|2:0,0:0:0:0:
198,83,71630,1,10,2:0:0:0:
198,83,71769,2,0,P|164:75|129:70,1,70,6|4,2:3|2:3,0:0:0:0:
25,51,72048,2,0,B|33:106|33:106|60:127|60:127|70:189,1,140,6|0,1:2|1:0,0:0:0:0:
147,252,72467,5,8,2:0:0:0:
147,252,72537,1,8,2:0:0:0:
147,252,72606,2,0,P|165:249|182:246,3,35,8|8|8|8,2:0|2:0|2:0|2:0,0:0:0:0:
225,267,72885,2,0,P|259:259|294:254,1,70,10|4,2:0|2:3,0:0:0:0:
381,309,73165,1,10,2:3:0:0:
381,309,73304,1,6,2:3:0:0:
476,275,73444,6,0,P|468:241|463:206,1,70,2|0,1:2|2:0,0:0:0:0:
472,102,73723,2,0,B|417:110|417:110|396:137|396:137|334:147,1,140,12|2,2:0|1:2,0:0:0:0:
285,67,74141,1,0,1:0:0:0:
191,98,74281,2,0,P|199:132|204:167,1,70,10|2,2:0|2:0,0:0:0:0:
278,238,74560,6,0,P|221:275|155:259,1,140,0|10,1:0|2:0,0:0:0:0:
62,243,74979,1,2,1:2:0:0:
62,243,75118,2,0,P|70:277|75:312,1,70,2|0,2:0|1:0,0:0:0:0:
125,180,75397,2,0,P|112:111|100:42,1,140,8|0,2:0|1:0,0:0:0:0:
196,10,75816,5,2,2:0:0:0:
196,10,75955,2,0,P|230:18|265:23,1,70,10|2,2:0|2:0,0:0:0:0:
362,9,76234,2,0,B|354:64|354:64|327:85|327:85|317:147,1,140,2|10,1:2|2:0,0:0:0:0:
232,176,76653,1,2,2:0:0:0:
232,176,76792,6,0,P|240:210|245:245,1,70,2|0,1:2|2:0,0:0:0:0:
318,310,77072,1,10,2:0:0:0:
414,296,77211,2,0,P|451:239|435:173,1,140,0|0,1:0|1:0,0:0:0:0:
378,91,77630,2,0,P|344:99|309:104,1,70,14|2,2:0|2:0,0:0:0:0:
232,176,77909,6,0,P|163:163|94:151,1,140,6|8,1:2|2:0,0:0:0:0:
228,294,78467,2,0,P|262:286|297:281,1,70,2|0,1:2|1:0,0:0:0:0:
394,314,78746,1,10,2:0:0:0:
394,314,78885,6,0,B|425:273|425:273|401:188,1,140,2|2,1:2|1:2,0:0:0:0:
305,161,79304,2,0,P|300:126|292:92,1,70,10|0,2:0|2:0,0:0:0:0:
371,35,79583,2,0,P|376:70|384:104,1,70,0|0,2:0|1:0,0:0:0:0:
437,185,79862,2,0,P|471:177|506:172,1,70,10|2,2:0|2:0,0:0:0:0:
382,259,80141,6,0,P|313:246|244:234,1,140,6|10,1:2|2:0,0:0:0:0:
161,192,80560,1,2,2:0:0:0:
161,192,80699,2,0,P|166:157|174:123,1,70,2|2,1:2|1:2,0:0:0:0:
119,47,80979,1,10,2:0:0:0:
119,47,81118,1,2,1:2:0:0:
24,74,81258,6,0,B|32:129|32:129|59:150|59:150|69:212,1,140,2|10,2:0|2:0,0:0:0:0:
20,285,81676,2,0,P|77:322|143:306,1,140,2|0,2:0|1:0,0:0:0:0:
222,246,82095,2,0,P|256:254|291:259,1,70,10|2,2:0|2:0,0:0:0:0:
370,323,82374,5,6,1:2:0:0:
454,281,82513,2,0,B|445:231|445:231|426:216|426:216|413:146,1,125.999996154785,0|2,1:0|1:2,0:0:0:0:
461,89,82932,2,0,P|401:75|349:108,1,125.999996154785,14|0,2:0|1:0,0:0:0:0:
268,142,83351,6,0,P|208:156|156:123,1,125.999996154785,2|8,1:2|2:0,0:0:0:0:
92,64,83769,1,2,1:2:0:0:
23,134,83909,1,10,2:0:0:0:
23,134,83979,1,8,2:0:0:0:
23,134,84048,2,0,P|28:165|32:196,1,62.9999980773926,10|4,2:0|2:3,0:0:0:0:
118,215,84327,2,0,P|112:246|108:277,1,62.9999980773926,10|4,2:3|2:3,0:0:0:0:
190,322,84606,38,0,B|254:276|310:335|272:341|305:387|360:406|422:394|462:325|446:269|400:232|344:256|328:291,1,391.99998803711,4|2,1:2|2:0,0:0:0:0:
120,215,86839,6,0,P|110:159|99:104,2,112,6|8|0,1:2|2:0|1:0,0:0:0:0:
172,281,87537,1,0,1:0:0:0:
172,281,87676,2,0,P|199:275|227:271,1,56,8|0,2:0|2:0,0:0:0:0:
302,292,87955,6,0,P|330:243|308:175,1,112,2|8,1:2|2:0,0:0:0:0:
245,164,88374,2,0,P|217:115|239:47,1,112,2|0,1:2|1:0,0:0:0:0:
293,21,88792,1,10,2:0:0:0:
479,83,89072,5,6,1:2:0:0:
408,153,89211,1,10,2:0:0:0:
408,153,89281,1,10,2:0:0:0:
408,153,89351,2,0,P|416:188|421:222,2,70,10|10|6,2:0|2:0|1:2,0:0:0:0:
326,121,89769,1,10,2:0:0:0:
326,121,89839,1,10,2:0:0:0:
326,121,89909,2,0,P|291:128|257:133,1,70,10|10,2:0|2:0,0:0:0:0:
160,115,90188,6,0,P|167:149|172:183,1,70,4|10,1:2|2:0,0:0:0:0:
265,218,90467,2,0,P|257:252|252:286,1,70,2|10,1:2|2:0,0:0:0:0:
178,352,90746,2,0,P|170:317|165:283,1,70,8|2,2:0|1:2,0:0:0:0:
86,223,91025,2,0,P|68:226|51:230,3,35,10|0|10|8,2:0|2:0|2:0|2:0,0:0:0:0:
5,213,91304,6,0,B|14:151|14:151|28:139|28:139|40:69,1,140,6|8,1:2|2:0,0:0:0:0:
103,7,91723,1,2,2:0:0:0:
188,64,91862,1,2,1:2:0:0:
188,64,92002,2,0,P|222:56|256:51,1,70,2|8,1:2|2:0,0:0:0:0:
355,14,92281,6,0,P|396:63|375:141,1,140,2|2,1:2|1:2,0:0:0:0:
284,139,92699,2,0,P|291:173|296:207,1,70,10|2,2:0|2:0,0:0:0:0:
198,211,92979,2,0,P|205:245|210:279,1,70,2|2,1:2|1:2,0:0:0:0:
268,362,93258,1,10,2:0:0:0:
351,311,93397,6,0,B|413:320|413:320|425:334|425:334|495:346,1,140,2|2,2:0|2:0,0:0:0:0:
512,253,93816,1,10,2:0:0:0:
512,253,93956,2,0,P|504:218|499:184,1,70,2|0,1:2|2:0,0:0:0:0:
511,87,94234,2,0,P|476:94|442:99,1,70,2|10,1:2|2:0,0:0:0:0:
350,136,94513,6,0,P|281:124|212:111,1,140,2|2,1:2|1:2,0:0:0:0:
120,76,94932,2,0,P|127:110|132:144,1,70,10|14,2:0|2:0,0:0:0:0:
43,187,95211,1,2,2:0:0:0:
126,262,95351,1,10,2:0:0:0:
126,262,95421,1,10,2:0:0:0:
126,262,95491,2,0,P|160:254|194:249,1,70,10|10,2:0|2:0,0:0:0:0:
280,202,95769,6,0,P|300:205|327:211,3,35,6|4|4|4,2:3|2:3|2:3|2:3,0:0:0:0:
359,228,96048,2,0,P|351:262|346:296,1,70,8|6,2:0|1:2,0:0:0:0:
275,365,96327,1,2,2:0:0:0:
275,365,96467,2,0,P|240:357|206:352,1,70,2|8,1:2|2:0,0:0:0:0:
103,369,96746,6,0,P|62:320|83:242,1,140,2|2,1:2|1:2,0:0:0:0:
163,204,97165,2,0,P|155:169|150:135,1,70,10|2,2:0|2:0,0:0:0:0:
217,63,97444,1,2,1:2:0:0:
217,63,97583,1,2,1:2:0:0:
305,104,97723,2,0,P|339:96|373:91,1,70,8|2,2:0|2:0,0:0:0:0:
476,60,98002,6,0,B|468:115|468:115|441:136|441:136|431:198,1,140,6|10,1:2|2:0,0:0:0:0:
364,255,98420,2,0,P|295:242|226:230,1,140,6|2,1:2|1:2,0:0:0:0:
164,153,98839,1,10,2:0:0:0:
63,184,98979,6,0,P|20:237|35:303,1,140,6|0,1:2|1:0,0:0:0:0:
116,357,99397,2,0,P|133:353|150:351,3,35,8|4|4|4,2:0|2:3|2:3|2:3,0:0:0:0:
189,321,99676,2,0,P|223:326|257:333,1,70,8|0,2:0|1:0,0:0:0:0:
339,368,99955,2,0,P|373:360|407:355,1,70,10|6,2:0|2:3,0:0:0:0:
481,328,100234,6,0,P|470:274|460:218,1,112,6|8,1:2|2:0,0:0:0:0:
366,99,100792,1,2,1:2:0:0:
366,99,100932,2,0,P|311:110|255:120,1,112,2|8,1:2|2:0,0:0:0:0:
121,196,101490,5,0,1:0:0:0:
121,196,101630,2,0,P|93:148|102:94,1,112,8|2,2:0|2:0,0:0:0:0:
36,53,102048,2,0,P|91:43|146:32,1,112,2|0,1:2|2:0,0:0:0:0:
218,62,102467,6,0,P|272:51|328:41,1,112,2|8,1:2|2:0,0:0:0:0:
483,85,103025,1,0,1:0:0:0:
483,85,103165,2,0,P|472:140|462:196,1,112,0|10,1:0|2:0,0:0:0:0:
369,322,103723,5,0,1:0:0:0:
369,322,103863,2,0,P|358:267|348:211,1,112,10|2,2:0|1:2,0:0:0:0:
302,151,104281,1,2,1:2:0:0:
302,151,104420,1,10,2:0:0:0:
161,223,104699,6,0,P|106:232|59:204,1,112,0|10,1:0|2:0,0:0:0:0:
29,55,105258,1,2,2:0:0:0:
29,55,105398,2,0,P|84:44|140:34,1,112,0|10,1:0|2:0,0:0:0:0:
295,71,105955,5,0,1:0:0:0:
295,71,106095,2,0,P|284:125|274:181,1,112,10|2,2:0|2:0,0:0:0:0:
201,209,106513,2,0,P|211:263|221:319,1,112,0|0,1:0|2:0,0:0:0:0:
278,373,106932,5,0,1:0:0:0:
377,252,107211,2,0,P|404:257|432:261,1,56,10|0,2:0|2:0,0:0:0:0:
506,231,107490,1,0,1:0:0:0:
506,231,107630,2,0,P|515:176|487:129,1,112,0|8,1:0|2:0,0:0:0:0:
359,49,108188,5,0,1:0:0:0:
359,49,108328,2,0,P|304:59|248:69,1,112,8|0,2:0|1:0,0:0:0:0:
176,88,108746,1,8,2:0:0:0:
176,88,108885,2,0,P|181:115|185:143,1,56,6|6,2:3|2:3,0:0:0:0:
261,165,109165,6,0,P|250:219|240:275,1,112,6|8,1:2|2:0,0:0:0:0:
109,359,109723,1,2,1:2:0:0:
109,359,109863,2,0,P|99:303|88:248,1,112,2|8,1:2|2:0,0:0:0:0:
40,105,110420,5,0,1:0:0:0:
40,105,110560,2,0,P|94:115|150:125,1,112,8|2,2:0|2:0,0:0:0:0:
217,166,110979,2,0,P|271:155|327:145,1,112,2|0,1:2|2:0,0:0:0:0:
401,170,111397,6,0,P|428:122|419:68,1,112,2|8,1:2|2:0,0:0:0:0:
281,4,111955,1,0,1:0:0:0:
281,4,112095,2,0,P|253:51|262:105,1,112,0|10,1:0|2:0,0:0:0:0:
323,255,112653,5,0,1:0:0:0:
323,255,112793,2,0,P|268:244|212:234,1,112,10|2,2:0|1:2,0:0:0:0:
136,265,113211,1,0,1:0:0:0:
136,265,113351,1,10,2:0:0:0:
74,120,113630,6,0,P|129:110|184:99,1,112,0|10,1:0|2:0,0:0:0:0:
335,50,114188,1,2,1:2:0:0:
335,50,114328,2,0,P|389:60|445:70,1,112,0|10,1:0|2:0,0:0:0:0:
483,227,114885,5,0,1:0:0:0:
483,227,115025,2,0,P|435:199|381:208,1,112,10|2,2:0|2:0,0:0:0:0:
328,267,115444,1,0,1:0:0:0:
328,267,115583,2,0,P|300:261|272:257,1,56,10|0,2:0|2:0,0:0:0:0:
204,313,115862,5,12,2:0:0:0:
134,278,116002,1,0,1:0:0:0:
134,278,116072,1,0,1:0:0:0:
134,278,116141,2,0,P|139:247|144:216,1,62.9999980773926,0|0,1:0|1:0,0:0:0:0:
85,144,116420,2,0,B|142:117|142:117|225:147,1,125.999996154785,12|0,2:0|1:0,0:0:0:0:
268,195,116839,6,0,P|331:184|393:175,1,125.999996154785,6|0,2:3|1:0,0:0:0:0:
457,234,117258,1,10,2:0:0:0:
512,168,117397,1,2,2:0:0:0:
512,168,117467,1,8,2:0:0:0:
512,168,117536,2,0,P|507:137|502:106,1,62.9999980773926,8|4,2:0|2:3,0:0:0:0:
436,45,117816,1,10,2:3:0:0:
273,113,118095,5,6,1:2:0:0:
154,266,127025,5,6,1:2:0:0:
154,266,127165,2,0,P|217:255|279:246,1,125.999996154785,0|2,1:0|1:2,0:0:0:0:
363,268,127583,2,0,P|397:217|387:156,1,125.999996154785,10|2,2:0|1:2,0:0:0:0:
324,94,128002,6,0,P|261:104|199:113,1,125.999996154785,2|8,1:2|2:0,0:0:0:0:
123,158,128420,1,2,2:0:0:0:
227,300,128699,2,0,P|222:331|217:362,1,62.9999980773926,10|2,2:0|2:0,0:0:0:0:
128,348,128979,2,0,P|123:317|118:286,1,62.9999980773926,2|2,2:0|2:0,0:0:0:0:
55,218,129258,6,0,B|112:191|112:191|195:221,1,125.999996154785,6|10,1:2|2:0,0:0:0:0:
257,193,129676,2,0,P|246:130|237:68,1,125.999996154785,6|10,1:2|2:0,0:0:0:0:
310,18,130095,2,0,P|372:28|434:37,1,125.999996154785,6|0,1:2|2:0,0:0:0:0:
509,93,130513,5,8,2:0:0:0:
509,93,130653,2,0,P|504:124|499:155,1,62.9999980773926,2|2,1:2|2:0,0:0:0:0:
425,204,130932,2,0,P|420:173|415:142,1,62.9999980773926,10|6,2:0|1:2,0:0:0:0:
345,87,131211,1,2,2:0:0:0:
309,168,131351,1,2,2:0:0:0:
229,120,131490,6,0,L|192:125,4,31.4999990386963,6|8|8|4|10,2:3|2:3|2:3|2:3|2:0,0:0:0:0:
309,168,131909,2,0,P|304:199|299:230,1,62.9999980773926,2|0,1:2|2:0,0:0:0:0:
219,249,132188,1,2,1:2:0:0:
219,249,132258,1,0,1:0:0:0:
219,249,132327,2,0,P|229:311|238:373,1,125.999996154785,14|0,2:0|1:0,0:0:0:0:
325,384,132746,5,12,2:0:0:0:
403,343,132885,2,0,P|398:312|393:281,1,62.9999980773926,14|0,2:0|2:0,0:0:0:0:
464,212,133165,1,2,1:2:0:0:
409,147,133304,1,8,2:0:0:0:
409,147,133374,1,8,2:0:0:0:
409,147,133444,2,0,P|405:128|399:101,3,35,10|8|10|8,1:2|2:0|2:0|2:0,0:0:0:0:
394,64,133723,6,0,B|339:72|339:72|318:99|318:99|256:109,1,140,6|8,1:2|2:0,0:0:0:0:
77,64,134281,2,0,P|85:99|90:133,1,70,0|0,1:0|1:0,0:0:0:0:
139,217,134560,1,8,2:0:0:0:
239,196,134699,6,0,P|276:253|259:319,1,140,0|0,1:0|1:0,0:0:0:0:
177,373,135118,2,0,P|142:365|108:360,1,70,10|2,2:0|2:0,0:0:0:0:
12,380,135397,2,0,P|6:345|0:311,1,70,2|0,1:2|1:0,0:0:0:0:
82,279,135676,2,0,P|87:244|94:210,1,70,10|2,2:0|2:0,0:0:0:0:
29,132,135955,6,0,B|89:99|89:99|173:128,1,140,2|8,1:2|2:0,0:0:0:0:
319,241,136513,1,0,1:0:0:0:
319,241,136653,2,0,P|353:233|387:228,1,70,0|8,1:0|2:0,0:0:0:0:
458,300,136932,6,0,P|495:242|478:176,1,140,0|0,1:0|1:0,0:0:0:0:
391,131,137351,2,0,P|383:96|378:62,1,70,10|2,2:0|2:0,0:0:0:0:
279,57,137630,2,0,P|286:91|291:125,1,70,2|0,1:2|1:0,0:0:0:0:
211,181,137909,2,0,P|176:173|142:168,1,70,10|2,2:0|2:0,0:0:0:0:
41,143,138188,6,0,B|49:198|49:198|76:219|76:219|83:268,1,140,6|2,1:2|1:2,0:0:0:0:
150,339,138606,2,0,P|207:301|273:318,1,140,14|0,2:0|1:0,0:0:0:0:
359,365,139025,1,14,2:0:0:0:
493,222,139304,6,0,P|485:187|480:153,1,70,4|0,1:2|2:0,0:0:0:0:
415,79,139583,2,0,P|389:82|365:86,2,46.6666666666667,10|8|8,2:0|2:0|2:0,0:0:0:0:
351,94,139862,2,0,P|342:48|333:3,2,93.3333333333333,10|4|4,2:0|2:3|2:3,0:0:0:0:
400,173,140420,5,6,1:2:0:0:
107,23,142374,6,0,P|114:57|119:91,1,70,10|2,2:0|2:0,0:0:0:0:
111,193,142653,6,0,B|160:185|160:185|181:158|181:158|236:150,1,140,6|10,1:2|2:0,0:0:0:0:
338,130,143072,2,0,P|331:164|326:198,1,70,2|0,1:2|2:0,0:0:0:0:
237,242,143351,2,0,P|244:276|249:310,1,70,2|0,1:2|2:0,0:0:0:0:
343,354,143630,6,0,P|409:370|465:332,1,140,6|8,1:2|2:0,0:0:0:0:
512,240,144048,1,8,2:0:0:0:
431,184,144188,1,0,1:0:0:0:
431,184,144258,1,0,1:0:0:0:
431,184,144327,2,0,P|413:187|396:190,3,35,8|0|0|0,2:0|1:0|1:0|1:0,0:0:0:0:
350,207,144606,2,0,P|332:204|315:201,3,35,14|0|2|0,2:0|2:0|1:2|2:0,0:0:0:0:
267,210,144885,6,0,P|261:175|254:141,1,70,14|0,2:0|1:0,0:0:0:0:
195,53,145165,1,2,1:2:0:0:
98,86,145304,2,0,P|106:121|111:155,1,70,14|0,2:0|1:0,0:0:0:0:
187,224,145583,1,2,1:2:0:0:
187,224,145723,1,8,2:0:0:0:
254,141,145862,6,0,B|303:149|303:149|324:176|324:176|379:184,1,140,6|10,1:2|2:0,0:0:0:0:
477,181,146281,2,0,P|474:199|471:216,3,35,10|8|8|8,1:2|2:0|2:0|2:0,0:0:0:0:
432,246,146560,2,0,P|435:264|438:281,3,35,10|8|8|8,1:2|2:0|2:0|2:0,0:0:0:0:
473,314,146839,2,0,P|470:332|467:349,3,35,10|8|8|8,1:2|2:0|2:0|2:0,0:0:0:0:
423,371,147118,6,0,B|349:383|368:321|275:326,1,140,6|8,1:2|2:0,0:0:0:0:
207,365,147537,1,0,2:0:0:0:
207,365,147676,2,0,P|195:331|209:287,1,70,2|2,1:2|1:2,0:0:0:0:
117,247,147955,2,0,P|140:219|185:209,1,70,10|0,2:0|2:0,0:0:0:0:
272,236,148234,6,0,B|280:187|280:187|307:166|307:166|315:111,1,140,0|10,1:0|2:0,0:0:0:0:
246,39,148653,1,2,1:2:0:0:
164,92,148792,2,0,P|129:84|95:79,1,70,2|0,2:0|1:0,0:0:0:0:
3,27,149072,2,0,P|16:96|28:165,1,140,8|0,2:0|1:0,0:0:0:0:
68,253,149490,5,2,2:0:0:0:
146,193,149630,2,0,P|179:186|212:198,1,70,10|2,2:0|2:0,0:0:0:0:
290,258,149909,2,0,P|356:274|412:236,1,140,2|10,1:2|2:0,0:0:0:0:
474,160,150327,1,2,2:0:0:0:
409,85,150467,6,0,P|374:92|340:97,1,70,2|2,1:2|2:0,0:0:0:0:
256,146,150746,1,10,2:0:0:0:
256,146,150885,2,0,P|221:138|187:133,1,70,0|0,1:0|2:0,0:0:0:0:
118,61,151165,1,0,1:0:0:0:
42,122,151304,2,0,P|49:156|54:190,1,70,14|2,2:0|2:0,0:0:0:0:
60,293,151583,6,0,P|116:254|182:271,1,140,6|8,1:2|2:0,0:0:0:0:
342,383,152141,2,0,P|376:375|410:370,1,70,2|0,1:2|1:0,0:0:0:0:
495,320,152420,1,10,2:0:0:0:
404,269,152560,6,0,B|373:228|373:228|397:143,1,140,2|2,2:0|2:0,0:0:0:0:
456,64,152979,1,10,2:0:0:0:
456,64,153118,1,0,1:0:0:0:
368,16,153258,2,0,P|333:23|299:28,1,70,0|0,2:0|1:0,0:0:0:0:
203,71,153537,2,0,P|210:105|215:139,1,70,10|2,2:0|2:0,0:0:0:0:
214,244,153816,6,0,P|270:205|336:222,1,140,6|2,1:2|2:0,0:0:0:0:
437,214,154234,1,10,2:0:0:0:
437,214,154374,2,0,P|429:248|424:282,1,70,6|4,2:3|2:3,0:0:0:0:
364,374,154653,2,0,B|315:366|315:366|294:339|294:339|239:331,1,140,6|0,1:2|1:0,0:0:0:0:
149,356,155072,5,8,2:0:0:0:
149,356,155141,1,8,2:0:0:0:
149,356,155211,2,0,P|131:353|114:350,3,35,8|8|8|8,1:2|2:0|2:0|2:0,0:0:0:0:
67,336,155490,2,0,P|61:301|54:267,1,70,10|4,1:2|2:3,0:0:0:0:
94,179,155769,1,10,2:3:0:0:
94,179,155909,1,6,2:3:0:0:
187,207,156048,6,0,P|221:200|256:194,1,70,2|0,1:2|2:0,0:0:0:0:
355,221,156327,2,0,P|394:165|377:99,1,140,12|2,2:0|1:2,0:0:0:0:
309,28,156746,1,0,1:0:0:0:
227,81,156885,2,0,P|193:74|158:68,1,70,10|0,2:0|2:0,0:0:0:0:
57,43,157165,6,0,B|65:92|65:92|92:113|92:113|100:168,1,140,0|10,1:0|2:0,0:0:0:0:
127,267,157583,1,2,1:2:0:0:
127,267,157723,2,0,P|161:260|196:254,1,70,2|0,2:0|1:0,0:0:0:0:
281,206,158002,2,0,P|350:219|419:231,1,140,8|0,2:0|1:0,0:0:0:0:
493,293,158420,5,2,2:0:0:0:
428,367,158560,2,0,P|394:361|359:354,1,70,10|2,2:0|2:0,0:0:0:0:
262,373,158839,2,0,P|223:317|240:251,1,140,2|10,1:2|2:0,0:0:0:0:
327,208,159258,1,2,2:0:0:0:
250,138,159397,6,0,P|216:144|181:151,1,70,2|0,1:2|2:0,0:0:0:0:
100,204,159676,1,10,2:0:0:0:
100,204,159816,2,0,P|88:135|75:66,1,140,0|0,1:0|1:0,0:0:0:0:
152,7,160234,2,0,P|186:14|221:20,1,70,14|2,2:0|2:0,0:0:0:0:
307,65,160513,6,0,B|356:57|356:57|377:30|377:30|432:22,1,140,6|8,1:2|2:0,0:0:0:0:
511,202,161072,2,0,P|455:163|389:180,1,140,2|10,1:2|2:0,0:0:0:0:
314,242,161490,6,0,P|248:259|192:220,1,140,2|2,1:2|1:2,0:0:0:0:
100,184,161909,2,0,P|107:218|113:253,1,70,10|0,2:0|2:0,0:0:0:0:
81,347,162188,1,0,2:0:0:0:
282,384,162467,2,0,P|316:377|351:371,1,70,10|2,2:0|2:0,0:0:0:0:
453,379,162746,6,0,B|445:330|445:330|418:309|418:309|410:254,1,140,6|10,1:2|2:0,0:0:0:0:
327,211,163165,1,2,2:0:0:0:
327,211,163304,2,0,P|333:177|340:142,1,70,2|2,1:2|1:2,0:0:0:0:
420,85,163583,1,10,2:0:0:0:
420,85,163723,1,2,1:2:0:0:
334,29,163862,6,0,P|268:12|212:51,1,140,2|8,2:0|2:0,0:0:0:0:
116,31,164281,2,0,P|129:100|141:169,1,140,2|0,2:0|1:0,0:0:0:0:
121,264,164699,2,0,P|155:257|190:251,1,70,10|2,2:0|2:0,0:0:0:0:
289,231,164979,5,6,1:2:0:0:
289,231,165118,2,0,B|280:281|280:281|261:296|261:296|248:366,1,125.999996154785,0|0,1:0|1:0,0:0:0:0:
334,378,165537,2,0,P|365:373|396:369,1,62.9999980773926,14|0,2:0|2:0,0:0:0:0:
485,347,165816,1,2,1:2:0:0:
485,347,165955,6,0,P|496:278|509:209,1,125.999996154785,14|8,2:0|2:0,0:0:0:0:
467,137,166374,1,2,1:2:0:0:
390,175,166513,1,8,2:0:0:0:
390,175,166583,1,8,2:0:0:0:
390,175,166653,2,0,P|385:206|381:237,1,62.9999980773926,10|4,2:0|2:3,0:0:0:0:
305,283,166932,2,0,P|300:251|295:220,1,62.9999980773926,6|8,2:3|2:3,0:0:0:0:
209,191,167211,6,1,B|159:181|124:228|124:228|151:119|75:80|-14:93|-36:151|-4:203|43:197,1,391.99998803711,4|2,1:2|2:0,0:0:0:0:
196,271,169444,5,2,1:2:0:0:
378,239,187304,6,0,P|324:250|268:261,1,112,6|2,1:2|2:0,0:0:0:0:
195,284,187723,1,2,2:0:0:0:
195,284,187862,2,0,P|167:236|176:182,1,112,2|2,1:2|2:0,0:0:0:0:
298,83,188420,6,0,B|346:90|346:90|359:102|359:102|413:112,2,112,2|2|0,1:2|2:0|1:0,0:0:0:0:
148,34,189258,2,0,P|154:62|159:90,1,56,2|2,2:0|2:0,0:0:0:0:
230,131,189537,6,0,P|219:185|208:240,1,112,2|2,1:2|2:0,0:0:0:0:
137,268,189955,1,2,2:0:0:0:
137,268,190095,2,0,P|147:322|158:377,1,112,2|2,1:2|2:0,0:0:0:0:
309,334,190653,6,0,P|356:361|410:352,2,112,2|2|0,1:2|2:0|1:0,0:0:0:0:
208,240,191490,2,0,P|235:235|262:229,1,56,2|2,2:0|2:0,0:0:0:0:
340,258,191769,6,0,P|367:210|358:156,1,112,2|2,1:2|2:0,0:0:0:0:
300,104,192188,1,0,2:0:0:0:
300,104,192327,1,0,1:0:0:0:
159,41,192606,2,0,P|164:68|169:95,1,56,2|0,2:0|2:0,0:0:0:0:
96,123,192885,6,0,P|107:177|117:232,2,112,2|2|0,1:2|1:2|1:0,0:0:0:0:
217,222,193723,2,0,P|244:216|271:211,1,56,2|2,2:0|2:0,0:0:0:0:
338,253,194002,6,0,P|392:241|447:231,1,112,2|0,1:2|2:0,0:0:0:0:
497,171,194420,1,2,2:0:0:0:
497,171,194560,2,0,P|506:116|478:69,1,112,2|0,1:2|1:0,0:0:0:0:
412,32,194979,1,2,2:0:0:0:
412,32,195118,6,0,P|357:43|302:53,2,112,2|2|2,1:2|2:0|1:2,0:0:0:0:
355,174,195955,2,0,P|327:168|300:163,1,56,2|2,2:0|2:0,0:0:0:0:
224,141,196234,6,0,P|196:188|205:242,1,112,2|0,1:2|2:0,0:0:0:0:
281,279,196653,1,0,2:0:0:0:
281,279,196792,2,0,P|308:326|299:380,2,112,0|0|0,1:0|2:0|1:0,0:0:0:0:
128,242,197630,6,0,P|123:214|117:187,1,56,2|2,2:0|2:0,0:0:0:0:
46,151,197909,2,0,P|56:96|67:41,1,112,2|2,1:2|2:0,0:0:0:0:
215,105,198467,5,0,1:0:0:0:
362,51,198746,2,0,P|389:56|416:61,1,56,2|2,2:0|2:0,0:0:0:0:
491,36,199025,2,0,P|518:83|509:137,2,112,2|2|0,1:2|2:0|1:0,0:0:0:0:
386,153,199862,6,0,P|391:180|396:207,1,56,2|0,2:0|2:0,0:0:0:0:
360,277,200141,2,0,P|305:265|250:255,1,112,2|2,1:2|2:0,0:0:0:0:
85,191,200699,6,0,B|94:243|94:243|109:257|109:257|122:327,2,125.999996154785,4|0|0,1:2|1:0|1:0,0:0:0:0:
183,44,201537,1,0,1:0:0:0:
331,138,201816,6,0,P|377:129|428:120,1,94.499997116089,4|0,1:2|2:0,0:0:0:0:
468,124,202095,2,0,P|462:155|458:186,1,62.9999980773926,2|2,1:2|2:0,0:0:0:0:
375,219,202374,2,0,P|381:250|385:281,1,62.9999980773926,2|0,1:2|2:0,0:0:0:0:
472,296,202653,2,0,P|466:327|462:358,1,62.9999980773926,2|0,1:2|2:0,0:0:0:0:
377,383,202932,6,0,B|325:374|325:374|311:359|311:359|241:346,2,125.999996154785,4|2|2,1:2|1:2|1:2,0:0:0:0:
505,262,203769,1,2,1:2:0:0:
367,151,204048,6,0,P|336:156|304:161,1,62.9999980773926,2|0,1:2|2:0,0:0:0:0:
233,220,204327,2,0,P|202:214|170:209,1,62.9999980773926,2|2,1:2|2:0,0:0:0:0:
79,231,204606,2,0,P|74:198|68:165,1,66.4999982242585,2|0,1:2|2:0,0:0:0:0:
154,118,204885,2,0,P|158:83|165:48,1,70,2|0,1:2|2:0,0:0:0:0:
257,133,205165,6,0,P|323:149|379:111,1,140,12|0,2:0|1:0,0:0:0:0:
476,97,205583,2,0,P|468:131|463:166,1,70,12|0,2:0|1:0,0:0:0:0:
388,229,205862,1,0,1:0:0:0:
443,314,206002,2,0,B|388:306|388:306|367:279|367:279|305:269,1,140,12|0,2:0|1:0,0:0:0:0:
240,340,206420,5,12,2:0:0:0:
158,285,206560,2,0,P|162:250|170:216,1,70,8|0,2:0|1:0,0:0:0:0:
247,155,206839,2,0,P|244:137|241:120,3,35,4|8|4|4,2:3|2:3|2:3|2:3,0:0:0:0:
220,75,207118,2,0,P|254:70|288:63,1,70,14|2,2:0|2:0,0:0:0:0:
369,0,207397,5,2,1:2:0:0:
404,102,207537,1,8,2:0:0:0:
404,102,207606,1,8,2:0:0:0:
404,102,207676,1,10,2:0:0:0:
503,70,207816,2,0,P|490:139|478:208,1,140,2|6,1:2|2:3,0:0:0:0:
404,272,208234,1,6,2:3:0:0:
326,214,208374,22,1,B|272:166|197:193|162:262|310:320|158:389|-5:368|20:233|97:161|172:169|231:207|306:280|242:352,1,595,6|2,1:2|2:0,0:0:0:0:
194,101,219676,6,0,P|205:155|216:210,1,112,6|0,1:2|2:0,0:0:0:0:
367,168,220234,2,0,P|356:222|345:277,1,112,2|2,1:2|2:0,0:0:0:0:
199,335,220792,2,0,P|150:363|82:341,1,112,0|2,1:0|2:0,0:0:0:0:
10,221,221351,2,0,P|15:193|19:165,1,56,2|0,1:2|2:0,0:0:0:0:
94,140,221630,2,0,P|89:112|84:84,1,56,0|0,2:0|2:0,0:0:0:0:
38,16,221909,6,0,P|92:26|147:38,1,112,0|2,1:0|2:0,0:0:0:0:
223,73,222327,1,2,2:0:0:0:
223,73,222467,2,0,P|277:62|332:50,1,112,2|2,1:2|2:0,0:0:0:0:
484,10,223025,6,0,B|493:77|457:59|462:142,1,112,2|0,1:2|2:0,0:0:0:0:
391,147,223444,1,0,2:0:0:0:
391,147,223583,2,0,P|395:174|400:202,1,56,2|0,1:2|2:0,0:0:0:0:
471,237,223862,2,0,P|466:264|461:292,1,56,2|0,2:0|2:0,0:0:0:0:
390,339,224141,6,0,P|335:348|288:320,1,112,4|8,1:2|2:0,0:0:0:0:
174,213,224699,2,0,P|119:203|72:231,1,112,8|8,1:2|2:0,0:0:0:0:
195,329,225258,5,8,1:2:0:0:
260,186,225537,1,8,1:2:0:0:
403,287,225816,2,0,P|423:283|444:280,2,41.9999987182618,8|8|8,1:2|2:0|2:0,0:0:0:0:
450,252,226095,2,0,P|470:248|491:245,2,41.9999987182618,10|8|8,1:2|2:0|2:0,0:0:0:0:
482,222,228606,22,1,B|413:185|311:272|465:332|308:404|137:382|163:242|244:167|306:211|316:224,1,448,6|0,1:2|2:0,0:0:0:0:
448,86,230002,2,0,P|444:62|441:39,2,46.6666666666667,6|8|4,2:3|2:3|2:3,0:0:0:0:
405,110,230281,2,0,P|329:94|239:78,1,157.500006008148,10|0,2:0|2:0,0:0:0:0:
156,52,230839,6,0,P|164:87|169:121,1,70,4|2,1:2|2:0,0:0:0:0:
251,174,231118,2,0,P|243:209|238:243,1,70,2|14,1:2|2:0,0:0:0:0:
152,303,231397,2,0,P|85:319|29:281,1,140,2|14,2:0|2:0,0:0:0:0:
2,186,231816,1,2,2:0:0:0:
74,120,231955,6,0,P|102:124|144:131,2,46.6666666666667,2|8|8,1:2|2:0|2:0,0:0:0:0:
132,149,232234,2,0,P|160:153|202:160,2,46.6666666666667,10|8|8,2:0|2:0|2:0,0:0:0:0:
201,130,232513,2,0,P|229:134|271:141,2,46.6666666666667,8|8|4,2:0|2:0|2:3,0:0:0:0:
259,159,232792,2,0,P|287:163|329:170,2,46.6666666666667,6|8|4,2:3|2:3|2:3,0:0:0:0:
342,170,233072,6,0,B|373:129|373:129|349:44,1,140,6|8,1:2|2:0,0:0:0:0:
155,10,233630,2,0,P|163:45|168:79,1,70,2|0,1:2|1:0,0:0:0:0:
115,161,233909,1,10,2:0:0:0:
69,74,234048,1,2,2:0:0:0:
2,155,234188,6,0,B|10:210|10:210|37:231|37:231|47:293,1,140,0|10,1:0|2:0,0:0:0:0:
109,353,234606,1,0,1:0:0:0:
190,297,234746,2,0,P|225:305|259:310,1,70,0|0,2:0|1:0,0:0:0:0:
345,355,235025,2,0,P|380:347|414:342,1,70,10|2,2:0|2:0,0:0:0:0:
503,285,235304,6,0,P|509:251|497:218,1,70,14|0,2:0|2:0,0:0:0:0:
393,194,235583,2,0,P|381:161|387:127,1,70,2|14,1:2|2:0,0:0:0:0:
478,71,235862,1,2,1:2:0:0:
399,12,236002,1,0,1:0:0:0:
312,65,236141,2,0,P|277:57|243:52,1,70,14|2,2:0|2:0,0:0:0:0:
152,88,236420,6,0,P|154:105|157:122,3,35,10|8|8|8,1:2|2:0|2:0|2:0,0:0:0:0:
204,132,236699,2,0,P|201:149|198:166,3,35,10|8|10|8,1:2|2:0|2:0|2:0,0:0:0:0:
244,180,236979,2,0,P|236:215|231:249,1,70,10|8,1:2|2:0,0:0:0:0:
292,328,237258,1,10,2:0:0:0:
208,380,237397,1,10,2:0:0:0:
148,304,237537,2,0,P|97:294|48:313,1,105
24,356,237816,6,0,P|12:287|0:218,1,140,4|2,1:2|1:2,0:0:0:0:
82,175,238234,1,2,1:2:0:0:
82,175,238374,2,0,P|87:140|95:106,1,70,10|0,2:0|2:0,0:0:0:0:
23,34,238653,6,0,P|80:-4|146:12,1,140,0|10,1:0|2:0,0:0:0:0:
220,84,239072,1,2,1:2:0:0:
220,84,239212,2,0,P|254:76|289:71,1,70,2|0,2:0|1:0,0:0:0:0:
380,104,239490,1,8,2:0:0:0:
332,192,239630,1,2,0:0:0:0:
332,192,239699,1,2,0:0:0:0:
332,192,239769,6,0,P|323:226|319:260,1,70,0|2,1:0|2:0,0:0:0:0:
224,280,240048,2,0,P|219:245|211:211,1,70,10|2,2:0|2:0,0:0:0:0:
144,140,240327,1,2,1:2:0:0:
96,228,240467,1,2,1:2:0:0:
0,220,240606,2,0,P|8:254|13:289,1,70,10|2,2:0|2:0,0:0:0:0:
76,364,240885,6,0,B|131:356|131:356|152:329|152:329|214:319,1,140,2|10,1:2|2:0,0:0:0:0:
292,356,241304,2,0,P|330:299|314:233,1,140,0|0,1:0|1:0,0:0:0:0:
220,208,241723,2,0,P|215:173|207:139,1,70,14|0,2:0|2:0,0:0:0:0:
156,56,242002,5,6,1:2:0:0:
235,21,242141,2,0,B|285:30|285:30|300:49|300:49|370:62,1,125.999996154785,0|2,1:0|1:2,0:0:0:0:
430,22,242560,2,0,P|463:74|449:134,1,125.999996154785,10|2,2:0|1:2,0:0:0:0:
409,213,242979,6,0,P|378:208|347:204,1,62.9999980773926,2|0,1:2|2:0,0:0:0:0:
291,134,243258,1,10,2:0:0:0:
209,167,243397,2,0,P|214:198|218:229,1,62.9999980773926,2|0,1:2|2:0,0:0:0:0:
198,319,243676,2,0,P|229:314|260:310,1,62.9999980773926,8|0,2:0|1:0,0:0:0:0:
341,345,243955,2,0,P|372:340|403:336,1,62.9999980773926,6|10,2:3|2:3,0:0:0:0:
494,359,244234,6,0,P|527:307|513:247,1,125.999996154785,6|2,1:2|2:0,0:0:0:0:
457,185,244653,1,2,1:2:0:0:
457,185,244792,2,0,P|426:190|395:194,1,62.9999980773926,10|2,2:0|2:0,0:0:0:0:
325,249,245072,1,2,1:2:0:0:
325,249,245211,1,2,1:2:0:0:
242,217,245351,6,0,P|247:186|251:155,1,62.9999980773926,2|8,2:0|2:0,0:0:0:0:
328,111,245630,2,0,P|324:80|319:49,1,62.9999980773926,0|2,1:0|2:0,0:0:0:0:
225,18,245909,2,0,P|207:21|190:24,3,35,6|8|4|4,2:3|2:3|2:3|2:3,0:0:0:0:
148,37,246188,2,0,P|153:68|157:99,1,62.9999980773926,14|0,2:0|2:0,0:0:0:0:
132,194,246467,6,0,P|166:182|210:196,1,70,14|0,2:0|2:0,0:0:0:0:
262,263,246746,1,0,1:0:0:0:
354,232,246885,2,0,P|361:198|349:166,1,70,14|2,2:0|1:2,0:0:0:0:
268,106,247165,1,0,1:0:0:0:
351,54,247304,2,0,P|385:62|420:67,1,70,14|2,2:0|1:2,0:0:0:0:
509,124,247583,5,0,1:0:0:0:
447,201,247723,1,12,2:0:0:0:
447,201,247862,2,0,P|452:236|460:270,1,70,14|2,2:0|1:2,0:0:0:0:
376,322,248141,2,0,P|379:340|382:357,3,35,6|8|4|4,2:3|2:3|2:3|2:3,0:0:0:0:
425,379,248420,1,10,2:0:0:0:
330,241,248699,6,1,B|271:211|199:257|195:313|227:319|229:356|172:415|76:411|37:353|48:286|92:252|149:265,1,448,4|2,1:2|2:0,0:0:0:0:
309,130,250932,6,0,P|319:186|330:241,2,112,6|8|0,1:2|2:0|1:0,0:0:0:0:
292,57,251630,1,0,1:0:0:0:
292,57,251769,2,0,P|262:62|223:70,1,56,8|0,2:0|2:0,0:0:0:0:
159,54,252048,6,0,P|131:103|153:171,1,112,2|8,1:2|2:0,0:0:0:0:
207,197,252467,2,0,P|235:246|213:314,1,112,2|0,1:2|1:0,0:0:0:0:
158,339,252885,1,10,2:0:0:0:
23,195,253165,5,6,1:2:0:0:
68,112,253304,1,10,2:0:0:0:
68,112,253374,1,10,2:0:0:0:
68,112,253444,2,0,P|103:120|137:125,1,70,10|10,2:0|2:0,0:0:0:0:
222,63,253723,1,6,1:2:0:0:
319,110,253862,1,10,2:0:0:0:
319,110,253932,1,10,2:0:0:0:
319,110,254002,2,0,P|311:145|306:179,1,70,10|10,2:0|2:0,0:0:0:0:
213,212,254281,6,0,P|221:247|226:281,1,70,4|10,1:2|2:0,0:0:0:0:
288,356,254560,2,0,P|344:317|410:334,2,140,2|10|10,1:2|2:0|2:0,0:0:0:0:
198,377,255258,1,10,2:0:0:0:
198,377,255328,1,8,2:0:0:0:
198,377,255397,6,0,B|143:369|143:369|122:342|122:342|60:332,1,140,6|8,1:2|2:0,0:0:0:0:
2,265,255816,1,2,2:0:0:0:
74,199,255955,1,2,1:2:0:0:
74,199,256095,2,0,P|109:207|143:212,1,70,2|8,1:2|2:0,0:0:0:0:
227,260,256374,6,0,P|296:248|365:236,1,140,2|2,1:2|1:2,0:0:0:0:
460,256,256792,2,0,P|465:221|472:187,1,70,10|2,2:0|2:0,0:0:0:0:
445,97,257072,1,2,1:2:0:0:
445,97,257211,1,2,1:2:0:0:
355,136,257351,2,0,P|320:128|286:123,1,70,10|2,2:0|2:0,0:0:0:0:
191,160,257630,6,0,P|152:104|169:38,1,140,2|10,1:2|2:0,0:0:0:0:
263,14,258048,2,0,P|297:21|331:26,1,70,2|0,1:2|2:0,0:0:0:0:
427,6,258327,2,0,P|419:40|414:74,1,70,2|10,1:2|2:0,0:0:0:0:
487,142,258606,6,0,P|475:211|463:280,1,140,2|2,1:2|1:2,0:0:0:0:
385,345,259025,2,0,P|350:337|316:332,1,70,10|14,2:0|2:0,0:0:0:0:
241,263,259304,1,2,2:0:0:0:
153,295,259444,1,10,2:0:0:0:
153,295,259514,1,10,2:0:0:0:
153,295,259584,2,0,P|147:260|140:226,1,70,10|10,2:0|2:0,0:0:0:0:
59,171,259862,6,0,P|62:153|65:136,3,35,6|4|4|4,2:3|2:3|2:3|2:3,0:0:0:0:
79,89,260141,2,0,P|113:96|147:101,1,70,8|6,2:0|1:2,0:0:0:0:
234,158,260420,1,2,2:0:0:0:
234,158,260560,2,0,P|268:150|302:145,1,70,2|8,1:2|2:0,0:0:0:0:
403,118,260839,6,0,B|395:173|395:173|368:194|368:194|358:256,1,140,2|2,1:2|1:2,0:0:0:0:
264,267,261258,2,0,P|271:301|276:335,1,70,10|2,2:0|2:0,0:0:0:0:
368,384,261537,1,2,1:2:0:0:
368,384,261676,1,2,1:2:0:0:
458,346,261816,2,0,P|450:311|445:277,1,70,8|2,2:0|2:0,0:0:0:0:
495,188,262095,6,0,P|439:149|373:166,1,140,6|10,1:2|2:0,0:0:0:0:
294,222,262513,2,0,P|259:214|225:209,1,70,6|0,1:2|2:0,0:0:0:0:
153,141,262792,1,2,1:2:0:0:
98,222,262932,1,10,2:0:0:0:
3,176,263072,6,0,B|10:126|10:126|37:105|37:105|45:50,1,140,4|0,1:2|1:0,0:0:0:0:
140,24,263490,2,0,P|157:26|174:29,3,35,8|4|4|4,2:0|2:3|2:3|2:3,0:0:0:0:
218,7,263769,1,8,2:0:0:0:
263,94,263909,1,10,0:2:0:0:
