osu file format v14

[General]
AudioFilename: Tsukumonotsuki.mp3
AudioLeadIn: 0
PreviewTime: 83167
Countdown: 0
SampleSet: Soft
StackLeniency: 0.7
Mode: 0
LetterboxInBreaks: 0
WidescreenStoryboard: 0

[Editor]
DistanceSpacing: 0.9
BeatDivisor: 4
GridSize: 4
TimelineZoom: 1

[Metadata]
Title:Tsukumo no Tsuki
TitleUnicode:ツクモノツキ
Artist:nao
ArtistUnicode:nao
Creator:Misure
Version:Normal
Source:ツクモノツキ
Tags:Sugar Pot opening op eroge visual novel galgame Japanese video game short version tsukumonotsuki pop
BeatmapID:2650304
BeatmapSetID:1275572

[Difficulty]
HPDrainRate:3.2
CircleSize:3.2
OverallDifficulty:4
ApproachRate:5
SliderMultiplier:1.2
SliderTickRate:1

[Events]
//Background and Video events
Video,0,"Tsukumonotsuki.flv"
0,0,"normal.jpg",0,0
//Break Periods
//Storyboard Layer 0 (Background)
//Storyboard Layer 1 (Fail)
//Storyboard Layer 2 (Pass)
//Storyboard Layer 3 (Foreground)
//Storyboard Layer 4 (Overlay)
//Storyboard Sound Samples

[TimingPoints]
1058,666.666666666667,4,2,2,40,1,0
1058,-83.3333333333333,4,2,2,40,0,0
11724,-83.3333333333333,4,2,2,50,0,0
19724,444.444444444444,4,2,2,40,1,0
21501,-100,4,2,1,60,0,0
25057,444.444444444444,4,2,1,70,1,0
39279,-111.111111111111,4,2,2,50,0,0
53056,-111.111111111111,4,2,1,50,0,0
53501,-100,4,2,1,60,0,0
67723,-100,4,2,1,65,0,0
81945,-100,4,2,2,55,0,0
83723,-100,4,2,1,75,0,1
112834,-100,4,2,1,75,0,0

[Colours]
Combo1 : 255,168,255
Combo2 : 111,208,255
Combo3 : 255,128,192
Combo4 : 168,168,255

[HitObjects]
254,246,1058,6,0,P|323:232|371:180,2,143.999995605469,2|0|2,3:0|0:0|0:0,0:0:0:0:
147,148,3058,1,0,0:0:0:0:
31,233,3724,2,0,P|56:288|91:366,2,143.999995605469,2|0|2,0:0|0:0|0:0,0:0:0:0:
147,148,5724,1,0,0:0:0:0:
254,246,6391,6,0,P|323:232|371:180,1,143.999995605469,2|0,0:3|0:0,0:0:0:0:
305,51,7724,2,0,P|235:64|187:116,1,143.999995605469,2|0,0:0|0:0,0:0:0:0:
154,256,9058,2,0,B|262:221|286:327|283:268|309:373|409:343,1,287.999991210938,2|2,0:0|0:0,0:0:0:0:
481,218,11058,1,0,0:0:0:0:
411,92,11724,6,0,P|346:112|275:139,1,143.999995605469,2|0,3:0|0:0,0:0:0:0:
236,208,12724,1,0,0:0:0:0:
192,274,13058,2,0,P|119:250|56:226,1,143.999995605469,2|0,3:2|0:0,0:0:0:0:
43,68,14391,2,0,P|98:25|165:43,1,143.999995605469,2|0,3:2|0:0,0:0:0:0:
172,122,15391,1,0,0:0:0:0:
156,199,15724,2,0,P|223:217|278:174,1,143.999995605469,2|0,3:2|0:0,0:0:0:0:
355,35,17058,6,0,P|362:64|388:175,1,143.999995605469,2|0,3:2|0:0,0:0:0:0:
379,254,18058,1,0,0:0:0:0:
356,330,18391,2,0,P|286:330|239:278,1,143.999995605469,2|0,3:2|0:0,0:0:0:0:
289,107,19724,1,4,0:1:0:0:
289,107,21501,5,4,3:2:0:0:
226,20,21946,1,0,3:0:0:0:
123,53,22390,1,0,3:0:0:0:
123,161,22835,1,0,3:0:0:0:
226,195,23279,2,0,P|223:224|210:251,2,60,0|8|0,3:0|0:0|3:0,0:0:0:0:
123,161,24168,2,0,P|106:186|100:215,1,60,0|0,1:0|1:0,0:0:0:0:
84,266,24612,2,0,P|103:289|128:304,1,60,8|0,0:0|3:0,0:0:0:0:
129,358,25057,6,0,P|184:336|241:317,1,120,4|8,0:0|0:1,0:0:0:0:
294,328,25723,1,8,0:0:0:0:
294,328,25946,2,0,P|334:370|393:373,1,120,0|8,3:0|0:1,0:0:0:0:
475,303,26834,2,0,P|472:244|430:203,1,120,0|8,3:0|0:1,0:0:0:0:
421,149,27501,1,8,0:0:0:0:
421,149,27723,2,0,P|443:83|462:36,1,120,0|10,3:0|0:1,0:0:0:0:
359,1,28612,6,0,P|321:46|263:54,1,120,4|8,3:2|0:1,0:0:0:0:
212,36,29279,1,8,0:0:0:0:
170,70,29501,2,0,P|182:97|191:125,1,60,0|2,3:0|0:0,0:0:0:0:
175,177,29945,2,0,P|162:204|153:232,1,60,8|8,0:1|0:0,0:0:0:0:
165,285,30390,1,0,3:0:0:0:
239,363,30834,1,8,0:1:0:0:
340,325,31279,1,0,3:0:0:0:
340,217,31723,1,6,0:0:0:0:
274,132,32168,6,0,P|215:134|174:176,1,120,4|8,3:2|0:1,0:0:0:0:
162,228,32834,1,8,0:0:0:0:
162,228,33057,2,0,P|105:205|49:186,1,120,0|8,3:0|0:1,0:0:0:0:
20,82,33945,2,0,P|78:78|119:36,1,120,0|8,3:0|0:1,0:0:0:0:
169,55,34612,1,8,0:0:0:0:
169,55,34834,2,0,P|230:30|281:13,1,120,0|8,3:0|3:1,0:0:0:0:
356,90,35723,6,0,P|374:145|357:202,1,120,4|8,3:2|0:1,0:0:0:0:
362,258,36390,1,8,0:0:0:0:
374,310,36612,2,0,P|346:321|319:334,1,60,4|2,3:2|0:0,0:0:0:0:
265,328,37057,2,0,P|237:315|210:303,1,60,8|8,0:1|0:0,0:0:0:0:
160,322,37501,2,0,P|147:349|137:377,2,60,4|2|0,0:0|0:0|3:0,0:0:0:0:
56,292,38390,1,0,3:0:0:0:
1,198,38834,1,8,0:1:0:0:
29,93,39279,6,0,P|78:71|128:51,1,107.999996704102,4|0,0:0|0:3,0:0:0:0:
204,113,40168,2,0,P|255:128|304:150,1,107.999996704102,2|0,0:0|0:0,0:0:0:0:
381,90,41057,2,0,P|396:39|441:13,2,107.999996704102,2|0|2,0:0|0:3|0:3,0:0:0:0:
452,156,42390,1,0,0:0:0:0:
405,241,42834,6,0,P|424:291|439:343,1,107.999996704102,2|0,0:0|0:3,0:0:0:0:
347,377,43723,2,0,P|294:373|251:342,1,107.999996704102,2|0,0:0|0:0,0:0:0:0:
263,245,44612,2,0,B|179:230|166:320|163:262|151:352|61:343,1,215.999993408203,2|2,0:0|0:3,0:0:0:0:
70,246,45945,1,0,0:0:0:0:
67,148,46390,6,0,P|36:103|3:60,2,107.999996704102,4|0|2,0:0|0:0|0:0,0:0:0:0:
70,246,47723,1,0,0:0:0:0:
158,287,48168,2,0,P|236:213|337:176,1,215.999993408203,2|2,0:0|0:3,0:0:0:0:
410,238,49501,1,0,0:0:0:0:
466,157,49945,6,0,P|460:98|428:55,1,107.999996704102,2|0,0:0|0:0,0:0:0:0:
336,72,50834,2,0,P|322:123|336:175,1,107.999996704102,2|0,0:0|0:0,0:0:0:0:
410,238,51723,2,0,P|312:268|241:194,1,215.999993408203,6|2,0:0|0:3,0:0:0:0:
159,140,53057,1,8,0:0:0:0:
82,205,53501,6,0,P|105:260|127:316,1,120,4|0,0:0|3:0,0:0:0:0:
99,363,54168,1,0,0:0:0:0:
99,363,54390,2,0,P|172:338|213:328,1,120,0|0,3:0|3:0,0:0:0:0:
315,291,55279,2,0,P|346:340|403:354,1,120,0|0,3:0|3:0,0:0:0:0:
457,350,55945,1,0,0:0:0:0:
457,350,56168,2,0,L|492:235,1,120,2|0,3:1|3:0,0:0:0:0:
426,148,57056,6,0,P|367:140|317:171,1,120,0|0,3:0|3:0,0:0:0:0:
308,224,57723,1,0,0:0:0:0:
308,224,57945,2,0,P|249:231|199:200,1,120,0|0,3:0|3:0,0:0:0:0:
200,95,58834,2,0,P|249:63|308:71,1,120,0|0,3:0|3:0,0:0:0:0:
318,124,59501,1,0,0:0:0:0:
318,124,59723,2,0,P|367:155|426:147,1,120,2|0,3:1|3:0,0:0:0:0:
479,157,60390,1,8,0:0:0:0:
479,157,60612,6,0,L|509:38,2,120,4|0|0,0:0|3:0|3:0,0:0:0:0:
512,260,61945,1,0,3:0:0:0:
458,353,62390,2,0,P|407:320|354:292,1,120,0|0,3:0|3:0,0:0:0:0:
301,303,63056,1,0,0:0:0:0:
301,303,63279,2,0,P|262:347|203:353,1,120,2|0,3:1|3:0,0:0:0:0:
151,367,63945,1,0,0:0:0:0:
151,367,64168,6,0,L|103:257,1,120,4|0,0:0|3:0,0:0:0:0:
205,221,65056,2,0,P|241:174|248:116,1,120,4|0,0:0|3:0,0:0:0:0:
242,62,65723,1,8,0:0:0:0:
211,17,65945,2,0,P|182:27|158:44,1,60,4|0,0:0|0:0,0:0:0:0:
131,90,66390,1,8,0:1:0:0:
30,54,66834,2,0,P|16:27|0:3,2,60,2|0|8,0:1|0:0|0:1,0:0:0:0:
2,158,67723,6,0,P|45:196|103:190,1,120,4|0,0:0|3:0,0:0:0:0:
148,220,68390,1,0,0:0:0:0:
148,220,68612,2,0,P|172:203|199:189,1,60,0|0,3:0|0:0,0:0:0:0:
250,209,69056,1,8,0:1:0:0:
350,173,69501,2,0,P|331:115|310:59,1,120,0|0,3:0|3:0,0:0:0:0:
327,8,70168,1,0,0:0:0:0:
327,8,70390,2,0,P|376:40|435:39,1,120,0|8,3:0|0:1,0:0:0:0:
506,120,71279,6,0,P|484:175|465:233,1,120,0|0,3:0|3:0,0:0:0:0:
469,287,71945,1,0,0:0:0:0:
469,287,72168,2,0,P|444:270|417:256,1,60,0|0,3:0|0:0,0:0:0:0:
377,293,72612,1,8,0:1:0:0:
278,249,73056,2,0,P|266:221|252:194,2,60,0|2|8,3:0|0:0|0:1,0:0:0:0:
276,302,73723,1,0,0:0:0:0:
250,349,73945,2,0,P|192:354|150:313,1,120,0|0,3:0|3:0,0:0:0:0:
60,373,74834,6,0,P|36:317|11:263,1,120,4|0,0:0|3:0,0:0:0:0:
39,216,75501,1,0,0:0:0:0:
15,167,75723,2,0,P|22:138|33:109,2,60,0|0|8,3:0|0:0|0:1,0:0:0:0:
123,162,76612,2,0,P|168:198|224:184,1,120,0|0,3:0|3:0,0:0:0:0:
266,150,77279,1,0,0:0:0:0:
290,101,77501,2,0,P|282:72|271:43,2,60,0|0|8,3:0|0:0|0:1,0:0:0:0:
340,121,78168,1,0,0:0:0:0:
387,95,78390,6,0,P|411:78|437:63,2,60,4|0|0,0:0|0:0|3:0,0:0:0:0:
400,204,79279,2,0,P|426:218|450:235,2,60,0|2|8,3:0|0:0|0:1,0:0:0:0:
348,220,79945,1,0,0:0:0:0:
309,258,80168,2,0,P|300:303|294:346,2,90,4|4|8,0:0|0:0|0:0,0:0:0:0:
259,239,81056,2,0,P|210:208|205:150,1,120,4|8,0:0|3:2,0:0:0:0:
232,45,81945,5,4,3:0:0:0:
232,45,83723,6,0,P|176:61|127:29,1,120,4|8,0:0|0:1,0:0:0:0:
76,9,84390,1,2,0:0:0:0:
40,49,84612,2,0,P|61:104|82:161,1,120,0|8,3:0|0:1,0:0:0:0:
21,250,85501,2,0,P|76:271|133:255,1,120,0|8,3:0|0:1,0:0:0:0:
173,219,86168,1,2,0:0:0:0:
225,233,86390,2,0,P|280:211|337:190,1,120,0|10,3:0|0:1,0:0:0:0:
379,223,87056,1,0,3:0:0:0:
379,223,87279,5,0,3:0:0:0:
476,176,87723,2,0,P|486:147|497:120,1,60,8|2,0:1|0:0,0:0:0:0:
499,65,88168,2,0,P|440:57|402:13,1,120,0|8,3:0|0:1,0:0:0:0:
353,35,88834,1,2,0:0:0:0:
300,23,89056,2,0,P|246:50|194:79,2,120,0|8|0,3:0|0:1|3:0,0:0:0:0:
353,116,90390,1,4,3:2:0:0:
353,116,90612,1,0,3:0:0:0:
353,116,90834,6,0,P|364:165|344:232,1,120,4|8,0:0|0:1,0:0:0:0:
335,284,91501,1,2,0:0:0:0:
326,337,91723,2,0,P|267:326|214:351,1,120,0|8,3:0|0:1,0:0:0:0:
111,380,92612,2,0,P|88:324|62:270,1,120,0|8,3:0|0:1,0:0:0:0:
53,216,93279,1,2,0:0:0:0:
75,167,93501,2,0,P|133:158|182:190,1,120,0|10,3:0|0:1,0:0:0:0:
179,244,94168,1,0,3:0:0:0:
198,294,94390,6,0,P|222:277|249:263,1,60,4|0,0:0|0:0,0:0:0:0:
299,284,94834,1,8,0:1:0:0:
384,218,95279,2,0,P|375:189|363:161,1,60,4|2,3:2|0:0,0:0:0:0:
326,122,95723,2,0,P|334:93|346:65,1,60,0|8,1:0|0:0,0:0:0:0:
336,12,96168,2,0,P|292:51|234:48,2,120,4|8|0,0:0|0:0|3:0,0:0:0:0:
441,35,97501,1,6,0:0:0:0:
441,35,97723,1,2,3:2:0:0:
441,35,97945,6,0,P|425:92|411:151,1,120,4|8,0:0|0:1,0:0:0:0:
445,195,98612,1,2,0:0:0:0:
483,232,98834,2,0,P|481:290|443:336,1,120,0|8,3:0|0:1,0:0:0:0:
345,382,99723,2,0,P|291:355|236:330,1,120,0|8,3:0|0:1,0:0:0:0:
189,304,100390,1,2,0:0:0:0:
137,320,100612,2,0,P|100:365|42:371,1,120,0|10,3:0|0:1,0:0:0:0:
4,332,101279,1,0,3:0:0:0:
4,332,101501,5,0,3:0:0:0:
26,226,101945,2,0,P|13:197|0:172,1,60,8|2,0:1|0:0,0:0:0:0:
21,122,102390,2,0,P|62:163|121:165,1,120,0|8,3:0|0:1,0:0:0:0:
171,184,103056,1,2,0:0:0:0:
214,151,103279,2,0,P|226:81|236:32,2,120,0|8|0,3:0|0:1|3:0,0:0:0:0:
322,155,104612,1,4,3:2:0:0:
322,155,104834,1,0,3:0:0:0:
322,155,105056,6,0,P|353:204|348:263,1,120,4|8,0:0|0:1,0:0:0:0:
315,305,105723,1,2,0:0:0:0:
267,330,105945,2,0,P|321:354|374:383,1,120,0|8,3:0|0:1,0:0:0:0:
477,350,106834,2,0,P|491:291|508:234,1,120,0|8,3:0|0:1,0:0:0:0:
497,181,107501,1,2,0:0:0:0:
468,135,107723,2,0,P|428:177|369:176,1,120,0|10,3:0|0:1,0:0:0:0:
348,125,108390,1,0,3:0:0:0:
301,98,108612,6,0,P|274:110|248:127,1,60,4|0,0:0|0:0,0:0:0:0:
238,179,109056,1,8,0:1:0:0:
157,250,109501,2,0,P|147:221|135:194,1,60,4|2,3:2|0:0,0:0:0:0:
86,170,109945,2,0,P|95:141|107:114,1,60,0|8,1:0|0:0,0:0:0:0:
156,89,110390,2,0,P|99:74|71:23,2,120,4|8|0,0:0|0:0|3:0,0:0:0:0:
198,55,111501,1,8,0:0:0:0:
244,82,111723,2,0,P|255:109|265:137,1,60,4|0,0:0|0:0,0:0:0:0:
256,192,112168,6,0,P|293:166|332:144,2,90,4|4|4,0:0|0:0|0:0,0:0:0:0:
