osu file format v14

[General]
AudioFilename: Tsukumonotsuki.mp3
AudioLeadIn: 0
PreviewTime: 83167
Countdown: 0
SampleSet: Soft
StackLeniency: 0.5
Mode: 0
LetterboxInBreaks: 0
WidescreenStoryboard: 0

[Editor]
DistanceSpacing: 1
BeatDivisor: 4
GridSize: 4
TimelineZoom: 1

[Metadata]
Title:Tsukumo no Tsuki
TitleUnicode:ツクモノツキ
Artist:nao
ArtistUnicode:nao
Creator:Misure
Version:Insane
Source:ツクモノツキ
Tags:Sugar Pot opening op eroge visual novel galgame Japanese video game short version tsukumonotsuki pop
BeatmapID:2650303
BeatmapSetID:1275572

[Difficulty]
HPDrainRate:5
CircleSize:4
OverallDifficulty:7.4
ApproachRate:8.2
SliderMultiplier:1.7
SliderTickRate:1

[Events]
//Background and Video events
Video,0,"Tsukumonotsuki.flv"
0,0,"insane.jpg",0,0
//Break Periods
//Storyboard Layer 0 (Background)
//Storyboard Layer 1 (Fail)
//Storyboard Layer 2 (Pass)
//Storyboard Layer 3 (Foreground)
//Storyboard Layer 4 (Overlay)
//Storyboard Sound Samples

[TimingPoints]
1058,666.666666666667,4,2,2,30,1,0
1058,-100,4,2,2,40,0,0
11724,-83.3333333333333,4,2,2,50,0,0
19724,444.444444444444,4,2,2,40,1,0
21501,-125,4,2,1,60,0,0
23723,-111.111111111111,4,2,1,65,0,0
24168,-111.111111111111,4,2,1,70,0,0
24612,-100,4,2,1,75,0,0
24835,-100,4,2,1,80,0,0
25057,444.444444444444,4,2,1,75,1,0
25057,-90.9090909090909,4,2,1,75,0,0
39057,-66.6666666666667,4,2,1,75,0,0
39279,-142.857142857143,4,2,2,50,0,0
53056,-142.857142857143,4,2,1,55,0,0
53501,-100,4,2,1,60,0,0
67723,-100,4,2,1,65,0,0
80168,-76.9230769230769,4,2,1,75,0,0
81390,-76.9230769230769,4,2,1,40,0,0
81501,-83.3333333333333,4,2,1,75,0,0
81834,-83.3333333333333,4,2,1,30,0,0
81945,-100,4,2,2,55,0,0
82834,-90.9090909090909,4,2,1,65,0,0
83723,-90.9090909090909,4,2,1,75,0,1
96168,-90.9090909090909,4,2,1,80,0,1
97057,-90.9090909090909,4,2,1,75,0,1
97501,-90.9090909090909,4,2,1,85,0,0
97945,-90.9090909090909,4,2,1,80,0,1
98390,-90.9090909090909,4,2,1,75,0,1
109501,-90.9090909090909,4,2,1,80,0,1
110390,-90.9090909090909,4,2,1,85,0,1
112168,-90.9090909090909,4,2,1,75,0,1
112834,-90.9090909090909,4,2,1,75,0,0

[Colours]
Combo1 : 255,168,255
Combo2 : 111,208,255
Combo3 : 255,128,192
Combo4 : 168,168,255

[HitObjects]
293,214,391,5,0,0:0:0:0:
293,214,724,1,0,0:0:0:0:
283,353,1058,6,0,P|246:331|208:311,2,85,2|0|0,3:0|0:0|0:0,0:0:0:0:
395,284,2058,1,0,0:0:0:0:
395,284,2224,1,0,0:0:0:0:
395,284,2391,2,0,P|467:253|455:175,1,170,2|0,0:0|0:0,0:0:0:0:
366,33,3391,1,0,0:0:0:0:
366,33,3558,1,0,0:0:0:0:
366,33,3724,6,0,P|354:73|345:119,1,85,2|0,0:0|0:0,0:0:0:0:
226,263,4391,2,0,P|256:233|295:216,1,85
261,130,4891,1,0,0:0:0:0:
261,130,5058,2,0,P|185:102|177:22,1,170,2|0,0:0|0:0,0:0:0:0:
177,22,6058,1,0,0:0:0:0:
40,69,6391,6,0,P|58:107|74:146,1,85,2|0,0:3|0:0,0:0:0:0:
131,216,6891,1,0,0:0:0:0:
131,216,7058,2,0,P|112:254|96:293,1,85
203,378,7724,1,2,0:0:0:0:
247,285,8058,1,0,0:0:0:0:
340,245,8391,1,0,0:0:0:0:
436,279,8724,1,0,0:0:0:0:
511,157,9058,6,0,P|450:148|425:92,1,127.5,2|0,0:0|0:0,0:0:0:0:
435,46,9724,2,0,P|404:57|356:79,1,85
232,13,10391,2,0,P|261:92|289:173,1,170,2|0,0:0|0:0,0:0:0:0:
289,173,11391,1,0,0:0:0:0:
199,369,11724,6,0,P|195:318|218:273,1,101.999996887207,2|0,3:0|0:0,0:0:0:0:
339,286,12391,1,0,0:0:0:0:
289,173,12724,1,0,0:0:0:0:
289,173,12891,1,0,0:0:0:0:
289,173,13058,2,0,P|221:243|124:225,1,203.999993774414,2|0,3:2|0:0,0:0:0:0:
123,103,14058,1,0,0:0:0:0:
123,103,14224,1,0,0:0:0:0:
123,103,14391,6,0,P|168:80|215:60,1,101.999996887207,2|0,3:2|0:0,0:0:0:0:
300,148,15058,1,0,0:0:0:0:
258,263,15391,1,0,0:0:0:0:
258,263,15558,1,0,0:0:0:0:
258,263,15724,2,0,P|160:234|61:210,1,203.999993774414,2|0,3:2|0:0,0:0:0:0:
15,323,16724,1,0,0:0:0:0:
121,375,17058,6,0,P|133:325|148:276,1,101.999996887207,2|0,3:2|0:0,0:0:0:0:
231,277,17558,1,0,0:0:0:0:
231,277,17724,2,0,P|245:325|258:375,1,101.999996887207
361,209,18391,2,0,P|174:227|129:45,1,407.999987548829,2|4,3:2|0:1,0:0:0:0:
129,46,20835,5,2,0:0:0:0:
213,97,21057,1,0,0:0:0:0:
270,0,21279,1,2,0:0:0:0:
411,46,21501,6,0,P|399:77|389:110,1,68,4|0,3:2|0:0,0:0:0:0:
298,150,21946,2,0,P|317:177|335:206,1,68,0|0,3:0|0:0,0:0:0:0:
469,231,22390,2,0,P|442:252|418:276,1,68,0|0,3:0|0:0,0:0:0:0:
325,345,22835,1,0,3:0:0:0:
325,345,22946,2,0,P|340:351|355:359,1,34
240,274,23279,5,0,3:0:0:0:
134,354,23501,1,8,0:0:0:0:
134,354,23612,1,8,0:0:0:0:
134,354,23723,2,0,P|115:320|94:288,1,76.4999976654053,0|8,3:0|0:0,0:0:0:0:
155,207,24057,1,8,0:0:0:0:
160,191,24168,5,0,1:0:0:0:
195,220,24279,1,8,0:0:0:0:
240,215,24390,1,0,1:0:0:0:
275,185,24501,1,8,0:0:0:0:
269,139,24612,2,0,P|277:113|283:99,1,42.5,8|0,0:0|0:0,0:0:0:0:
196,0,24835,2,0,P|203:19|210:39,1,42.5,0|0,3:0|0:0,0:0:0:0:
58,140,25057,6,0,P|101:119|144:101,1,93.5000028533936,4|0,0:0|0:0,0:0:0:0:
81,25,25501,1,8,0:1:0:0:
130,222,25723,1,8,0:0:0:0:
104,255,25834,2,0,P|58:249|25:217,1,93.5000028533936,0|0,3:0|0:0,0:0:0:0:
59,140,26168,1,2,0:0:0:0:
202,164,26390,2,0,P|213:184|222:205,1,46.7500014266968,8|0,0:1|0:0,0:0:0:0:
280,272,26612,2,0,P|268:291|253:310,1,46.7500014266968,8|0,0:0|0:0,0:0:0:0:
191,377,26834,6,0,P|168:336|169:290,1,93.5000028533936,0|8,3:0|0:0,0:0:0:0:
364,201,27279,1,8,0:1:0:0:
494,314,27501,1,8,0:0:0:0:
468,347,27612,2,0,P|426:324|384:304,1,93.5000028533936,0|0,3:0|0:0,0:0:0:0:
327,368,27945,1,2,0:0:0:0:
259,191,28168,1,10,0:1:0:0:
102,265,28390,1,8,0:0:0:0:
95,284,28501,1,0,3:0:0:0:
88,303,28612,6,0,P|115:340|140:380,1,93.5000028533936,4|0,3:2|0:0,0:0:0:0:
231,277,29057,1,8,0:1:0:0:
138,143,29279,1,8,0:0:0:0:
105,170,29390,1,0,0:0:0:0:
65,155,29501,1,0,3:0:0:0:
194,45,29723,1,2,0:0:0:0:
278,220,29945,1,8,0:1:0:0:
377,162,30168,1,8,0:0:0:0:
382,120,30279,6,0,P|424:101|468:84,1,93.5000028533936,0|0,3:0|0:0,0:0:0:0:
512,158,30612,1,0,0:0:0:0:
427,0,30834,1,8,0:1:0:0:
286,74,31057,1,0,0:0:0:0:
280,85,31168,1,0,3:0:0:0:
275,95,31279,1,0,3:0:0:0:
232,94,31390,1,8,0:1:0:0:
205,61,31501,1,0,0:0:0:0:
165,47,31612,1,0,0:0:0:0:
125,60,31723,6,0,P|116:81|112:104,1,46.7500014266968,6|0,0:0|0:0,0:0:0:0:
49,206,31945,1,8,0:0:0:0:
52,247,32057,1,0,3:0:0:0:
89,271,32168,6,0,P|46:288|4:307,2,93.5000028533936,4|0|8,3:2|0:0|0:1,0:0:0:0:
243,261,32834,1,8,0:0:0:0:
209,287,32945,2,0,P|195:331|186:376,1,93.5000028533936,0|0,3:0|0:0,0:0:0:0:
283,359,33279,1,2,0:0:0:0:
454,381,33501,2,0,P|434:368|413:357,1,46.7500014266968,8|0,0:1|0:0,0:0:0:0:
358,285,33723,2,0,P|377:272|398:261,1,46.7500014266968,8|0,0:0|0:0,0:0:0:0:
512,244,33945,6,0,P|494:200|473:158,1,93.5000028533936,0|0,3:0|0:0,0:0:0:0:
394,56,34390,1,8,0:1:0:0:
325,204,34612,1,8,0:0:0:0:
286,186,34723,1,0,3:0:0:0:
139,115,34945,1,8,0:1:0:0:
176,94,35057,1,2,0:0:0:0:
203,270,35279,1,8,0:1:0:0:
49,234,35501,1,8,0:0:0:0:
54,214,35612,1,0,3:0:0:0:
58,195,35723,6,0,P|35:153|11:113,1,93.5000028533936,4|0,3:2|0:0,0:0:0:0:
84,0,36168,1,8,0:1:0:0:
176,94,36390,1,8,0:0:0:0:
206,123,36501,1,0,0:0:0:0:
247,111,36612,1,4,3:2:0:0:
380,5,36834,1,2,0:0:0:0:
399,46,36945,2,0,P|392:68|382:89,1,46.7500014266968,0|8,0:0|0:1,0:0:0:0:
356,232,37279,2,0,P|336:219|315:208,1,46.7500014266968,8|0,0:0|0:0,0:0:0:0:
256,276,37501,6,0,P|275:318|293:361,1,93.5000028533936,4|2,0:0|0:0,0:0:0:0:
410,374,37834,1,0,0:0:0:0:
392,335,37945,2,0,P|416:296|459:283,1,93.5000028533936,0|8,3:0|0:0,0:0:0:0:
507,164,38279,1,0,3:0:0:0:
475,198,38390,1,0,3:0:0:0:
428,195,38501,1,0,0:0:0:0:
394,156,38612,2,0,P|399:133|407:111,1,46.7500014266968,2|0,0:0|0:0,0:0:0:0:
304,0,38834,5,8,0:1:0:0:
278,49,38945,1,0,0:0:0:0:
300,99,39057,2,0,B|269:99|249:72|249:72|243:74|243:74|218:51|186:54,1,127.500004863739,8|4,0:1|0:0,0:0:0:0:
119,131,39501,6,0,P|92:117|65:104,2,59.4999981842042,0|0|0,0:0|0:3|0:0,0:0:0:0:
187,53,40168,1,2,0:0:0:0:
217,143,40390,1,0,0:0:0:0:
170,225,40612,1,0,0:0:0:0:
76,245,40834,1,0,0:0:0:0:
76,359,41057,6,0,P|129:333|184:309,1,118.999996368408,2|0,0:0|0:3,0:0:0:0:
256,371,41723,1,0,0:0:0:0:
256,371,41945,2,0,P|282:319|268:262,1,118.999996368408,2|0,0:3|0:0,0:0:0:0:
227,175,42612,1,0,0:0:0:0:
268,262,42834,6,0,P|324:273|366:233,1,118.999996368408,2|0,0:0|0:3,0:0:0:0:
457,108,43501,1,0,0:0:0:0:
512,185,43723,1,2,0:0:0:0:
457,263,43945,1,0,0:0:0:0:
366,233,44168,1,0,0:0:0:0:
366,138,44390,1,0,0:0:0:0:
366,138,44501,1,0,0:0:0:0:
366,138,44612,6,0,P|313:109|260:82,2,118.999996368408,2|0|2,0:0|0:3|0:3,0:0:0:0:
113,188,45945,2,0,P|87:202|62:218,1,59.4999981842042
127,94,46390,5,4,0:0:0:0:
201,154,46612,2,0,P|214:180|227:207,2,59.4999981842042
244,1,47279,1,2,0:0:0:0:
277,89,47501,1,0,0:0:0:0:
369,111,47723,1,0,0:0:0:0:
443,52,47945,1,0,0:0:0:0:
502,153,48168,6,0,P|480:207|454:278,1,118.999996368408,2|0,0:0|0:0,0:0:0:0:
488,353,48834,1,0,0:0:0:0:
488,353,49057,2,0,P|429:354|382:319,1,118.999996368408,2|0,0:3|0:0,0:0:0:0:
291,292,49723,1,0,0:0:0:0:
206,336,49945,6,0,P|182:281|155:228,1,118.999996368408,2|0,0:0|0:0,0:0:0:0:
212,152,50612,1,0,0:0:0:0:
212,152,50723,1,0,0:0:0:0:
212,152,50834,2,0,P|249:176|293:179,2,89.2499972763062,2|0|0,0:0|0:0|0:0,0:0:0:0:
194,58,51723,5,6,0:0:0:0:
256,192,51834,12,8,53056,0:0:0:0:
310,155,53501,5,4,0:0:0:0:
202,231,53723,1,2,0:0:0:0:
218,139,53945,1,0,3:0:0:0:
294,246,54168,1,0,0:0:0:0:
222,350,54390,2,0,P|185:328|146:311,1,85,0|2,3:0|0:0,0:0:0:0:
7,255,54834,2,0,P|43:233|82:216,1,85,0|0,3:0|0:0,0:0:0:0:
213,29,55279,5,0,3:0:0:0:
149,119,55501,1,2,0:0:0:0:
16,15,55723,2,0,P|32:53|48:94,1,85,0|0,3:0|0:0,0:0:0:0:
7,255,56168,1,2,3:1:0:0:
27,222,56279,1,0,0:0:0:0:
61,205,56390,1,2,0:0:0:0:
133,354,56612,2,0,P|115:341|96:332,2,42.5,0|0|0,3:0|0:0|0:0,0:0:0:0:
211,271,57057,6,0,P|252:265|279:234,1,85,0|2,3:0|0:0,0:0:0:0:
444,217,57501,1,0,3:0:0:0:
374,301,57723,2,0,P|385:325|406:379,2,85,0|0|2,0:0|3:0|0:0,0:0:0:0:
279,233,58390,1,0,3:0:0:0:
320,122,58612,1,0,0:0:0:0:
320,122,58723,1,0,0:0:0:0:
320,122,58834,6,0,P|347:90|388:85,1,85,0|2,3:0|0:0,0:0:0:0:
454,179,59279,1,0,3:0:0:0:
391,275,59501,1,0,0:0:0:0:
391,275,59612,1,0,0:0:0:0:
391,275,59723,2,0,P|372:264|352:256,2,42.5,2|0|2,3:1|0:0|0:0,0:0:0:0:
388,85,60168,1,0,3:0:0:0:
326,161,60390,1,8,0:0:0:0:
202,51,60612,5,4,0:0:0:0:
135,139,60834,2,0,P|125:176|116:221,1,85,2|0,0:0|3:0,0:0:0:0:
202,51,61279,1,0,0:0:0:0:
135,139,61501,2,0,P|93:130|64:100,1,85,0|2,3:0|0:0,0:0:0:0:
202,51,61945,1,0,3:0:0:0:
305,90,62168,1,0,0:0:0:0:
405,41,62390,6,0,P|432:24|481:-1,2,85,0|2|0,3:0|0:0|3:0,0:0:0:0:
305,90,63057,1,0,0:0:0:0:
313,200,63279,1,2,3:1:0:0:
337,229,63390,1,0,0:0:0:0:
341,266,63501,1,2,0:0:0:0:
264,346,63723,2,0,P|253:365|246:385,2,42.5,0|0|0,3:0|0:0|0:0,0:0:0:0:
341,266,64168,6,0,P|368:297|409:302,1,85,4|2,0:0|0:0,0:0:0:0:
486,222,64612,1,0,3:0:0:0:
422,89,64834,1,8,0:0:0:0:
422,89,64945,1,0,0:0:0:0:
422,89,65057,2,0,P|379:107|300:144,1,127.5,4|0,0:0|0:0,0:0:0:0:
293,177,65501,1,0,3:0:0:0:
128,58,65723,1,8,0:0:0:0:
180,166,65945,6,0,P|172:185|165:205,2,42.5,4|0|0,0:0|0:0|0:0,0:0:0:0:
34,202,66390,2,0,P|55:238|75:276,1,85,8|8,0:1|0:0,0:0:0:0:
62,368,66723,1,0,3:0:0:0:
71,381,66834,1,2,0:1:0:0:
104,355,66945,1,8,0:1:0:0:
146,353,67057,1,8,0:1:0:0:
311,295,67279,2,0,P|294:281|276:270,1,42.5,8|0,0:1|0:0,0:0:0:0:
199,214,67501,1,0,3:0:0:0:
189,191,67612,1,0,0:0:0:0:
180,166,67723,6,0,L|202:84,1,85,4|0,0:0|0:0,0:0:0:0:
261,0,68057,2,0,P|270:19|278:38,1,42.5,2|0,0:0|3:0,0:0:0:0:
272,165,68390,1,0,0:0:0:0:
176,298,68612,2,0,P|154:284|131:273,2,42.5,0|0|0,3:0|0:0|0:0,0:0:0:0:
294,176,69057,1,8,0:1:0:0:
375,277,69279,1,0,0:0:0:0:
512,103,69501,6,0,P|486:135|445:141,1,85,0|0,3:0|0:0,0:0:0:0:
401,68,69834,1,2,0:0:0:0:
401,68,69945,2,0,P|375:35|334:30,1,85,0|0,3:0|0:0,0:0:0:0:
282,190,70390,1,0,3:0:0:0:
282,190,70501,1,0,0:0:0:0:
282,190,70612,1,0,0:0:0:0:
139,127,70834,2,0,P|176:106|214:88,1,85,8|0,0:1|0:0,0:0:0:0:
147,4,71168,1,0,0:0:0:0:
119,38,71279,6,0,P|81:17|43:-1,1,85,0|0,3:0|0:0,0:0:0:0:
36,95,71612,2,0,P|23:111|13:129,1,42.5,2|0,0:0|3:0,0:0:0:0:
48,261,71945,1,0,0:0:0:0:
211,216,72168,2,0,P|230:178|224:137,1,85,0|0,3:0|0:0,0:0:0:0:
139,127,72501,1,0,0:0:0:0:
139,127,72612,2,0,P|119:164|125:205,1,85,8|0,0:1|0:0,0:0:0:0:
181,352,73057,5,0,3:0:0:0:
320,328,73279,1,2,0:0:0:0:
459,304,73501,1,8,0:1:0:0:
360,207,73723,2,0,P|351:226|345:246,1,42.5
390,369,73945,1,0,3:0:0:0:
362,335,74057,1,0,0:0:0:0:
320,328,74168,1,0,0:0:0:0:
204,316,74390,1,0,3:0:0:0:
181,352,74501,1,0,0:0:0:0:
139,360,74612,1,0,3:0:0:0:
97,350,74723,1,0,0:0:0:0:
59,371,74834,6,0,P|39:333|17:296,1,85,4|0,0:0|0:0,0:0:0:0:
65,157,75279,2,0,P|94:186|135:195,1,85,0|0,3:0|0:0,0:0:0:0:
318,151,75723,2,0,P|299:161|282:174,1,42.5,0|0,3:0|0:0,0:0:0:0:
256,257,75945,1,0,0:0:0:0:
154,115,76168,1,8,0:1:0:0:
283,71,76390,2,0,L|264:32,1,42.5
256,2,76612,6,0,L|240:85,1,85,0|0,3:0|0:0,0:0:0:0:
429,105,77057,1,0,3:0:0:0:
371,7,77279,1,0,0:0:0:0:
297,197,77501,2,0,P|313:184|332:173,1,42.5,0|0,3:0|0:0,0:0:0:0:
402,228,77723,1,0,0:0:0:0:
512,140,77945,1,8,0:1:0:0:
498,344,78168,1,0,0:0:0:0:
474,319,78279,1,0,0:0:0:0:
439,315,78390,5,4,0:0:0:0:
348,377,78612,1,0,0:0:0:0:
260,309,78834,1,0,3:0:0:0:
297,204,79057,1,2,0:0:0:0:
199,142,79279,2,0,P|187:159|178:179,1,42.5,0|0,3:0|0:0,0:0:0:0:
87,219,79501,2,0,P|100:235|116:249,1,42.5,2|0,0:0|0:0,0:0:0:0:
127,349,79723,2,0,P|146:341|165:330,1,42.5,8|0,0:1|0:0,0:0:0:0:
265,351,79945,2,0,P|263:329|259:308,1,42.5
278,212,80168,6,0,B|353:230|353:230|358:237|358:237|436:254,2,165.749992412568,4|4|8,0:0|0:0|0:0,0:0:0:0:
125,165,81057,2,0,B|176:167|201:134|201:134|225:106|274:109,1,165.749992412568,4|0,0:0|0:0,0:0:0:0:
264,82,81501,2,0,P|190:77|150:8,1,152.999995330811,8|0,3:2|0:0,0:0:0:0:
232,7,81945,1,4,3:0:0:0:
232,7,82834,5,0,3:0:0:0:
274,109,83057,1,8,0:0:0:0:
257,152,83168,1,8,0:0:0:0:
215,172,83279,1,8,0:0:0:0:
170,157,83390,1,0,3:0:0:0:
127,177,83501,1,0,3:0:0:0:
114,222,83612,1,0,3:0:0:0:
132,266,83723,6,0,P|176:282|219:301,1,93.5000028533936,4|0,0:0|0:0,0:0:0:0:
345,384,84168,1,8,0:1:0:0:
436,317,84390,1,10,0:0:0:0:
449,276,84501,2,0,P|472:264|495:255,1,46.7500014266968,0|0,0:0|3:0,0:0:0:0:
349,262,84723,1,8,0:0:0:0:
332,301,84834,2,0,P|343:322|373:384,1,93.5000028533936,8|8,0:0|0:1,0:0:0:0:
192,384,85279,1,2,0:0:0:0:
192,384,85390,1,0,0:0:0:0:
192,384,85501,6,0,P|192:338|219:301,1,93.5000028533936,0|0,3:0|0:0,0:0:0:0:
168,103,85945,1,8,0:1:0:0:
8,187,86168,1,10,0:0:0:0:
33,220,86279,2,0,P|56:208|79:199,1,46.7500014266968,0|0,0:0|3:0,0:0:0:0:
167,193,86501,1,8,0:1:0:0:
154,233,86612,1,8,0:1:0:0:
82,5,86834,1,10,0:1:0:0:
249,77,87057,1,0,3:0:0:0:
249,77,87168,1,0,0:0:0:0:
249,77,87279,6,0,P|214:106|168:103,1,93.5000028533936,0|0,3:0|0:0,0:0:0:0:
127,97,87612,1,0,0:0:0:0:
90,117,87723,1,8,0:1:0:0:
164,261,87945,1,2,0:0:0:0:
249,77,88168,1,0,3:0:0:0:
395,192,88390,1,0,0:0:0:0:
296,168,88612,1,8,0:1:0:0:
435,21,88834,1,2,0:0:0:0:
511,212,89057,6,0,P|503:234|497:256,2,46.7500014266968,0|0|0,3:0|0:0|0:0,0:0:0:0:
395,192,89390,1,0,0:0:0:0:
408,231,89501,2,0,P|377:264|332:261,1,93.5000028533936,8|2,0:1|0:0,0:0:0:0:
290,241,89834,1,0,3:0:0:0:
248,248,89945,1,0,3:0:0:0:
220,279,90057,1,8,0:1:0:0:
217,321,90168,1,8,0:1:0:0:
70,381,90390,2,0,P|57:361|42:343,1,46.7500014266968,4|0,3:2|0:0,0:0:0:0:
80,254,90612,1,0,3:0:0:0:
95,215,90723,1,0,3:0:0:0:
90,173,90834,6,0,P|52:145|12:121,2,93.5000028533936,4|0|8,0:0|0:0|0:1,0:0:0:0:
194,65,91501,1,10,0:0:0:0:
196,23,91612,2,0,P|216:11|237:1,1,46.7500014266968,0|0,0:0|3:0,0:0:0:0:
311,66,91834,1,8,0:0:0:0:
292,103,91945,2,0,P|319:139|364:147,1,93.5000028533936,8|8,0:0|0:1,0:0:0:0:
465,19,92390,1,2,0:0:0:0:
465,19,92501,1,0,0:0:0:0:
465,19,92612,6,0,P|484:61|502:104,1,93.5000028533936,0|0,3:0|0:0,0:0:0:0:
494,242,93057,1,8,0:1:0:0:
364,188,93279,1,10,0:0:0:0:
331,215,93390,2,0,P|312:200|292:189,1,46.7500014266968,0|0,0:0|3:0,0:0:0:0:
184,275,93612,1,8,0:1:0:0:
217,302,93723,2,0,P|235:287|255:276,1,46.7500014266968,8|0,0:1|0:0,0:0:0:0:
183,179,93945,1,10,0:1:0:0:
21,259,94168,1,0,3:0:0:0:
11,280,94279,1,0,0:0:0:0:
2,302,94390,6,0,P|24:342|46:383,1,93.5000028533936,4|0,0:0|0:0,0:0:0:0:
118,330,94723,1,0,0:0:0:0:
153,352,94834,2,0,P|185:319|183:274,1,93.5000028533936,8|2,0:1|0:0,0:0:0:0:
64,169,95168,1,0,0:0:0:0:
95,196,95279,2,0,P|113:181|132:168,1,46.7500014266968,4|0,3:2|0:0,0:0:0:0:
271,213,95501,2,0,P|257:193|241:176,1,46.7500014266968,2|0,0:0|0:0,0:0:0:0:
100,217,95723,2,0,P|113:198|129:181,1,46.7500014266968,0|0,1:0|0:0,0:0:0:0:
275,191,95945,2,0,P|257:176|237:162,1,46.7500014266968,8|0,0:0|0:0,0:0:0:0:
115,42,96168,5,4,0:0:0:0:
144,72,96279,1,8,0:0:0:0:
280,39,96501,1,2,0:0:0:0:
295,0,96612,1,8,0:0:0:0:
426,105,96834,1,0,0:0:0:0:
443,142,96945,1,0,3:0:0:0:
431,182,97057,5,0,3:0:0:0:
400,210,97168,1,8,0:0:0:0:
358,216,97279,1,8,0:0:0:0:
322,193,97390,1,8,0:0:0:0:
275,191,97501,5,6,0:0:0:0:
230,216,97612,1,0,0:0:0:0:
209,268,97723,1,2,3:2:0:0:
225,327,97834,1,0,3:0:0:0:
281,383,97945,6,0,P|326:382|360:352,1,93.5000028533936,4|0,0:0|0:0,0:0:0:0:
294,275,98390,1,8,0:1:0:0:
141,349,98612,1,10,0:0:0:0:
116,383,98723,2,0,P|93:371|70:362,1,46.7500014266968,0|0,0:0|3:0,0:0:0:0:
0,253,98945,1,8,0:0:0:0:
26,284,99057,2,0,P|70:261|110:244,1,93.5000028533936,8|8,0:0|0:1,0:0:0:0:
249,160,99501,1,2,0:0:0:0:
249,160,99612,1,0,0:0:0:0:
249,160,99723,6,0,P|203:150|178:112,1,93.5000028533936,0|0,3:0|0:0,0:0:0:0:
226,1,100168,1,8,0:1:0:0:
66,51,100390,1,10,0:0:0:0:
52,92,100501,2,0,P|64:111|74:132,1,46.7500014266968,0|0,0:0|3:0,0:0:0:0:
29,217,100723,1,8,0:1:0:0:
12,255,100834,1,8,0:1:0:0:
123,374,101057,1,10,0:1:0:0:
207,292,101279,1,0,3:0:0:0:
197,265,101390,1,0,0:0:0:0:
188,238,101501,6,0,P|221:207|267:208,1,93.5000028533936,0|0,3:0|0:0,0:0:0:0:
296,240,101834,1,0,0:0:0:0:
337,245,101945,1,8,0:1:0:0:
433,202,102168,1,2,0:0:0:0:
452,373,102390,1,0,3:0:0:0:
337,245,102612,1,0,0:0:0:0:
504,281,102834,1,8,0:1:0:0:
348,350,103057,1,2,0:0:0:0:
185,352,103279,6,0,P|177:329|168:308,2,46.7500014266968,0|0|0,3:0|0:0|0:0,0:0:0:0:
92,382,103612,1,0,0:0:0:0:
53,364,103723,2,0,P|36:321|57:282,1,93.5000028533936,8|2,0:1|0:0,0:0:0:0:
94,253,104057,1,0,3:0:0:0:
108,213,104168,1,0,3:0:0:0:
96,172,104279,1,8,0:1:0:0:
63,145,104390,1,8,0:1:0:0:
202,63,104612,2,0,P|207:40|214:18,1,46.7500014266968,4|0,3:2|0:0,0:0:0:0:
88,0,104834,1,0,3:0:0:0:
98,40,104945,1,0,3:0:0:0:
108,80,105057,6,0,P|64:97|22:117,2,93.5000028533936,4|0|8,0:0|0:0|0:1,0:0:0:0:
172,221,105723,1,10,0:0:0:0:
147,255,105834,2,0,P|127:242|106:231,1,46.7500014266968,0|0,0:0|3:0,0:0:0:0:
251,168,106057,1,8,0:0:0:0:
271,205,106168,2,0,P|262:227|240:292,1,93.5000028533936,8|8,0:0|0:1,0:0:0:0:
362,379,106612,1,2,0:0:0:0:
362,379,106723,1,0,0:0:0:0:
362,379,106834,6,0,P|407:378|437:343,1,93.5000028533936,0|0,3:0|0:0,0:0:0:0:
510,225,107279,1,8,0:1:0:0:
391,126,107501,1,10,0:0:0:0:
370,163,107612,2,0,P|382:182|393:203,1,46.7500014266968,0|0,0:0|3:0,0:0:0:0:
313,314,107834,1,8,0:1:0:0:
286,280,107945,2,0,P|294:259|305:237,1,46.7500014266968,8|0,0:1|0:0,0:0:0:0:
227,180,108168,1,10,0:1:0:0:
277,44,108390,1,0,3:0:0:0:
277,44,108501,1,0,0:0:0:0:
277,44,108612,6,0,P|317:21|359:0,1,93.5000028533936,4|0,0:0|0:0,0:0:0:0:
445,35,108945,1,0,0:0:0:0:
445,35,109057,2,0,P|479:66|512:99,1,93.5000028533936,8|2,0:1|0:0,0:0:0:0:
505,192,109390,1,0,0:0:0:0:
505,192,109501,2,0,P|498:211|486:234,1,46.7500014266968,4|0,3:2|0:0,0:0:0:0:
372,360,109723,2,0,P|366:337|361:314,1,46.7500014266968,2|0,0:0|0:0,0:0:0:0:
380,145,109945,2,0,P|394:155|415:175,1,46.7500014266968,0|0,1:0|0:0,0:0:0:0:
500,324,110168,2,0,P|476:324|453:319,1,46.7500014266968,8|0,0:0|0:0,0:0:0:0:
299,250,110390,5,4,0:0:0:0:
335,229,110501,1,8,0:0:0:0:
247,369,110723,1,2,0:0:0:0:
212,344,110834,1,8,0:0:0:0:
53,255,111057,1,0,0:0:0:0:
72,291,111168,1,0,3:0:0:0:
88,329,111279,6,0,P|76:349|65:369,1,46.7500014266968,0|0,3:0|0:0,0:0:0:0:
160,263,111501,2,0,P|179:250|200:239,1,46.7500014266968,8|0,0:0|0:0,0:0:0:0:
264,155,111723,1,4,0:0:0:0:
254,108,111834,1,8,0:0:0:0:
222,73,111945,1,8,0:0:0:0:
175,66,112057,1,8,0:0:0:0:
134,89,112168,5,4,0:0:0:0:
227,349,112501,1,4,0:0:0:0:
406,137,112834,1,4,0:0:0:0:
