osu file format v14

[General]
AudioFilename: Tsukumonotsuki.mp3
AudioLeadIn: 0
PreviewTime: 83167
Countdown: 0
SampleSet: Soft
StackLeniency: 0.7
Mode: 0
LetterboxInBreaks: 0
WidescreenStoryboard: 0

[Editor]
DistanceSpacing: 1.4
BeatDivisor: 4
GridSize: 4
TimelineZoom: 1

[Metadata]
Title:Tsukumo no Tsuki
TitleUnicode:ツクモノツキ
Artist:nao
ArtistUnicode:nao
Creator:Misure
Version:Hard
Source:ツクモノツキ
Tags:Sugar Pot opening op eroge visual novel galgame Japanese video game short version tsukumonotsuki pop
BeatmapID:2650309
BeatmapSetID:1275572

[Difficulty]
HPDrainRate:4.4
CircleSize:3.6
OverallDifficulty:5.8
ApproachRate:7
SliderMultiplier:1.5
SliderTickRate:1

[Events]
//Background and Video events
Video,0,"Tsukumonotsuki.flv"
0,0,"hard.jpg",0,0
//Break Periods
//Storyboard Layer 0 (Background)
//Storyboard Layer 1 (Fail)
//Storyboard Layer 2 (Pass)
//Storyboard Layer 3 (Foreground)
//Storyboard Layer 4 (Overlay)
//Storyboard Sound Samples

[TimingPoints]
1058,666.666666666667,4,2,2,40,1,0
1058,-83.3333333333333,4,2,2,40,0,0
11724,-83.3333333333333,4,2,2,50,0,0
19724,444.444444444444,4,2,2,40,1,0
21501,-100,4,2,1,60,0,0
25057,444.444444444444,4,2,1,75,1,0
39279,-125,4,2,2,50,0,0
53056,-125,4,2,1,55,0,0
53501,-100,4,2,1,60,0,0
67723,-100,4,2,1,65,0,0
80168,-100,4,2,1,75,0,0
81945,-100,4,2,2,55,0,0
82834,-100,4,2,1,65,0,0
83723,-100,4,2,1,75,0,1
96168,-100,4,2,1,80,0,1
97056,-100,4,2,1,75,0,1
97501,-100,4,2,1,85,0,0
97945,-100,4,2,1,80,0,1
98390,-100,4,2,1,75,0,1
109501,-100,4,2,1,80,0,1
110390,-100,4,2,1,85,0,1
112168,-100,4,2,1,75,0,1
112834,-100,4,2,1,75,0,0

[Colours]
Combo1 : 255,168,255
Combo2 : 111,208,255
Combo3 : 255,128,192
Combo4 : 168,168,255

[HitObjects]
184,17,1058,6,0,P|148:93|64:86,1,179.999994506836,2|0,3:0|0:0,0:0:0:0:
17,183,2058,1,0,0:0:0:0:
77,272,2391,2,0,P|159:236|243:204,1,179.999994506836,2|0,0:0|0:0,0:0:0:0:
323,277,3391,1,0,0:0:0:0:
323,277,3558,1,0,0:0:0:0:
323,277,3724,6,0,P|374:347|459:337,1,179.999994506836,2|0,0:0|0:0,0:0:0:0:
501,238,4724,1,0,0:0:0:0:
464,136,5058,2,0,B|416:119|379:157|379:157|342:196|301:185,1,179.999994506836,2|0,0:0|0:0,0:0:0:0:
245,92,6058,1,0,0:0:0:0:
159,158,6391,6,0,P|179:198|198:239,2,89.9999972534181,2|0|0,0:3|0:0|0:0,0:0:0:0:
67,100,7391,1,0,0:0:0:0:
0,251,7724,2,0,P|38:227|78:207,1,89.9999972534181,2|0,0:0|0:0,0:0:0:0:
198,349,8391,2,0,P|159:326|120:306,1,89.9999972534181
203,231,9058,6,0,P|288:236|333:163,1,179.999994506836,2|0,0:0|0:0,0:0:0:0:
318,55,10058,1,0,0:0:0:0:
215,21,10391,1,2,0:0:0:0:
215,21,11058,2,0,P|225:54|240:112,1,89.9999972534181
333,162,11724,6,0,P|389:87|475:99,1,179.999994506836,2|0,3:0|0:0,0:0:0:0:
501,203,12724,1,0,0:0:0:0:
466,312,13058,2,0,P|382:278|297:248,1,179.999994506836,2|0,3:2|0:0,0:0:0:0:
195,289,14058,1,0,0:0:0:0:
195,289,14225,1,0,0:0:0:0:
195,289,14391,6,0,P|144:359|59:349,1,179.999994506836,2|0,3:2|0:0,0:0:0:0:
5,248,15391,1,0,0:0:0:0:
41,139,15724,2,0,B|89:122|126:160|126:160|163:199|204:188,1,179.999994506836,2|0,3:2|0:0,0:0:0:0:
278,101,16724,1,0,0:0:0:0:
390,123,17058,6,0,P|402:80|416:38,2,89.9999972534181,2|0|0,3:2|0:0|0:0,0:0:0:0:
446,222,18058,1,0,0:0:0:0:
416,332,18391,2,0,B|376:325|342:346|342:346|299:304|249:308,2,179.999994506836,2|0|4,3:2|0:0|0:1,0:0:0:0:
139,110,21501,5,4,3:2:0:0:
174,309,21946,1,0,3:0:0:0:
373,274,22390,1,0,3:0:0:0:
338,75,22835,1,0,3:0:0:0:
110,40,23279,6,0,P|125:74|138:109,1,75,0|8,3:0|0:0,0:0:0:0:
139,275,23723,2,0,P|151:239|168:206,1,75,0|8,3:0|0:0,0:0:0:0:
254,152,24168,1,0,1:0:0:0:
330,224,24390,1,0,1:0:0:0:
330,224,24501,1,8,0:0:0:0:
330,224,24612,2,0,P|344:212|360:201,2,37.5,8|0|0,0:0|0:0|3:0,0:0:0:0:
282,317,25057,6,0,P|309:342|345:350,1,75,4|0,0:0|0:0,0:0:0:0:
447,372,25501,1,8,0:1:0:0:
509,288,25723,1,8,0:0:0:0:
509,288,25834,2,0,P|490:234|470:182,1,112.5,0|2,3:0|0:0,0:0:0:0:
491,79,26390,1,8,0:1:0:0:
491,79,26612,1,8,0:0:0:0:
386,62,26834,6,0,P|374:97|365:134,1,75,0|8,3:0|0:0,0:0:0:0:
394,234,27279,1,8,0:1:0:0:
361,333,27501,1,8,0:0:0:0:
361,333,27612,2,0,P|310:309|254:313,1,112.5,0|2,3:0|0:0,0:0:0:0:
176,384,28168,1,10,0:1:0:0:
0,261,28612,6,0,B|47:238|98:242|98:242|137:213,1,150,4|8,3:2|0:1,0:0:0:0:
57,144,29279,1,8,0:0:0:0:
57,144,29390,1,0,0:0:0:0:
57,144,29501,2,0,P|40:102|30:73,1,75,0|2,3:0|0:0,0:0:0:0:
106,0,29945,1,8,0:1:0:0:
187,70,30168,1,8,0:0:0:0:
187,70,30279,6,0,P|170:123|156:178,1,112.5,0|0,3:0|0:0,0:0:0:0:
89,260,30834,1,8,0:1:0:0:
170,325,31057,1,0,0:0:0:0:
170,325,31168,1,0,3:0:0:0:
170,325,31279,2,0,P|178:341|185:359,2,37.5,0|8|0,3:0|0:1|0:0,0:0:0:0:
237,244,31723,1,6,0:0:0:0:
313,318,31945,1,8,0:0:0:0:
313,318,32057,1,0,3:0:0:0:
313,318,32168,6,0,P|346:301|382:290,1,75,4|0,3:2|0:0,0:0:0:0:
470,348,32612,1,8,0:1:0:0:
475,243,32834,1,8,0:0:0:0:
475,243,32945,2,0,P|490:188|508:135,1,112.5,0|2,3:0|0:0,0:0:0:0:
485,32,33501,1,8,0:1:0:0:
485,32,33723,1,8,0:0:0:0:
409,105,33945,6,0,P|372:101|343:78,1,75,0|0,3:0|0:0,0:0:0:0:
272,0,34390,1,8,0:1:0:0:
190,66,34612,1,8,0:0:0:0:
190,66,34723,2,0,P|138:42|86:22,1,112.5,0|2,3:0|0:0,0:0:0:0:
15,99,35279,1,8,0:1:0:0:
85,296,35723,6,0,P|154:268|225:242,1,150,4|8,3:2|0:1,0:0:0:0:
305,174,36390,1,8,0:0:0:0:
305,174,36501,1,0,0:0:0:0:
305,174,36612,2,0,P|336:202|385:202,1,75,4|2,3:2|0:0,0:0:0:0:
411,184,36945,2,0,P|400:223|384:293,1,112.5,8|0,0:1|0:0,0:0:0:0:
313,371,37501,6,0,P|280:352|243:347,1,75,4|2,0:0|0:0,0:0:0:0:
201,322,37834,1,0,0:0:0:0:
201,322,37945,2,0,P|167:365|113:372,1,112.5,0|0,3:0|3:0,0:0:0:0:
66,357,38390,2,0,P|57:340|47:324,2,37.5,0|0|2,3:0|0:0|0:0,0:0:0:0:
113,248,38834,1,8,0:1:0:0:
27,182,39057,1,8,0:1:0:0:
27,182,39168,1,0,0:0:0:0:
27,182,39279,6,0,P|81:154|135:131,1,120,4|0,0:0|0:3,0:0:0:0:
173,219,39945,1,0,0:0:0:0:
173,219,40168,2,0,P|228:242|281:269,1,120,2|0,0:0|0:0,0:0:0:0:
414,166,41057,2,0,P|451:120|446:61,1,120,2|0,0:0|0:3,0:0:0:0:
354,35,41723,1,0,0:0:0:0:
354,35,41945,2,0,P|317:81|322:140,1,120,2|0,0:3|0:3,0:0:0:0:
182,234,42834,6,0,P|125:212|69:192,1,120,2|0,0:0|0:3,0:0:0:0:
65,95,43501,1,0,0:0:0:0:
65,95,43723,2,0,P|111:59|169:63,1,120,2|0,0:0|0:0,0:0:0:0:
182,234,44612,2,0,P|202:289|222:346,1,120,2|0,0:0|0:3,0:0:0:0:
390,353,45501,2,0,P|409:296|430:240,1,120,2|0,0:3|0:0,0:0:0:0:
311,120,46390,6,0,P|267:159|209:158,1,120,4|0,0:0|0:0,0:0:0:0:
197,253,47057,1,0,0:0:0:0:
197,253,47279,2,0,P|255:267|312:286,1,120,2|0,0:0|0:0,0:0:0:0:
459,366,48168,2,0,P|440:308|420:252,1,120,2|0,0:0|0:0,0:0:0:0:
462,166,48834,1,0,0:0:0:0:
462,166,49057,2,0,P|471:108|435:62,1,120,2|0,0:3|0:0,0:0:0:0:
310,175,49945,6,0,P|254:196|199:222,1,120,2|0,0:0|0:0,0:0:0:0:
126,284,50612,1,0,0:0:0:0:
126,284,50834,2,0,P|68:275|38:225,1,120,2|0,0:0|0:0,0:0:0:0:
105,71,51723,1,6,0:0:0:0:
256,192,51834,12,8,53056,0:0:0:0:
192,316,53501,6,0,P|215:344|251:353,1,75,4|2,0:0|0:0,0:0:0:0:
359,369,53945,2,0,P|346:333|331:299,1,75,0|0,3:0|0:0,0:0:0:0:
389,216,54390,1,0,3:0:0:0:
389,216,54612,1,2,0:0:0:0:
316,144,54834,2,0,P|281:159|255:185,1,75,0|0,3:0|0:0,0:0:0:0:
168,239,55279,6,0,P|149:185|128:133,1,112.5,0|0,3:0|0:0,0:0:0:0:
84,142,55723,2,0,P|63:176|62:213,1,75,0|0,3:0|0:0,0:0:0:0:
42,312,56168,2,0,P|25:302|9:294,2,37.5,2|0|2,3:1|0:0|0:0,0:0:0:0:
125,369,56612,2,0,P|156:348|190:332,1,75,0|0,3:0|0:0,0:0:0:0:
285,296,57057,6,0,P|330:353|403:360,1,150,0|0,3:0|3:0,0:0:0:0:
486,302,57723,1,0,0:0:0:0:
450,206,57945,2,0,P|461:170|474:135,2,75,0|2|0,3:0|0:0|3:0,0:0:0:0:
349,217,58612,1,0,0:0:0:0:
349,217,58723,1,0,0:0:0:0:
349,218,58834,6,0,P|258:161|213:136,2,150,0|0|2,3:0|3:0|3:1,0:0:0:0:
393,0,60168,1,0,3:0:0:0:
393,0,60390,1,8,0:0:0:0:
445,86,60612,6,0,P|419:112|382:119,1,75,4|2,0:0|0:0,0:0:0:0:
296,64,61057,2,0,P|263:46|228:31,1,75,0|0,3:0|0:0,0:0:0:0:
138,77,61501,1,0,3:0:0:0:
138,77,61723,1,2,0:0:0:0:
37,67,61945,2,0,P|51:101|63:136,1,75,0|0,3:0|0:0,0:0:0:0:
52,237,62390,6,0,B|86:247|123:221|123:221|159:195|194:211,1,150,0|0,3:0|3:0,0:0:0:0:
228,305,63057,1,0,0:0:0:0:
165,384,63279,2,0,P|148:375|130:368,2,37.5,2|0|2,3:1|0:0|0:0,0:0:0:0:
228,305,63723,2,0,P|266:290|303:279,1,75,0|0,3:0|0:0,0:0:0:0:
330,182,64168,6,0,P|311:113|242:94,1,150,4|0,0:0|3:0,0:0:0:0:
163,158,64834,1,8,0:0:0:0:
163,158,64945,1,0,0:0:0:0:
163,158,65057,2,0,P|124:197|69:202,1,112.5,4|0,0:0|0:0,0:0:0:0:
32,229,65501,2,0,P|16:194|0:160,1,75,0|8,3:0|0:0,0:0:0:0:
0,40,65945,6,0,P|25:66|62:71,1,75,4|0,0:0|0:0,0:0:0:0:
158,42,66390,2,0,P|209:18|261:-1,1,112.5,8|0,0:1|3:0,0:0:0:0:
298,24,66834,2,0,P|314:33|329:43,2,37.5,2|8|0,0:1|0:1|0:0,0:0:0:0:
251,113,67279,1,8,0:1:0:0:
287,207,67501,1,0,3:0:0:0:
287,207,67612,1,0,0:0:0:0:
287,206,67723,6,0,P|341:205|381:167,1,112.5,4|2,0:0|0:0,0:0:0:0:
427,173,68168,2,0,P|416:208|406:245,1,75,0|0,3:0|0:0,0:0:0:0:
481,312,68612,2,0,P|491:347|501:384,2,75,0|0|8,3:0|0:0|0:1,0:0:0:0:
406,245,69279,1,0,0:0:0:0:
334,316,69501,6,0,P|293:352|239:346,1,112.5,0|2,3:0|0:0,0:0:0:0:
212,310,69945,1,0,3:0:0:0:
134,374,70168,1,0,0:0:0:0:
35,349,70390,2,0,P|18:315|1:282,1,75,0|0,3:0|0:0,0:0:0:0:
76,216,70834,1,8,0:1:0:0:
0,49,71279,6,0,P|54:50|86:6,1,112.5,0|2,3:0|0:0,0:0:0:0:
108,46,71723,2,0,P|139:25|173:9,1,75,0|0,3:0|0:0,0:0:0:0:
323,100,72168,2,0,P|291:79|258:63,1,75,0|0,3:0|0:0,0:0:0:0:
196,143,72612,1,8,0:1:0:0:
196,143,72834,1,0,0:0:0:0:
254,224,73057,6,0,P|290:222|320:200,1,75,0|2,3:0|0:0,0:0:0:0:
156,245,73501,2,0,P|171:278|187:313,1,75,8|0,0:1|0:0,0:0:0:0:
215,349,73834,1,0,0:0:0:0:
215,349,73945,2,0,P|207:366|200:383,2,37.5,0|0|0,3:0|0:0|0:0,0:0:0:0:
307,307,74390,1,0,3:0:0:0:
400,343,74612,1,0,3:0:0:0:
486,289,74834,6,0,P|496:252|507:217,1,75,4|0,0:0|0:0,0:0:0:0:
437,56,75279,2,0,P|450:91|462:127,1,75,0|0,3:0|0:0,0:0:0:0:
301,212,75723,2,0,P|332:191|365:174,1,75,0|0,3:0|0:0,0:0:0:0:
358,129,76057,1,0,0:0:0:0:
358,129,76168,2,0,P|322:119|299:90,1,75,8|0,0:1|0:0,0:0:0:0:
188,29,76612,6,0,P|222:13|256:0,1,75,0|0,3:0|0:0,0:0:0:0:
189,140,77057,2,0,P|154:124|120:110,1,75,0|0,3:0|0:0,0:0:0:0:
0,17,77501,2,0,P|14:51|27:86,1,75,0|0,3:0|0:0,0:0:0:0:
20,116,77834,1,0,0:0:0:0:
11,145,77945,1,8,0:1:0:0:
63,231,78168,2,0,P|78:219|93:209,1,37.5
136,236,78390,5,4,0:0:0:0:
136,236,78612,1,0,0:0:0:0:
109,334,78834,1,0,3:0:0:0:
109,334,79057,1,2,0:0:0:0:
239,381,79279,2,0,P|225:345|210:311,1,75,0|2,3:0|0:0,0:0:0:0:
158,164,79723,2,0,P|145:200|135:236,1,75,8|0,0:1|0:0,0:0:0:0:
108,333,80168,6,0,P|60:306|8:282,2,112.5,4|4|8,0:0|0:0|0:0,0:0:0:0:
209,310,81057,2,0,P|280:307|303:241,1,150,4|8,0:0|3:2,0:0:0:0:
251,51,81945,5,4,3:0:0:0:
251,51,82834,5,0,3:0:0:0:
312,131,83057,1,8,0:0:0:0:
312,131,83168,1,8,0:0:0:0:
312,131,83279,2,0,P|328:140|343:151,2,37.5,8|0|0,0:0|3:0|3:0,0:0:0:0:
356,35,83723,6,0,P|389:18|423:1,1,75,4|0,0:0|0:0,0:0:0:0:
510,60,84168,1,8,0:1:0:0:
455,149,84390,1,10,0:0:0:0:
455,149,84501,2,0,P|444:198|430:281,1,112.5,0|8,3:0|0:0,0:0:0:0:
493,346,85057,1,8,0:1:0:0:
396,384,85279,1,2,0:0:0:0:
396,384,85390,1,0,0:0:0:0:
396,384,85501,6,0,P|366:361|331:348,1,75,0|0,3:0|0:0,0:0:0:0:
233,384,85945,1,8,0:1:0:0:
131,358,86168,1,10,0:0:0:0:
131,358,86279,2,0,P|116:323|100:289,1,75,0|8,3:0|0:1,0:0:0:0:
57,276,86612,1,8,0:1:0:0:
95,182,86834,1,10,0:1:0:0:
31,102,87057,1,0,3:0:0:0:
73,6,87279,6,0,P|100:31|136:40,1,75,0|0,3:0|0:0,0:0:0:0:
181,30,87612,1,0,0:0:0:0:
181,30,87723,2,0,P|170:66|162:102,1,75,8|2,0:1|0:0,0:0:0:0:
239,173,88168,1,0,3:0:0:0:
239,173,88390,1,0,0:0:0:0:
308,94,88612,1,8,0:1:0:0:
308,94,88834,1,2,0:0:0:0:
248,8,89057,6,0,P|195:27|143:49,1,112.5,0|0,3:0|0:0,0:0:0:0:
106,24,89501,1,8,0:1:0:0:
23,88,89723,1,2,0:0:0:0:
23,88,89834,1,0,3:0:0:0:
23,88,89945,2,0,P|33:103|42:120,2,37.5,0|8|8,3:0|0:1|0:1,0:0:0:0:
170,142,90390,1,4,3:2:0:0:
134,241,90612,1,0,3:0:0:0:
134,241,90723,1,0,3:0:0:0:
134,241,90834,6,0,P|96:239|66:218,1,75,4|0,0:0|0:0,0:0:0:0:
0,300,91279,1,8,0:1:0:0:
64,381,91501,1,10,0:0:0:0:
64,381,91612,2,0,P|116:361|170:343,1,112.5,0|8,3:0|0:0,0:0:0:0:
268,379,92168,1,8,0:1:0:0:
313,284,92390,1,2,0:0:0:0:
313,284,92501,1,0,0:0:0:0:
313,284,92612,6,0,P|300:247|282:215,1,75,0|0,3:0|0:0,0:0:0:0:
192,162,93057,1,8,0:1:0:0:
209,58,93279,1,10,0:0:0:0:
209,58,93390,2,0,P|236:79|292:86,1,75,0|8,3:0|0:1,0:0:0:0:
309,58,93723,1,8,0:1:0:0:
397,107,93945,1,10,0:1:0:0:
430,11,94168,1,0,3:0:0:0:
512,74,94390,6,0,P|498:109|485:144,1,75,4|0,0:0|0:0,0:0:0:0:
461,182,94723,1,0,0:0:0:0:
461,182,94834,2,0,P|477:215|493:249,1,75,8|2,0:1|0:0,0:0:0:0:
464,351,95279,1,4,3:2:0:0:
464,351,95501,1,2,0:0:0:0:
381,286,95723,1,0,1:0:0:0:
381,286,95945,1,8,0:0:0:0:
286,332,96168,6,0,P|235:356|186:384,1,112.5,4|2,0:0|0:0,0:0:0:0:
147,363,96612,1,8,0:0:0:0:
42,367,96834,1,0,0:0:0:0:
42,367,96945,1,0,3:0:0:0:
42,367,97057,2,0,P|27:356|10:347,2,37.5,0|8|8,3:0|0:0|0:0,0:0:0:0:
92,274,97501,1,6,0:0:0:0:
15,211,97723,1,2,3:2:0:0:
15,211,97834,1,0,3:0:0:0:
15,211,97945,6,0,P|-2:178|0:141,1,75,4|0,0:0|0:0,0:0:0:0:
80,75,98390,1,8,0:1:0:0:
162,139,98612,1,10,0:0:0:0:
162,139,98723,2,0,P|214:159|266:180,1,112.5,0|8,3:0|0:0,0:0:0:0:
311,85,99279,1,8,0:1:0:0:
244,4,99501,1,2,0:0:0:0:
244,4,99612,1,0,0:0:0:0:
244,4,99723,6,0,P|214:26|177:31,1,75,0|0,3:0|0:0,0:0:0:0:
76,2,100168,1,8,0:1:0:0:
2,77,100390,1,10,0:0:0:0:
2,77,100501,2,0,P|23:116|47:164,1,75,0|8,3:0|0:1,0:0:0:0:
23,186,100834,1,8,0:1:0:0:
112,233,101057,1,10,0:1:0:0:
179,157,101279,1,0,3:0:0:0:
268,212,101501,6,0,P|300:193|333:176,1,75,0|0,3:0|0:0,0:0:0:0:
370,204,101834,1,0,0:0:0:0:
370,204,101945,2,0,P|403:221|435:239,1,75,8|2,0:1|0:0,0:0:0:0:
512,168,102390,1,0,3:0:0:0:
512,168,102612,1,0,0:0:0:0:
465,74,102834,1,8,0:1:0:0:
465,74,103057,1,2,0:0:0:0:
373,126,103279,6,0,P|382:154|406:237,1,112.5,0|0,3:0|0:0,0:0:0:0:
379,267,103723,1,8,0:1:0:0:
429,359,103945,1,2,0:0:0:0:
429,359,104057,1,0,3:0:0:0:
429,359,104168,2,0,P|446:366|462:375,2,37.5,0|8|8,3:0|0:1|0:1,0:0:0:0:
326,382,104612,1,4,3:2:0:0:
230,338,104834,1,0,3:0:0:0:
230,338,104945,1,0,3:0:0:0:
230,338,105057,6,0,P|230:300|247:267,1,75,4|0,0:0|0:0,0:0:0:0:
305,179,105501,1,8,0:1:0:0:
239,96,105723,1,10,0:0:0:0:
239,96,105834,2,0,P|201:136|146:142,1,112.5,0|8,3:0|0:0,0:0:0:0:
81,60,106390,1,8,0:1:0:0:
13,141,106612,1,2,0:0:0:0:
13,141,106723,1,0,0:0:0:0:
13,141,106834,6,0,P|30:174|44:208,1,75,0|0,3:0|0:0,0:0:0:0:
5,306,107279,1,8,0:1:0:0:
80,378,107501,1,10,0:0:0:0:
80,378,107612,2,0,P|111:358|144:339,1,75,0|8,3:0|0:1,0:0:0:0:
186,356,107945,1,8,0:1:0:0:
218,260,108168,1,10,0:1:0:0:
153,182,108390,1,0,3:0:0:0:
205,91,108612,6,0,P|240:98|270:120,1,75,4|0,0:0|0:0,0:0:0:0:
316,127,108945,1,0,0:0:0:0:
316,127,109057,2,0,P|349:111|375:85,1,75,8|2,0:1|0:0,0:0:0:0:
452,13,109501,1,4,3:2:0:0:
452,13,109723,1,2,0:0:0:0:
488,112,109945,1,0,1:0:0:0:
488,112,110168,1,8,0:0:0:0:
453,210,110390,6,0,P|400:189|347:170,1,112.5,4|2,0:0|0:0,0:0:0:0:
328,211,110834,2,0,P|302:238|267:249,1,75,8|0,0:0|0:0,0:0:0:0:
168,284,111279,2,0,P|176:300|184:317,2,37.5,0|0|8,3:0|0:0|0:0,0:0:0:0:
67,253,111723,2,0,P|78:212|90:181,1,75,4|0,0:0|0:0,0:0:0:0:
186,141,112168,6,0,P|191:86|154:46,2,112.5,4|4|4,0:0|0:0|0:0,0:0:0:0:
