osu file format v14

[General]
AudioFilename: Tsukumonotsuki.mp3
AudioLeadIn: 0
PreviewTime: 83167
Countdown: 0
SampleSet: Soft
StackLeniency: 0.7
Mode: 0
LetterboxInBreaks: 0
WidescreenStoryboard: 0

[Editor]
DistanceSpacing: 1.2
BeatDivisor: 2
GridSize: 4
TimelineZoom: 1

[Metadata]
Title:Tsukumo no Tsuki
TitleUnicode:ツクモノツキ
Artist:nao
ArtistUnicode:nao
Creator:Misure
Version:Easy
Source:ツクモノツキ
Tags:Sugar Pot opening op eroge visual novel galgame Japanese video game short version tsukumonotsuki pop
BeatmapID:2650306
BeatmapSetID:1275572

[Difficulty]
HPDrainRate:2
CircleSize:2.8
OverallDifficulty:2
ApproachRate:3
SliderMultiplier:0.8
SliderTickRate:1

[Events]
//Background and Video events
Video,0,"Tsukumonotsuki.flv"
0,0,"easy.jpg",0,0
//Break Periods
//Storyboard Layer 0 (Background)
//Storyboard Layer 1 (Fail)
//Storyboard Layer 2 (Pass)
//Storyboard Layer 3 (Foreground)
//Storyboard Layer 4 (Overlay)
//Storyboard Sound Samples

[TimingPoints]
1058,666.666666666667,4,2,2,40,1,0
1058,-71.4285714285714,4,2,2,40,0,0
11724,-71.4285714285714,4,2,2,50,0,0
19724,444.444444444444,4,2,2,40,1,0
21501,-100,4,2,1,60,0,0
25057,444.444444444444,4,2,1,70,1,0
39279,-100,4,2,2,50,0,0
53056,-100,4,2,1,50,0,0
53501,-100,4,2,1,60,0,0
67723,-100,4,2,1,65,0,0
81945,-100,4,2,2,55,0,0
83723,-100,4,2,1,75,0,1
112834,-100,4,2,1,75,0,0

[Colours]
Combo1 : 255,168,255
Combo2 : 111,208,255
Combo3 : 255,128,192
Combo4 : 168,168,255

[HitObjects]
319,12,1058,6,0,P|291:113|378:172,1,223.999993164063,2|2,3:0|0:0,0:0:0:0:
488,152,3058,1,0,0:0:0:0:
495,263,3724,2,0,B|424:226|381:318|394:261|356:346|289:308,1,223.999993164063,2|2,0:0|0:0,0:0:0:0:
193,252,5724,1,0,0:0:0:0:
81,241,6391,6,0,P|58:291|67:345,1,111.999996582031,2|0,0:3|0:0,0:0:0:0:
179,356,7724,2,0,P|202:306|193:252,1,111.999996582031,2|0,0:0|0:0,0:0:0:0:
158,144,9058,2,0,P|177:39|280:18,1,223.999993164063,2|2,0:0|0:0,0:0:0:0:
328,119,11058,1,0,0:0:0:0:
286,222,11724,6,0,L|72:154,1,223.999993164063,2|2,3:0|3:2,0:0:0:0:
7,258,13724,1,0,0:0:0:0:
87,351,14391,2,0,L|300:283,1,223.999993164063,2|2,3:2|3:2,0:0:0:0:
384,372,16391,1,0,0:0:0:0:
467,281,17058,6,0,P|467:226|446:175,1,111.999996582031,2|0,3:2|0:0,0:0:0:0:
320,175,18391,2,0,P|299:226|300:282,1,111.999996582031,2|0,3:2|0:0,0:0:0:0:
384,372,19724,1,4,0:1:0:0:
384,372,21501,6,0,L|307:352,1,80,4|0,3:2|3:0,0:0:0:0:
262,266,22390,2,0,L|185:286,1,80,0|0,3:0|3:0,0:0:0:0:
133,365,23279,2,0,L|166:127,1,240,0|8,3:0|0:0,0:0:0:0:
151,32,25057,6,0,P|186:15|225:21,1,80,4|8,0:0|0:1,0:0:0:0:
240,116,25945,2,0,P|204:133|166:127,1,80,0|8,3:0|0:1,0:0:0:0:
75,161,26834,2,0,L|87:240,1,80,0|8,3:0|0:1,0:0:0:0:
1,283,27723,2,0,L|13:362,1,80,0|10,3:0|0:1,0:0:0:0:
107,384,28612,6,0,P|161:328|239:327,1,160,4|0,3:2|3:0,0:0:0:0:
321,378,29945,1,8,0:1:0:0:
381,303,30390,2,0,L|365:224,1,80,0|8,3:0|0:1,0:0:0:0:
346,130,31279,2,0,L|330:51,1,80,0|6,3:0|0:0,0:0:0:0:
428,46,32168,6,0,P|453:15|489:0,2,80,4|8|0,3:2|0:1|3:0,0:0:0:0:
512,92,33501,1,8,0:1:0:0:
489,185,33945,2,0,L|414:155,1,80,0|8,3:0|0:1,0:0:0:0:
330,203,34834,2,0,L|255:173,1,80,0|8,3:0|0:1,0:0:0:0:
168,134,35723,6,0,P|155:95|160:56,2,80,4|8|4,3:2|0:1|3:2,0:0:0:0:
256,174,37056,1,8,0:1:0:0:
180,232,37501,2,0,L|161:309,1,80,4|0,0:0|3:0,0:0:0:0:
86,371,38390,1,0,3:0:0:0:
5,320,38834,1,8,0:1:0:0:
29,227,39279,6,0,B|156:199|178:303|176:244|194:344|319:317,1,320,4|2,0:0|0:0,0:0:0:0:
399,159,41945,1,2,0:3:0:0:
296,16,42834,2,0,L|144:66,2,160,2|2|2,0:0|0:0|0:0,0:0:0:0:
399,159,45501,1,2,0:3:0:0:
319,316,46390,6,0,P|164:330|50:224,1,320,4|2,0:0|0:0,0:0:0:0:
71,49,49056,1,2,0:3:0:0:
243,16,49945,2,0,L|216:173,2,160,2|2|6,0:0|0:0|0:0,0:0:0:0:
419,31,52612,2,0,L|437:108,1,80,2|8,0:0|0:0,0:0:0:0:
413,202,53501,6,0,P|373:199|339:178,1,80,4|0,0:0|3:0,0:0:0:0:
263,234,54390,2,0,P|245:198|246:158,1,80,0|0,3:0|3:0,0:0:0:0:
159,119,55279,2,0,P|181:86|215:67,2,80,0|0|2,3:0|3:0|3:1,0:0:0:0:
137,212,56612,1,0,3:0:0:0:
186,294,57056,6,0,P|108:303|47:255,1,160,0|0,3:0|3:0,0:0:0:0:
13,164,58390,1,0,3:0:0:0:
23,68,58834,2,0,L|97:39,1,80,0|0,3:0|3:0,0:0:0:0:
178,91,59723,2,0,L|252:62,1,80,2|0,3:1|3:0,0:0:0:0:
347,75,60612,6,0,P|345:35|329:-1,2,80,4|0|0,0:0|3:0|3:0,0:0:0:0:
289,151,61945,1,0,3:0:0:0:
320,241,62390,2,0,B|474:199,1,160,0|2,3:0|3:1,0:0:0:0:
512,287,63723,1,0,3:0:0:0:
454,364,64168,6,0,P|414:353|385:327,1,80,4|0,0:0|3:0,0:0:0:0:
306,381,65056,2,0,P|277:352|265:315,1,80,4|0,0:0|3:0,0:0:0:0:
321,237,65946,1,4,0:0:0:0:
265,159,66390,1,8,0:1:0:0:
173,189,66834,1,2,0:1:0:0:
173,285,67279,1,8,0:1:0:0:
104,351,67723,6,0,P|64:348|28:331,1,80,4|0,0:0|3:0,0:0:0:0:
24,235,68612,2,0,P|59:217|99:215,1,80,0|8,3:0|0:1,0:0:0:0:
188,250,69501,2,0,L|199:170,2,80,0|0|0,3:0|3:0|3:0,0:0:0:0:
267,303,70834,1,8,0:1:0:0:
350,256,71279,6,0,L|324:98,1,160,0|0,3:0|3:0,0:0:0:0:
309,3,72612,1,8,0:1:0:0:
217,33,73056,2,0,P|200:69|195:108,1,80,0|8,3:0|0:1,0:0:0:0:
220,201,73945,1,0,3:0:0:0:
314,221,74390,1,0,3:0:0:0:
384,155,74834,6,0,L|460:130,2,80,4|0|0,0:0|3:0|3:0,0:0:0:0:
314,221,76168,1,8,0:1:0:0:
243,286,76612,2,0,L|166:261,2,80,0|0|0,3:0|3:0|3:0,0:0:0:0:
314,221,77945,1,8,0:1:0:0:
385,284,78390,6,0,L|409:360,2,80,4|0|0,0:0|3:0|3:0,0:0:0:0:
314,221,79723,1,8,0:1:0:0:
243,286,80168,2,0,P|166:290|112:235,1,160,4|4,0:0|0:0,0:0:0:0:
92,140,81501,1,8,3:2:0:0:
136,54,81945,5,4,3:0:0:0:
136,54,83723,6,0,L|210:84,1,80,4|8,0:0|0:1,0:0:0:0:
294,38,84612,2,0,L|368:7,1,80,0|8,3:0|0:1,0:0:0:0:
459,37,85501,2,0,P|471:74|465:113,1,80,0|8,3:0|0:1,0:0:0:0:
507,200,86390,2,0,P|480:229|443:244,1,80,0|10,3:0|0:1,0:0:0:0:
368,304,87279,6,0,L|393:379,2,80,0|8|0,3:0|0:1|3:0,0:0:0:0:
290,247,88612,1,8,0:1:0:0:
233,325,89056,1,0,3:0:0:0:
151,273,89501,2,0,B|106:265|77:293|77:293|48:321|3:316,1,160,8|4,0:1|3:2,0:0:0:0:
14,221,90834,6,0,P|1:183|7:144,1,80,4|8,0:0|0:1,0:0:0:0:
49,57,91723,2,0,P|81:33|120:27,1,80,0|8,3:0|0:1,0:0:0:0:
215,39,92612,2,0,P|247:62|265:97,1,80,0|8,3:0|0:1,0:0:0:0:
283,192,93501,2,0,P|270:229|243:258,1,80,0|10,3:0|0:1,0:0:0:0:
159,304,94390,6,0,P|119:304|83:286,2,80,4|8|4,0:0|0:1|3:2,0:0:0:0:
243,258,95723,1,0,1:0:0:0:
185,181,96168,2,0,L|163:103,1,80,4|8,0:0|0:0,0:0:0:0:
208,18,97056,1,0,3:0:0:0:
304,18,97501,1,6,0:0:0:0:
348,103,97945,6,0,L|327:181,1,80,4|8,0:0|0:1,0:0:0:0:
368,267,98834,2,0,L|346:344,1,80,0|8,3:0|0:1,0:0:0:0:
249,347,99723,2,0,P|216:369|178:380,1,80,0|8,3:0|0:1,0:0:0:0:
82,381,100612,2,0,P|45:363|17:336,1,80,0|10,3:0|0:1,0:0:0:0:
32,241,101501,6,0,L|106:211,1,80,0|8,3:0|0:1,0:0:0:0:
188,261,102390,1,0,3:0:0:0:
256,192,102834,1,8,0:1:0:0:
343,232,103279,1,0,3:0:0:0:
420,173,103723,2,0,P|454:111|389:85,1,160,8|4,0:1|3:2,0:0:0:0:
296,105,105056,6,0,L|276:27,1,80,4|8,0:0|0:1,0:0:0:0:
370,9,105945,2,0,L|389:86,1,80,0|8,3:0|0:1,0:0:0:0:
384,182,106834,2,0,L|364:259,1,80,0|8,3:0|0:1,0:0:0:0:
458,277,107723,2,0,L|477:199,1,80,0|10,3:0|0:1,0:0:0:0:
445,108,108612,5,4,0:0:0:0:
384,182,109056,1,8,0:1:0:0:
288,192,109501,2,0,P|251:176|227:145,1,80,4|0,3:2|1:0,0:0:0:0:
206,51,110390,1,4,0:0:0:0:
256,192,110612,12,4,112835,0:0:0:0:
