osu file format v14

[General]
AudioFilename: audio.mp3
AudioLeadIn: 0
PreviewTime: 77934
Countdown: 0
SampleSet: Soft
StackLeniency: 0.7
Mode: 2
LetterboxInBreaks: 0
EpilepsyWarning: 1
WidescreenStoryboard: 1

[Editor]
DistanceSpacing: 2
BeatDivisor: 4
GridSize: 8
TimelineZoom: 3.599999

[Metadata]
Title:Towa naru Kizuna to Omoi no Kiseki
TitleUnicode:永遠なる絆と想いのキセキ
Artist:nao
ArtistUnicode:nao
Creator:rew0825
Version:Salad
Source:恋する少女と想いのキセキ~Poupee de souhaits~
Tags:Sugar Pot Koisuru Doll opening eroge -Luminate Luminate [R] ron's maya 山下 慎一狼
BeatmapID:1368966
BeatmapSetID:601392

[Difficulty]
HPDrainRate:4
CircleSize:2.8
OverallDifficulty:6.7
ApproachRate:6.7
SliderMultiplier:1.15
SliderTickRate:1

[Events]
//Background and Video events
0,0,"BG.jpg",0,0
//Break Periods
//Storyboard Layer 0 (Background)
//Storyboard Layer 1 (Fail)
//Storyboard Layer 2 (Pass)
//Storyboard Layer 3 (Foreground)
//Storyboard Sound Samples

[TimingPoints]
278,352.941176470588,5,2,2,40,1,0
278,-166.666666666667,5,2,2,40,0,0
5572,352.941176470588,6,2,2,50,1,0
5572,-142.857142857143,6,2,2,50,0,0
7689,352.941176470588,5,2,2,60,1,0
7689,-125,5,2,2,60,0,0
12983,352.941176470588,6,2,2,70,1,0
12983,-111.111111111111,6,2,2,70,0,0
15100,206.896551724138,4,2,1,90,1,0
29996,-117.647058823529,4,2,2,80,0,0
39100,-117.647058823529,4,2,1,80,0,0
39513,-117.647058823529,4,2,2,80,0,0
43237,-100,4,2,1,90,0,0
49858,-117.647058823529,4,2,2,80,0,0
63100,-166.666666666667,4,2,2,70,0,0
69720,-117.647058823529,4,2,3,80,0,0
74686,-100,4,2,1,90,0,0
77582,-117.647058823529,4,2,2,70,0,0
77996,-100,4,2,1,90,0,1
91237,-100,4,2,1,90,0,0

[Colours]
Combo1 : 255,153,51
Combo2 : 254,38,7
Combo3 : 0,147,217
Combo4 : 255,255,125

[HitObjects]
360,288,2042,6,2,P|408:192|344:128,1,206.999993682861
152,288,3807,6,2,P|104:192|168:128,1,206.999993682861
352,128,5572,6,2,L|184:128,1,160.99999508667
72,192,6630,2,2,L|240:192,1,160.99999508667
376,192,7689,6,2,P|304:264|136:264,1,276
320,320,9453,6,2,P|360:184|272:96,1,276
64,320,11218,6,2,P|24:184|112:96,1,276
224,96,12630,1,0,0:0:0:0:
344,96,12983,6,0,L|448:96,2,103.499996841431,2|2|2,0:0|0:0|0:0,0:0:0:0:
208,224,14041,2,2,P|200:136|384:88,1,310.499990524292,2|0,0:0|0:0,0:0:0:0:
272,88,15306,5,2,0:0:0:0:
208,120,15513,1,2,0:0:0:0:
272,144,15720,1,0,0:0:0:0:
384,248,15927,1,2,0:0:0:0:
456,208,16134,1,0,0:0:0:0:
432,136,16341,1,2,0:0:0:0:
360,112,16548,1,0,0:0:0:0:
160,112,16755,6,0,L|72:200,2,115,4|8|2,0:0|0:0|0:0,0:0:0:0:
304,112,17479,2,0,P|344:184|264:240,1,172.5,4|8,0:0|0:0,0:0:0:0:
208,240,17996,1,2,0:0:0:0:
128,208,18203,1,8,0:0:0:0:
328,208,18410,6,0,P|376:176|408:128,2,115,4|8|2,0:0|0:0|0:0,0:0:0:0:
184,208,19134,2,0,P|144:144|224:88,1,172.5,4|8,0:0|0:0,0:0:0:0:
288,72,19651,1,2,0:0:0:0:
368,88,19858,1,8,0:0:0:0:
168,88,20065,6,0,P|104:120|72:160,2,115,4|8|2,0:0|0:0|0:0,0:0:0:0:
312,88,20789,2,0,P|288:144|192:208,1,172.5,4|8,0:0|0:0,0:0:0:0:
280,216,21306,1,2,0:0:0:0:
360,200,21513,1,8,0:0:0:0:
160,200,21720,6,0,L|72:288,2,115,4|8|2,0:0|0:0|0:0,0:0:0:0:
304,200,22444,2,0,P|344:152|264:88,1,172.5,4|8,0:0|0:0,0:0:0:0:
184,88,22962,1,2,0:0:0:0:
280,88,23168,1,8,0:0:0:0:
80,88,23375,6,4,P|32:120|32:176,2,115,4|8|2,0:0|0:0|0:0,0:0:0:0:
224,88,24100,2,0,P|336:120|368:168,1,172.5,4|8,0:0|0:0,0:0:0:0:
312,232,24617,1,2,0:0:0:0:
232,248,24824,1,8,0:0:0:0:
432,248,25031,6,4,P|480:216|480:160,2,115,4|8|2,0:0|0:0|0:0,0:0:0:0:
288,232,25755,2,0,P|240:288|304:352,1,172.5,4|8,0:0|0:0,0:0:0:0:
384,352,26272,1,2,0:0:0:0:
296,352,26479,1,8,0:0:0:0:
96,312,26686,6,4,L|32:216,2,115,4|8|2,0:0|0:0|0:0,0:0:0:0:
240,312,27410,2,0,P|320:288|384:208,1,172.5,4|8,0:0|0:0,0:0:0:0:
288,224,27927,1,2,0:0:0:0:
376,224,28134,1,8,0:0:0:0:
176,152,28341,6,4,L|112:56,2,115,4|8|2,0:0|0:0|0:0,0:0:0:0:
320,152,29065,2,0,P|368:224|320:280,1,172.5,4|8,0:0|0:0,0:0:0:0:
232,288,29582,1,2,0:0:0:0:
144,288,29789,1,8,0:0:0:0:
344,288,29996,6,0,L|360:128,1,146.62500279665,2|0,0:0|0:0,0:0:0:0:
168,49,30824,2,0,L|152:209,1,146.62500279665,2|0,0:0|0:0,0:0:0:0:
360,193,31651,6,0,P|288:225|248:225,1,97.7500018644333,2|8,0:0|0:0,0:0:0:0:
168,248,32065,2,0,P|177:295|202:338,1,97.7500018644333,2|8,0:0|0:0,0:0:0:0:
304,337,32479,2,0,P|392:305|432:249,2,146.62500279665,2|8|8,0:0|0:0|0:0,0:0:0:0:
206,336,33306,6,0,L|222:184,1,146.62500279665,2|0,0:0|0:0,0:0:0:0:
414,256,34134,2,0,L|398:104,1,146.62500279665,2|0,0:0|0:0,0:0:0:0:
198,160,34962,6,0,P|230:216|262:240,1,97.7500018644333,2|8,0:0|0:0,0:0:0:0:
358,216,35375,2,0,P|398:248|414:312,1,97.7500018644333,2|8,0:0|0:0,0:0:0:0:
310,344,35789,2,0,P|248:280|312:216,1,195.500003728867,2|8,0:0|0:0,0:0:0:0:
416,104,36617,6,0,L|264:120,1,146.62500279665,2|0,0:0|0:0,0:0:0:0:
80,200,37444,2,0,L|232:216,1,146.62500279665,2|0,0:0|0:0,0:0:0:0:
416,256,38272,6,0,L|432:160,1,97.7500018644333,2|8,0:0|0:0,0:0:0:0:
336,160,38686,2,0,L|320:64,1,97.7500018644333,2|8,0:0|0:0,0:0:0:0:
416,64,39100,1,4,0:0:0:0:
272,144,39513,1,8,0:0:0:0:
224,64,39720,1,8,0:0:0:0:
320,64,39927,6,0,P|384:136|328:208,1,195.500003728867,4|2,0:0|0:0,0:0:0:0:
136,152,40755,2,0,P|72:224|128:296,1,195.500003728867,4|2,0:0|0:0,0:0:0:0:
320,296,41582,5,4,0:0:0:0:
224,296,41789,2,0,L|120:296,2,97.7500018644333,8|8|8,0:0|0:0|0:0,0:0:0:0:
392,296,42410,2,0,P|432:224|360:152,1,195.500003728867,2|8,0:0|0:0,0:0:0:0:
64,136,43237,6,0,P|120:144|168:184,2,115,4|8|2,0:0|0:0|0:0,0:0:0:0:
208,136,43962,2,0,P|256:208|176:240,1,172.5,4|8,0:0|0:0,0:0:0:0:
104,296,44479,1,2,0:0:0:0:
200,352,44686,1,8,0:0:0:0:
400,352,44893,6,0,P|456:328|480:272,2,115,4|8|2,0:0|0:0|0:0,0:0:0:0:
256,352,45617,2,0,P|200:272|256:208,1,172.5,4|8,0:0|0:0,0:0:0:0:
328,176,46134,1,2,0:0:0:0:
432,160,46341,1,8,0:0:0:0:
232,160,46548,6,0,L|136:232,2,115,4|8|2,0:0|0:0|0:0,0:0:0:0:
376,160,47272,2,0,P|400:208|320:296,1,172.5,4|8,0:0|0:0,0:0:0:0:
240,320,47789,1,2,0:0:0:0:
136,312,47996,1,8,0:0:0:0:
336,312,48203,6,0,L|432:384,2,115,4|8|2,0:0|0:0|0:0,0:0:0:0:
192,312,48927,2,0,P|144:240|208:184,1,172.5,4|8,0:0|0:0,0:0:0:0:
288,184,49444,1,2,0:0:0:0:
200,184,49651,1,8,0:0:0:0:
400,184,49858,6,0,L|416:344,1,146.62500279665,2|0,0:0|0:0,0:0:0:0:
216,64,50686,2,0,L|200:224,1,146.62500279665,2|0,0:0|0:0,0:0:0:0:
408,184,51513,6,0,P|368:208|304:216,1,97.7500018644333,2|8,0:0|0:0,0:0:0:0:
224,264,51927,2,0,P|264:288|328:288,1,97.7500018644333,2|8,0:0|0:0,0:0:0:0:
408,288,52341,2,0,P|472:248|496:184,2,146.62500279665,2|8|8,0:0|0:0|0:0,0:0:0:0:
312,248,53168,6,0,L|160:232,1,146.62500279665,2|0,0:0|0:0,0:0:0:0:
360,128,53996,2,0,L|208:112,1,146.62500279665,2|0,0:0|0:0,0:0:0:0:
56,152,54824,6,0,L|160:160,1,97.7500018644333,2|8,0:0|0:0,0:0:0:0:
240,240,55237,2,0,L|136:248,1,97.7500018644333,2|8,0:0|0:0,0:0:0:0:
56,152,55651,2,0,P|24:232|112:272,1,195.500003728867,2|8,0:0|0:0,0:0:0:0:
304,272,56479,6,0,L|456:256,1,146.62500279665,2|0,0:0|0:0,0:0:0:0:
248,192,57306,2,0,L|400:176,1,146.62500279665,2|0,0:0|0:0,0:0:0:0:
136,104,58134,6,0,L|128:208,1,97.7500018644333,2|8,0:0|0:0,0:0:0:0:
227,202,58548,2,0,L|235:306,1,97.7500018644333,2|8,0:0|0:0,0:0:0:0:
336,304,58962,2,0,P|376:232|288:184,1,195.500003728867,2|2,0:0|0:0,0:0:0:0:
200,176,59582,1,8,0:0:0:0:
400,80,59789,6,0,L|424:280,1,195.500003728867,4|2,0:0|0:0,0:0:0:0:
280,80,60617,2,0,L|264:280,1,195.500003728867,4|2,0:0|0:0,0:0:0:0:
112,272,61444,6,0,P|48:152|160:72,1,293.2500055933,4|8,0:0|0:0,0:0:0:0:
256,72,62272,1,2,0:0:0:0:
408,72,62686,2,0,L|304:72,1,97.7500018644333,8|8,0:0|0:0,0:0:0:0:
200,72,63100,6,0,P|112:160|200:256,1,275.999991577149,4|8,0:0|0:0,0:0:0:0:
368,256,64755,2,0,P|256:192|128:256,1,275.999991577149,4|8,0:0|0:0,0:0:0:0:
312,72,66410,6,0,P|400:160|312:256,1,275.999991577149,4|8,0:0|0:0,0:0:0:0:
144,128,68065,2,0,P|256:192|384:128,1,275.999991577149,4|8,0:0|0:0,0:0:0:0:
256,136,69306,1,8,0:0:0:0:
128,136,69720,6,0,L|112:232,1,97.7500018644333,4|0,0:0|0:0,0:0:0:0:
184,232,70134,1,8,0:0:0:0:
328,48,70548,2,0,L|344:144,1,97.7500018644333
272,144,70962,1,8,0:0:0:0:
424,256,71375,6,0,L|328:272,1,97.7500018644333,4|0,0:0|0:0,0:0:0:0:
232,272,71789,1,8,0:0:0:0:
88,176,72203,2,0,L|184:192,1,97.7500018644333
280,192,72617,1,8,0:0:0:0:
424,256,73031,6,0,P|480:176|272:96,1,391.000007457733,4|0,0:0|0:0,0:0:0:0:
144,192,74272,1,8,0:0:0:0:
312,192,74686,6,0,P|376:168|424:80,2,172.5,4|4|4,0:0|0:0|0:0,0:0:0:0:
200,192,75513,2,0,P|136:168|88:80,1,172.5,4|4,0:0|0:0,0:0:0:0:
256,192,76341,12,4,77582,0:0:0:0:
368,192,77996,6,0,L|464:280,2,115,4|8|2,0:0|0:0|0:0,0:0:0:0:
224,192,78720,2,0,P|184:128|264:88,1,172.5,4|8,0:0|0:0,0:0:0:0:
336,96,79237,1,2,0:0:0:0:
392,168,79444,1,8,0:0:0:0:
184,168,79651,6,0,L|96:248,2,115,4|8|2,0:0|0:0|0:0,0:0:0:0:
328,288,80375,2,0,P|320:192|152:160,1,287.5,4|2,0:0|0:0,0:0:0:0:
64,160,81100,1,8,0:0:0:0:
272,160,81306,6,0,L|360:248,2,115,4|8|2,0:0|0:0|0:0,0:0:0:0:
144,312,82031,2,0,P|200:248|288:216,1,172.5,4|8,0:0|0:0,0:0:0:0:
376,136,82548,1,2,0:0:0:0:
280,80,82755,1,8,0:0:0:0:
72,80,82962,6,0,L|160:168,2,115,4|8|2,0:0|0:0|0:0,0:0:0:0:
216,216,83686,2,0,P|280:120|160:48,1,287.5,4|2,0:0|0:0,0:0:0:0:
264,48,84410,1,8,0:0:0:0:
464,48,84617,6,0,L|376:128,2,115,4|8|2,0:0|0:0|0:0,0:0:0:0:
320,48,85341,2,0,P|264:120|320:168,1,172.5,4|8,0:0|0:0,0:0:0:0:
408,224,85858,1,2,0:0:0:0:
312,280,86065,1,8,0:0:0:0:
104,280,86272,6,0,L|16:192,2,115,4|8|2,0:0|0:0|0:0,0:0:0:0:
272,56,86996,2,0,P|344:136|232:248,1,287.5,4|2,0:0|0:0,0:0:0:0:
144,248,87720,1,8,0:0:0:0:
344,248,87927,6,0,L|432:168,2,115,4|8|2,0:0|0:0|0:0,0:0:0:0:
168,120,88651,2,0,P|80:216|192:288,1,287.5,4|2,0:0|0:0,0:0:0:0:
360,128,89582,6,0,P|472:216|336:296,1,345,4|2,0:0|0:0,0:0:0:0:
144,304,90410,2,0,P|72:248|160:176,1,230,2|2,0:0|0:0,0:0:0:0:
352,112,91237,6,0,L|440:200,2,115,4|8|2,0:0|0:0|0:0,0:0:0:0:
208,112,91962,2,0,P|168:184|248:240,1,172.5,4|8,0:0|0:0,0:0:0:0:
304,240,92479,1,2,0:0:0:0:
384,208,92686,1,8,0:0:0:0:
184,208,92893,6,0,P|136:176|104:128,2,115,4|8|2,0:0|0:0|0:0,0:0:0:0:
328,208,93617,2,0,P|368:144|288:88,1,172.5,4|8,0:0|0:0,0:0:0:0:
224,72,94134,1,2,0:0:0:0:
144,88,94341,1,8,0:0:0:0:
344,88,94548,6,0,P|408:120|440:160,2,115,4|8|2,0:0|0:0|0:0,0:0:0:0:
200,88,95272,2,0,P|224:144|320:208,1,172.5,4|8,0:0|0:0,0:0:0:0:
232,216,95789,1,2,0:0:0:0:
152,200,95996,1,8,0:0:0:0:
352,200,96203,6,0,L|440:288,2,115,4|8|2,0:0|0:0|0:0,0:0:0:0:
208,200,96927,2,0,P|168:152|248:88,1,172.5,4|8,0:0|0:0,0:0:0:0:
328,88,97444,1,2,0:0:0:0:
232,88,97651,1,8,0:0:0:0:
432,88,97858,6,4,P|480:120|480:176,2,115,4|8|2,0:0|0:0|0:0,0:0:0:0:
288,88,98582,2,0,P|176:120|144:168,1,172.5,4|8,0:0|0:0,0:0:0:0:
200,232,99100,1,2,0:0:0:0:
280,248,99306,1,8,0:0:0:0:
80,248,99513,6,4,P|32:216|32:160,2,115,4|8|2,0:0|0:0|0:0,0:0:0:0:
224,232,100237,2,0,P|272:288|208:352,1,172.5,4|8,0:0|0:0,0:0:0:0:
128,352,100755,1,2,0:0:0:0:
216,352,100962,1,8,0:0:0:0:
416,312,101168,6,4,L|480:216,2,115,4|8|2,0:0|0:0|0:0,0:0:0:0:
272,312,101893,2,0,P|192:288|128:208,1,172.5,4|8,0:0|0:0,0:0:0:0:
224,224,102410,1,2,0:0:0:0:
136,224,102617,1,8,0:0:0:0:
336,152,102824,6,4,L|400:56,2,115,4|8|2,0:0|0:0|0:0,0:0:0:0:
192,152,103548,2,0,P|136:192|144:288,1,172.5,4|8,0:0|0:0,0:0:0:0:
256,152,104065,2,0,P|328:192|304:288,1,191.666666666667,2|2,0:0|0:0,0:0:0:0:
