osu file format v14

[General]
AudioFilename: audio.mp3
AudioLeadIn: 0
PreviewTime: 77934
Countdown: 0
SampleSet: Soft
StackLeniency: 0.7
Mode: 2
LetterboxInBreaks: 0
EpilepsyWarning: 1
WidescreenStoryboard: 1

[Editor]
DistanceSpacing: 2
BeatDivisor: 4
GridSize: 8
TimelineZoom: 2.7

[Metadata]
Title:Towa naru Kizuna to Omoi no Kiseki
TitleUnicode:永遠なる絆と想いのキセキ
Artist:nao
ArtistUnicode:nao
Creator:rew0825
Version:Overdose
Source:恋する少女と想いのキセキ~Poupee de souhaits~
Tags:Sugar Pot Koisuru Doll opening eroge -Luminate Luminate [R] ron's maya 山下 慎一狼
BeatmapID:1580060
BeatmapSetID:601392

[Difficulty]
HPDrainRate:7.5
CircleSize:3.6
OverallDifficulty:9.6
ApproachRate:9.6
SliderMultiplier:1.75
SliderTickRate:2

[Events]
//Background and Video events
0,0,"BG.jpg",0,0
//Break Periods
//Storyboard Layer 0 (Background)
//Storyboard Layer 1 (Fail)
//Storyboard Layer 2 (Pass)
//Storyboard Layer 3 (Foreground)
//Storyboard Sound Samples

[TimingPoints]
278,352.941176470588,5,2,2,40,1,0
278,-166.666666666667,5,2,2,40,0,0
5572,352.941176470588,6,2,2,50,1,0
5572,-142.857142857143,6,2,2,50,0,0
7689,352.941176470588,5,2,2,60,1,0
7689,-125,5,2,2,60,0,0
12983,352.941176470588,6,2,2,70,1,0
12983,-111.111111111111,6,2,2,70,0,0
15100,206.896551724138,4,2,1,90,1,0
29996,-117.647058823529,4,2,2,80,0,0
39100,-117.647058823529,4,2,1,80,0,0
39513,-117.647058823529,4,2,2,80,0,0
43237,-100,4,2,1,90,0,0
49858,-117.647058823529,4,2,2,80,0,0
63100,-166.666666666667,4,2,2,70,0,0
69720,-117.647058823529,4,2,3,80,0,0
74686,-100,4,2,1,90,0,0
77582,-117.647058823529,4,2,2,70,0,0
77996,-100,4,2,1,90,0,1
91237,-100,4,2,1,90,0,0

[Colours]
Combo1 : 255,153,51
Combo2 : 254,38,7
Combo3 : 0,147,217
Combo4 : 255,255,125

[HitObjects]
368,304,2042,6,0,P|432:240|368:160,1,209.999993591309,2|0,0:0|0:0,0:0:0:0:
256,160,3101,1,2,0:0:0:0:
368,160,3454,1,0,0:0:0:0:
144,304,3807,6,0,P|80:240|144:160,1,209.999993591309,2|0,0:0|0:0,0:0:0:0:
256,160,4866,1,2,0:0:0:0:
144,160,5219,1,0,0:0:0:0:
368,304,5572,6,0,P|440:200|368:136,1,244.999992523194,2|0,0:0|0:0,0:0:0:0:
184,304,6630,2,0,P|288:296|368:184,1,244.999992523194,2|0,0:0|0:0,0:0:0:0:
120,136,7689,6,0,P|32:208|128:312,1,280,2|0,0:0|0:0,0:0:0:0:
256,312,8747,1,2,0:0:0:0:
120,312,9100,1,0,0:0:0:0:
392,136,9453,6,0,P|480:208|384:312,1,280,2|0,0:0|0:0,0:0:0:0:
256,312,10512,1,2,0:0:0:0:
392,312,10865,1,0,0:0:0:0:
120,136,11218,6,0,P|32:208|128:312,1,280,2|0,0:0|0:0,0:0:0:0:
392,312,12277,2,0,P|448:248|464:192,1,140,2|0,0:0|0:0,0:0:0:0:
191,192,12983,6,0,L|349:192,2,157.499995193482,2|0|2,0:0|0:0|0:0,0:0:0:0:
464,192,14041,2,0,P|432:80|256:40,1,314.999990386963,2|0,0:0|0:0,0:0:0:0:
400,40,15100,6,0,L|416:128,1,87.5
241,128,15306,1,2,0:0:0:0:
200,168,15358,1,2,0:0:0:0:
240,208,15410,1,2,0:0:0:0:
415,208,15513,2,0,L|336:248,1,87.5,0|2,0:0|0:0,0:0:0:0:
160,248,15720,2,0,L|239:288,1,87.5
415,288,15927,5,2,0:0:0:0:
488,248,16031,1,0,0:0:0:0:
416,208,16134,1,2,0:0:0:0:
328,208,16237,1,0,0:0:0:0:
152,208,16341,1,2,0:0:0:0:
79,168,16444,1,0,0:0:0:0:
254,168,16548,2,0,L|344:168,1,87.5,2|0,0:0|0:0,0:0:0:0:
128,168,16755,6,0,L|112:256,1,87.5,4|0,0:0|0:0,0:0:0:0:
288,256,16962,2,0,L|304:168,1,87.5,8|0,0:0|0:0,0:0:0:0:
128,168,17168,2,0,L|48:128,2,87.5,2|0|8,0:0|0:0|0:0,0:0:0:0:
304,168,17479,6,0,P|264:232|176:272,1,175,4|0,0:0|0:0,0:0:0:0:
352,272,17789,2,0,L|440:232,2,87.5,8|0|2,0:0|0:0|0:0,0:0:0:0:
175,272,18100,2,0,L|87:232,2,87.5,0|8|0,0:0|0:0|0:0,0:0:0:0:
400,272,18410,6,0,L|416:184,1,87.5,4|0,0:0|0:0,0:0:0:0:
240,184,18617,2,0,L|224:272,1,87.5,8|0,0:0|0:0,0:0:0:0:
400,272,18824,2,0,L|480:232,2,87.5,2|0|8,0:0|0:0|0:0,0:0:0:0:
224,270,19134,6,0,P|264:206|352:166,1,175,4|0,0:0|0:0,0:0:0:0:
177,167,19444,2,0,L|160:256,1,87.5,8|0,0:0|0:0,0:0:0:0:
336,256,19651,1,2,0:0:0:0:
376,256,19703,1,2,0:0:0:0:
336,256,19755,1,0,0:0:0:0:
161,256,19858,2,0,L|248:256,1,87.5,8|0,0:0|0:0,0:0:0:0:
464,256,20065,6,0,L|480:168,1,87.5,4|0,0:0|0:0,0:0:0:0:
304,168,20272,2,0,L|288:256,1,87.5,8|0,0:0|0:0,0:0:0:0:
463,255,20479,2,0,L|384:216,2,87.5,2|0|8,0:0|0:0|0:0,0:0:0:0:
288,254,20789,6,0,P|224:214|160:136,1,175,4|0,0:0|0:0,0:0:0:0:
336,136,21100,2,0,L|416:96,2,87.5,8|0|2,0:0|0:0|0:0,0:0:0:0:
160,136,21410,2,0,L|80:96,2,87.5,0|8|0,0:0|0:0|0:0,0:0:0:0:
384,136,21720,6,0,L|400:224,1,87.5,4|0,0:0|0:0,0:0:0:0:
224,224,21927,2,0,L|208:136,1,87.5,8|0,0:0|0:0,0:0:0:0:
384,136,22134,2,0,L|304:96,2,87.5,2|0|8,0:0|0:0|0:0,0:0:0:0:
208,137,22444,6,0,P|144:177|80:255,1,175,4|0,0:0|0:0,0:0:0:0:
256,256,22755,2,0,L|344:256,1,87.5,8|0,0:0|0:0,0:0:0:0:
168,256,22962,2,0,L|72:256,1,87.5,2|0,0:0|0:0,0:0:0:0:
256,256,23168,1,8,0:0:0:0:
280,216,23220,1,0,0:0:0:0:
256,168,23272,1,0,0:0:0:0:
216,160,23324,1,0,0:0:0:0:
41,160,23375,6,0,L|121:120,1,87.5,4|0,0:0|0:0,0:0:0:0:
294,120,23582,2,0,L|374:80,1,87.5,8|0,0:0|0:0,0:0:0:0:
200,80,23789,2,0,L|120:120,2,87.5,2|0|8,0:0|0:0|0:0,0:0:0:0:
376,80,24100,6,0,P|336:144|248:184,1,175,4|0,0:0|0:0,0:0:0:0:
72,184,24410,1,8,0:0:0:0:
128,240,24513,1,0,0:0:0:0:
208,256,24617,1,2,0:0:0:0:
32,184,24720,1,0,0:0:0:0:
87,239,24824,1,8,0:0:0:0:
167,255,24927,1,0,0:0:0:0:
384,256,25031,6,0,L|304:216,1,87.5,4|0,0:0|0:0,0:0:0:0:
131,216,25237,2,0,L|51:176,1,87.5,8|0,0:0|0:0,0:0:0:0:
225,176,25444,2,8,L|305:216,2,87.5,2|0|8,0:0|0:0|0:0,0:0:0:0:
56,176,25755,6,0,P|96:240|184:280,1,175,4|0,0:0|0:0,0:0:0:0:
360,280,26065,2,0,L|376:192,1,87.5,8|0,0:0|0:0,0:0:0:0:
200,192,26272,1,2,0:0:0:0:
160,192,26324,1,2,0:0:0:0:
200,192,26375,1,0,0:0:0:0:
376,192,26479,2,0,L|264:192,1,87.5,8|0,0:0|0:0,0:0:0:0:
72,192,26686,6,0,L|152:152,1,87.5,4|0,0:0|0:0,0:0:0:0:
328,152,26893,2,0,L|408:112,1,87.5,8|0,0:0|0:0,0:0:0:0:
232,112,27100,2,0,L|312:152,2,87.5,2|0|8,0:0|0:0|0:0,0:0:0:0:
406,112,27410,6,0,P|464:136|488:256,1,175,4|0,0:0|0:0,0:0:0:0:
320,240,27720,1,8,0:0:0:0:
240,224,27824,1,0,0:0:0:0:
185,169,27927,1,2,0:0:0:0:
361,241,28031,1,0,0:0:0:0:
281,225,28134,1,8,0:0:0:0:
225,169,28237,1,0,0:0:0:0:
448,168,28341,6,0,L|368:128,1,87.5,4|0,0:0|0:0,0:0:0:0:
192,128,28548,2,0,L|112:88,1,87.5,8|0,0:0|0:0,0:0:0:0:
288,88,28755,2,0,L|208:128,2,87.5,2|0|8,0:0|0:0|0:0,0:0:0:0:
112,88,29065,6,0,P|54:112|30:232,1,175,4|0,0:0|0:0,0:0:0:0:
200,216,29375,2,0,L|288:216,1,87.5,8|0,0:0|0:0,0:0:0:0:
464,216,29582,2,0,L|376:216,1,87.5,2|0,0:0|0:0,0:0:0:0:
200,216,29789,1,8,0:0:0:0:
160,184,29841,1,0,0:0:0:0:
168,128,29893,1,0,0:0:0:0:
208,96,29944,1,0,0:0:0:0:
384,96,29996,6,0,L|464:96,2,74.3750014185906,2|0|0,0:0|0:0|0:0,0:0:0:0:
208,96,30306,2,0,P|240:152|384:192,1,223.125004255772,2|8,0:0|0:0,0:0:0:0:
168,192,30824,6,0,L|88:192,2,74.3750014185906,2|0|0,0:0|0:0|0:0,0:0:0:0:
344,192,31134,2,0,P|312:248|168:288,1,223.125004255772,2|8,0:0|0:0,0:0:0:0:
384,288,31651,5,2,0:0:0:0:
456,232,31755,1,0,0:0:0:0:
384,176,31858,1,8,0:0:0:0:
304,176,31962,1,0,0:0:0:0:
120,176,32065,2,0,L|112:96,1,74.3750014185906,2|0,0:0|0:0,0:0:0:0:
296,104,32272,2,0,L|304:184,1,74.3750014185906,8|0,0:0|0:0,0:0:0:0:
120,176,32479,6,0,P|128:256|184:304,1,148.750002837181,2|8,0:0|0:0,0:0:0:0:
256,304,32789,1,0,0:0:0:0:
368,304,32893,2,0,P|360:224|304:176,1,148.750002837181,2|8,0:0|0:0,0:0:0:0:
232,176,33203,1,0,0:0:0:0:
48,176,33306,6,0,L|128:176,2,74.3750014185906,2|0|0,0:0|0:0|0:0,0:0:0:0:
232,176,33617,2,0,P|200:120|56:80,1,223.125004255772,2|8,0:0|0:0,0:0:0:0:
280,272,34134,6,0,L|200:272,2,74.3750014185906,2|0|0,0:0|0:0|0:0,0:0:0:0:
96,272,34444,2,0,P|128:216|272:176,1,223.125004255772,2|8,0:0|0:0,0:0:0:0:
488,176,34962,6,0,L|496:96,1,74.3750014185906,2|0,0:0|0:0,0:0:0:0:
312,104,35168,2,0,L|304:184,1,74.3750014185906,8|0,0:0|0:0,0:0:0:0:
488,176,35375,1,2,0:0:0:0:
456,248,35479,1,0,0:0:0:0:
392,296,35582,1,8,0:0:0:0:
304,304,35686,1,0,0:0:0:0:
120,304,35789,5,2,0:0:0:0:
48,248,35893,1,0,0:0:0:0:
120,192,35996,1,2,0:0:0:0:
200,192,36100,1,0,0:0:0:0:
384,192,36203,2,0,P|368:120|312:72,1,148.750002837181,8|0,0:0|0:0,0:0:0:0:
240,72,36513,1,0,0:0:0:0:
424,72,36617,6,0,L|504:72,2,74.3750014185906,2|0|0,0:0|0:0|0:0,0:0:0:0:
240,72,36927,2,0,P|272:128|416:168,1,223.125004255772,2|8,0:0|0:0,0:0:0:0:
200,168,37444,6,0,L|120:168,2,74.3750014185906,2|0|0,0:0|0:0|0:0,0:0:0:0:
384,168,37755,2,0,P|352:224|208:264,1,223.125004255772,2|8,0:0|0:0,0:0:0:0:
424,264,38272,6,0,L|432:184,1,74.3750014185906,2|0,0:0|0:0,0:0:0:0:
216,192,38479,2,0,L|208:272,1,74.3750014185906,8|0,0:0|0:0,0:0:0:0:
392,192,38686,2,0,L|385:267,1,74.3750014185906,2|0,0:0|0:0,0:0:0:0:
168,264,38893,2,0,L|176:190,1,74.3750014185906,8|0,0:0|0:0,0:0:0:0:
352,192,39100,5,4,0:0:0:0:
104,192,39513,1,8,0:0:0:0:
408,192,39720,1,8,0:0:0:0:
104,192,39927,6,0,P|72:256|104:320,1,148.750002837181,4|8,0:0|0:0,0:0:0:0:
256,320,40341,2,0,L|344:320,2,74.3750014185906,2|0|8,0:0|0:0|0:0,0:0:0:0:
408,192,40755,6,0,P|440:256|408:320,1,148.750002837181,4|8,0:0|0:0,0:0:0:0:
256,320,41168,2,0,L|168:320,2,74.3750014185906,2|0|8,0:0|0:0|0:0,0:0:0:0:
104,192,41582,5,4,0:0:0:0:
256,320,41789,2,0,L|336:320,1,74.3750014185906,8|0,0:0|0:0,0:0:0:0:
200,320,41996,2,0,L|120:320,1,74.3750014185906,8|0,0:0|0:0,0:0:0:0:
312,320,42203,2,0,L|392:320,1,74.3750014185906,8|0,0:0|0:0,0:0:0:0:
200,320,42410,6,0,L|192:240,1,74.3750014185906,2|0,0:0|0:0,0:0:0:0:
376,248,42617,2,0,L|384:168,1,74.3750014185906,2|0,0:0|0:0,0:0:0:0:
160,176,42824,1,2,0:0:0:0:
136,128,42875,1,0,0:0:0:0:
160,80,42927,1,0,0:0:0:0:
208,64,42979,1,0,0:0:0:0:
384,64,43031,2,0,L|440:64,1,37.1875007092953
288,176,43134,2,0,L|232:176,1,37.1875007092953
120,176,43237,6,0,L|104:264,1,87.5,4|0,0:0|0:0,0:0:0:0:
280,176,43444,2,0,L|296:264,1,87.5,8|0,0:0|0:0,0:0:0:0:
472,264,43651,2,0,L|488:176,1,87.5,2|0,0:0|0:0,0:0:0:0:
400,176,43858,1,8,0:0:0:0:
224,176,43962,6,0,P|264:240|352:280,1,175,4|0,0:0|0:0,0:0:0:0:
176,280,44272,2,0,L|96:240,2,87.5,8|0|2,0:0|0:0|0:0,0:0:0:0:
352,104,44582,2,0,L|432:64,2,87.5,0|8|0,0:0|0:0|0:0,0:0:0:0:
128,104,44893,6,0,L|112:192,1,87.5,4|0,0:0|0:0,0:0:0:0:
288,192,45100,2,0,L|304:280,1,87.5,8|0,0:0|0:0,0:0:0:0:
480,280,45306,2,0,L|496:192,1,87.5,2|0,0:0|0:0,0:0:0:0:
408,192,45513,1,8,0:0:0:0:
232,192,45617,6,0,P|272:256|360:296,1,175,4|0,0:0|0:0,0:0:0:0:
184,296,45927,2,0,L|168:208,1,87.5,8|0,0:0|0:0,0:0:0:0:
344,208,46134,1,2,0:0:0:0:
392,208,46186,1,2,0:0:0:0:
344,208,46237,1,0,0:0:0:0:
168,208,46341,2,0,L|288:208,1,87.5,8|0,0:0|0:0,0:0:0:0:
432,120,46548,6,0,L|448:208,1,87.5,4|0,0:0|0:0,0:0:0:0:
272,120,46755,2,0,L|256:208,1,87.5,8|0,0:0|0:0,0:0:0:0:
80,208,46962,2,0,L|64:120,1,87.5,2|0,0:0|0:0,0:0:0:0:
152,120,47168,1,8,0:0:0:0:
328,120,47272,6,0,P|288:184|200:224,1,175,4|0,0:0|0:0,0:0:0:0:
376,224,47582,2,0,L|456:184,2,87.5,8|0|2,0:0|0:0|0:0,0:0:0:0:
200,224,47893,2,0,L|120:184,2,87.5,0|8|0,0:0|0:0|0:0,0:0:0:0:
416,136,48203,6,0,L|432:224,1,87.5,4|0,0:0|0:0,0:0:0:0:
256,136,48410,2,0,L|240:224,1,87.5,8|0,0:0|0:0,0:0:0:0:
64,224,48617,2,0,L|48:136,1,87.5,2|0,0:0|0:0,0:0:0:0:
224,136,48824,1,8,0:0:0:0:
399,136,48927,6,0,P|359:200|271:240,1,175,4|0,0:0|0:0,0:0:0:0:
96,240,49237,2,0,L|80:328,1,87.5,8|0,0:0|0:0,0:0:0:0:
256,328,49444,1,2,0:0:0:0:
280,280,49496,1,0,0:0:0:0:
256,232,49548,1,0,0:0:0:0:
208,216,49600,1,0,0:0:0:0:
88,224,49651,1,2,0:0:0:0:
64,176,49703,1,0,0:0:0:0:
88,128,49755,1,0,0:0:0:0:
136,112,49806,1,0,0:0:0:0:
312,112,49858,6,0,L|392:112,2,74.3750014185906,2|0|0,0:0|0:0|0:0,0:0:0:0:
136,112,50168,2,0,P|168:168|312:208,1,223.125004255772,2|8,0:0|0:0,0:0:0:0:
88,208,50686,6,0,L|8:208,2,74.3750014185906,2|0|0,0:0|0:0|0:0,0:0:0:0:
264,208,50996,2,0,P|232:264|88:304,1,223.125004255772,2|8,0:0|0:0,0:0:0:0:
312,304,51513,6,0,L|392:304,1,74.3750014185906,2|0,0:0|0:0,0:0:0:0:
248,304,51720,2,0,L|168:304,1,74.3750014185906,8|0,0:0|0:0,0:0:0:0:
360,304,51927,2,0,L|368:224,1,74.3750014185906,2|0,0:0|0:0,0:0:0:0:
184,232,52134,2,0,L|176:312,1,74.3750014185906,8|0,0:0|0:0,0:0:0:0:
360,304,52341,6,0,P|400:248|344:184,1,148.750002837181,2|8,0:0|0:0,0:0:0:0:
288,184,52651,1,0,0:0:0:0:
104,184,52755,2,0,P|64:128|120:64,1,148.750002837181,2|8,0:0|0:0,0:0:0:0:
176,64,53065,1,0,0:0:0:0:
360,64,53168,6,0,L|272:64,2,74.3750014185906,2|0|0,0:0|0:0|0:0,0:0:0:0:
176,64,53479,2,0,P|208:120|352:160,1,223.125004255772,2|8,0:0|0:0,0:0:0:0:
128,160,53996,6,0,L|216:160,2,74.3750014185906,2|0|0,0:0|0:0|0:0,0:0:0:0:
312,160,54306,2,0,P|280:216|136:256,1,223.125004255772,2|8,0:0|0:0,0:0:0:0:
360,256,54824,6,0,L|440:256,1,74.3750014185906,2|0,0:0|0:0,0:0:0:0:
296,256,55031,2,0,L|216:256,1,74.3750014185906,8|0,0:0|0:0,0:0:0:0:
408,256,55237,2,0,L|416:176,1,74.3750014185906,2|0,0:0|0:0,0:0:0:0:
232,184,55444,2,0,L|224:264,1,74.3750014185906,8|0,0:0|0:0,0:0:0:0:
408,256,55651,5,2,0:0:0:0:
472,200,55755,1,0,0:0:0:0:
408,144,55858,1,0,0:0:0:0:
336,144,55962,1,0,0:0:0:0:
152,144,56065,2,0,P|112:200|168:264,1,148.750002837181,2|8,0:0|0:0,0:0:0:0:
224,264,56375,1,0,0:0:0:0:
400,264,56479,6,0,L|480:264,2,74.3750014185906,2|0|0,0:0|0:0|0:0,0:0:0:0:
224,264,56789,2,0,P|256:208|400:168,1,223.125004255772,2|8,0:0|0:0,0:0:0:0:
176,168,57306,6,0,L|96:168,2,74.3750014185906,2|0|0,0:0|0:0|0:0,0:0:0:0:
352,168,57617,2,0,P|320:112|176:72,1,223.125004255772,2|8,0:0|0:0,0:0:0:0:
400,72,58134,6,0,L|408:152,1,74.3750014185906,2|0,0:0|0:0,0:0:0:0:
192,152,58341,2,0,L|184:232,1,74.3750014185906,8|0,0:0|0:0,0:0:0:0:
368,72,58548,2,0,L|360:152,1,74.3750014185906,2|0,0:0|0:0,0:0:0:0:
144,152,58755,2,0,L|152:232,1,74.3750014185906,8|0,0:0|0:0,0:0:0:0:
336,224,58962,6,0,P|352:272|272:328,1,148.750002837181,2|8,0:0|0:0,0:0:0:0:
216,328,59272,1,0,0:0:0:0:
400,328,59375,2,0,P|459:291|449:221,1,148.750002837181,2|8,0:0|0:0,0:0:0:0:
224,224,59789,6,0,P|144:224|88:184,1,148.750002837181,4|8,0:0|0:0,0:0:0:0:
236,200,60203,1,2,0:0:0:0:
172,192,60306,1,0,0:0:0:0:
116,160,60410,1,8,0:0:0:0:
304,224,60617,6,0,P|384:224|440:184,1,148.750002837181,4|8,0:0|0:0,0:0:0:0:
304,192,61031,1,2,0:0:0:0:
356,192,61134,1,0,0:0:0:0:
412,160,61237,1,8,0:0:0:0:
224,304,61444,6,0,P|192:232|240:192,1,148.750002837181,4|8,0:0|0:0,0:0:0:0:
312,176,61755,1,0,0:0:0:0:
432,176,61858,2,0,L|360:160,2,74.3750014185906,0|0|8,0:0|0:0|0:0,0:0:0:0:
160,176,62272,6,0,P|80:304|176:368,1,297.500005674362,4|8,0:0|0:0,0:0:0:0:
264,376,62789,1,0,0:0:0:0:
328,376,62893,1,8,0:0:0:0:
376,376,62996,1,0,0:0:0:0:
192,376,63100,6,0,P|104:288|200:152,1,314.999990386963,4|0,0:0|0:0,0:0:0:0:
384,152,63927,1,8,0:0:0:0:
448,376,64755,6,0,P|496:288|360:152,1,314.999990386963,4|0,0:0|0:0,0:0:0:0:
184,152,65582,1,8,0:0:0:0:
367,152,65996,1,0,0:0:0:0:
128,152,66410,6,0,P|80:240|216:376,1,314.999990386963,4|0,0:0|0:0,0:0:0:0:
392,376,67237,1,8,0:0:0:0:
152,376,67651,2,0,L|144:272,1,104.999996795654,2|8,0:0|0:0,0:0:0:0:
328,272,68065,6,0,P|400:192|272:80,1,314.999990386963,4|0,0:0|0:0,0:0:0:0:
64,80,68893,2,0,L|184:80,2,104.999996795654,8|0|8,0:0|0:0|0:0,0:0:0:0:
272,80,69513,2,0,L|336:80,1,52.4999983978272,8|0,0:0|0:0,0:0:0:0:
144,80,69720,6,0,P|80:144|144:240,1,223.125004255772,4|0,0:0|0:0,0:0:0:0:
328,240,70134,2,0,P|392:176|328:80,1,223.125004255772,8|0,0:0|0:0,0:0:0:0:
144,80,70548,2,0,L|256:184,2,148.750002837181,8|0|8,0:0|0:0|0:0,0:0:0:0:
329,80,71168,2,0,L|384:136,1,74.3750014185906,8|0,0:0|0:0,0:0:0:0:
200,136,71375,6,0,P|120:192|144:304,1,223.125004255772,4|0,0:0|0:0,0:0:0:0:
328,304,71789,2,0,P|408:248|384:136,1,223.125004255772,8|0,0:0|0:0,0:0:0:0:
200,136,72203,6,0,L|112:136,2,74.3750014185906,8|0|8,0:0|0:0|0:0,0:0:0:0:
384,136,72617,1,8,0:0:0:0:
88,136,73031,6,0,P|62:238|208:320,1,297.500005674362,4|8,0:0|0:0,0:0:0:0:
432,320,73755,1,0,0:0:0:0:
320,320,73858,6,0,L|208:216,2,148.750002837181,8|0|8,0:0|0:0|0:0,0:0:0:0:
456,320,74479,1,0,0:0:0:0:
104,320,74686,6,0,P|72:248|136:192,1,175,4|0,0:0|0:0,0:0:0:0:
312,192,74996,2,0,P|344:120|280:64,1,175,4|0,0:0|0:0,0:0:0:0:
104,64,75306,2,0,L|96:152,1,87.5,4|0,0:0|0:0,0:0:0:0:
312,152,75513,6,0,P|384:168|448:256,1,175,4|0,0:0|0:0,0:0:0:0:
272,152,75824,2,0,P|200:168|136:256,1,175,4|0,0:0|0:0,0:0:0:0:
312,248,76134,2,0,L|400:248,1,87.5,4|0,0:0|0:0,0:0:0:0:
184,248,76341,5,4,0:0:0:0:
360,248,76548,1,4,0:0:0:0:
184,248,76755,1,4,0:0:0:0:
464,248,76962,1,4,0:0:0:0:
144,248,77168,6,0,P|80:184|112:112,1,175,4|0,0:0|0:0,0:0:0:0:
152,112,77427,1,0,0:0:0:0:
192,112,77479,1,0,0:0:0:0:
240,112,77531,1,0,0:0:0:0:
424,112,77582,2,0,P|448:176|328:240,1,223.125004255772,4|0,0:0|0:0,0:0:0:0:
160,240,77996,6,0,L|80:200,1,87.5,4|0,0:0|0:0,0:0:0:0:
160,240,78203,2,0,L|248:240,1,87.5,8|0,0:0|0:0,0:0:0:0:
424,240,78410,2,0,L|440:152,1,87.5,2|0,0:0|0:0,0:0:0:0:
264,152,78617,1,8,0:0:0:0:
88,152,78720,6,0,P|128:216|224:256,1,175,4|0,0:0|0:0,0:0:0:0:
392,256,79031,2,0,L|408:168,1,87.5,8|0,0:0|0:0,0:0:0:0:
192,256,79237,2,0,L|176:168,1,87.5,2|0,0:0|0:0,0:0:0:0:
352,168,79444,2,0,L|336:254,1,87.5,8|0,0:0|0:0,0:0:0:0:
120,168,79651,6,0,L|136:254,1,87.5,4|0,0:0|0:0,0:0:0:0:
312,256,79858,2,0,L|416:256,1,87.5,8|0,0:0|0:0,0:0:0:0:
224,256,80065,2,0,L|208:344,1,87.5,2|0,0:0|0:0,0:0:0:0:
384,344,80272,1,8,0:0:0:0:
208,342,80375,6,0,P|168:264|224:216,1,175,4|0,0:0|0:0,0:0:0:0:
400,216,80686,2,0,L|408:128,1,87.5,8|0,0:0|0:0,0:0:0:0:
232,128,80893,2,0,L|224:40,1,87.5,2|0,0:0|0:0,0:0:0:0:
336,40,81100,1,8,0:0:0:0:
256,40,81203,1,0,0:0:0:0:
64,40,81306,6,0,L|56:128,1,87.5,4|0,0:0|0:0,0:0:0:0:
231,127,81513,2,0,L|336:128,1,87.5,8|0,0:0|0:0,0:0:0:0:
144,128,81720,2,0,L|48:128,1,87.5,2|0,0:0|0:0,0:0:0:0:
231,128,81927,1,8,0:0:0:0:
408,128,82031,6,0,P|448:184|384:248,1,175,4|0,0:0|0:0,0:0:0:0:
208,248,82341,2,0,L|112:248,1,87.5,8|0,0:0|0:0,0:0:0:0:
296,248,82548,1,2,0:0:0:0:
383,248,82651,1,0,0:0:0:0:
328,160,82755,1,8,0:0:0:0:
241,160,82858,1,0,0:0:0:0:
66,160,82962,6,0,L|56:72,1,87.5,4|0,0:0|0:0,0:0:0:0:
232,72,83168,2,0,L|240:160,1,87.5,8|0,0:0|0:0,0:0:0:0:
408,72,83375,2,0,L|416:160,1,87.5,2|0,0:0|0:0,0:0:0:0:
241,160,83582,1,8,0:0:0:0:
415,159,83686,6,0,P|455:237|399:285,1,175,4|0,0:0|0:0,0:0:0:0:
224,288,83996,2,0,L|144:248,1,87.5,8|0,0:0|0:0,0:0:0:0:
320,248,84203,1,2,0:0:0:0:
344,200,84255,1,0,0:0:0:0:
320,152,84306,1,0,0:0:0:0:
280,136,84358,1,0,0:0:0:0:
152,136,84410,2,0,L|88:136,1,43.75
248,136,84513,2,0,L|296:136,1,43.75
455,136,84617,6,0,L|464:224,1,87.5,4|0,0:0|0:0,0:0:0:0:
288,224,84824,2,0,L|200:224,1,87.5,8|0,0:0|0:0,0:0:0:0:
24,224,85031,2,0,L|16:312,1,87.5,2|0,0:0|0:0,0:0:0:0:
192,312,85237,1,8,0:0:0:0:
367,312,85341,6,0,P|327:248|231:208,1,175,4|0,0:0|0:0,0:0:0:0:
65,208,85651,2,0,L|56:120,1,87.5,8|0,0:0|0:0,0:0:0:0:
232,120,85858,2,0,L|241:208,1,87.5,2|0,0:0|0:0,0:0:0:0:
128,224,86065,1,8,0:0:0:0:
208,224,86168,1,0,0:0:0:0:
384,224,86272,6,0,L|376:136,1,87.5,4|0,0:0|0:0,0:0:0:0:
160,136,86479,2,0,L|152:224,1,87.5,8|0,0:0|0:0,0:0:0:0:
328,224,86686,2,0,L|416:224,1,87.5,2|0,0:0|0:0,0:0:0:0:
240,224,86893,1,8,0:0:0:0:
415,224,86996,6,0,P|455:302|399:350,1,175,4|0,0:0|0:0,0:0:0:0:
184,352,87306,2,0,L|176:264,1,87.5,8|0,0:0|0:0,0:0:0:0:
351,264,87513,2,0,L|360:176,1,87.5,2|0,0:0|0:0,0:0:0:0:
144,176,87720,2,0,L|152:88,1,87.5,8|0,0:0|0:0,0:0:0:0:
368,88,87927,6,0,L|448:48,1,87.5,4|0,0:0|0:0,0:0:0:0:
272,88,88134,2,0,L|192:48,1,87.5,8|0,0:0|0:0,0:0:0:0:
376,128,88341,2,0,L|456:88,2,87.5,2|0|8,0:0|0:0|0:0,0:0:0:0:
200,128,88651,6,0,P|224:176|336:200,1,175,4|0,0:0|0:0,0:0:0:0:
160,200,88962,2,0,L|152:288,1,87.5,8|0,0:0|0:0,0:0:0:0:
327,287,89168,2,2,L|248:248,1,87.5,2|0,0:0|0:0,0:0:0:0:
73,248,89375,2,8,L|64:160,1,87.5,8|0,0:0|0:0,0:0:0:0:
328,160,89582,5,4,0:0:0:0:
407,159,89686,1,0,0:0:0:0:
448,232,89789,1,8,0:0:0:0:
368,232,89893,1,0,0:0:0:0:
200,232,89996,1,2,0:0:0:0:
120,168,90100,1,0,0:0:0:0:
296,168,90203,1,8,0:0:0:0:
376,104,90306,1,0,0:0:0:0:
198,104,90410,6,0,L|96:104,1,87.5,4|0,0:0|0:0,0:0:0:0:
288,104,90617,2,0,L|192:104,1,87.5,2|0,0:0|0:0,0:0:0:0:
24,168,90824,2,0,L|96:216,2,87.5,2|0|2,0:0|0:0|0:0,0:0:0:0:
208,168,91134,1,0,0:0:0:0:
384,168,91237,6,0,L|400:256,1,87.5,4|0,0:0|0:0,0:0:0:0:
224,256,91444,2,0,L|208:168,1,87.5,8|0,0:0|0:0,0:0:0:0:
384,168,91651,2,0,L|464:128,2,87.5,2|0|8,0:0|0:0|0:0,0:0:0:0:
208,168,91962,6,0,P|248:232|336:272,1,175,4|0,0:0|0:0,0:0:0:0:
160,272,92272,2,0,L|72:232,2,87.5,8|0|2,0:0|0:0|0:0,0:0:0:0:
337,272,92582,2,0,L|425:232,2,87.5,0|8|0,0:0|0:0|0:0,0:0:0:0:
112,272,92893,6,0,L|96:184,1,87.5,4|0,0:0|0:0,0:0:0:0:
272,184,93100,2,0,L|288:272,1,87.5,8|0,0:0|0:0,0:0:0:0:
112,272,93306,2,0,L|32:232,2,87.5,2|0|8,0:0|0:0|0:0,0:0:0:0:
288,270,93617,6,0,P|248:206|160:166,1,175,4|0,0:0|0:0,0:0:0:0:
335,167,93927,2,0,L|352:256,1,87.5,8|0,0:0|0:0,0:0:0:0:
176,256,94134,1,2,0:0:0:0:
136,256,94186,1,2,0:0:0:0:
176,256,94237,1,0,0:0:0:0:
351,256,94341,2,0,L|264:256,1,87.5,8|0,0:0|0:0,0:0:0:0:
48,256,94548,6,0,L|32:168,1,87.5,4|0,0:0|0:0,0:0:0:0:
208,168,94755,2,0,L|224:256,1,87.5,8|0,0:0|0:0,0:0:0:0:
49,255,94962,2,0,L|128:216,2,87.5,2|0|8,0:0|0:0|0:0,0:0:0:0:
224,254,95272,6,0,P|288:214|352:136,1,175,4|0,0:0|0:0,0:0:0:0:
176,136,95582,2,0,L|96:96,2,87.5,8|0|2,0:0|0:0|0:0,0:0:0:0:
352,136,95893,2,0,L|432:96,2,87.5,0|8|0,0:0|0:0|0:0,0:0:0:0:
128,136,96203,6,0,L|112:224,1,87.5,4|0,0:0|0:0,0:0:0:0:
288,224,96410,2,0,L|304:136,1,87.5,8|0,0:0|0:0,0:0:0:0:
128,136,96617,2,0,L|208:96,2,87.5,2|0|8,0:0|0:0|0:0,0:0:0:0:
304,137,96927,6,0,P|368:177|432:255,1,175,4|0,0:0|0:0,0:0:0:0:
256,256,97237,2,0,L|168:256,1,87.5,8|0,0:0|0:0,0:0:0:0:
344,256,97444,2,0,L|440:256,1,87.5,2|0,0:0|0:0,0:0:0:0:
256,256,97651,1,8,0:0:0:0:
232,216,97703,1,0,0:0:0:0:
256,168,97755,1,0,0:0:0:0:
296,160,97806,1,0,0:0:0:0:
471,160,97858,6,0,L|391:120,1,87.5,4|0,0:0|0:0,0:0:0:0:
218,120,98065,2,0,L|138:80,1,87.5,8|0,0:0|0:0,0:0:0:0:
312,80,98272,2,0,L|392:120,2,87.5,2|0|8,0:0|0:0|0:0,0:0:0:0:
136,80,98582,6,0,P|176:144|264:184,1,175,4|0,0:0|0:0,0:0:0:0:
440,184,98893,1,8,0:0:0:0:
384,240,98996,1,0,0:0:0:0:
304,256,99100,1,2,0:0:0:0:
480,184,99203,1,0,0:0:0:0:
425,239,99306,1,8,0:0:0:0:
345,255,99410,1,0,0:0:0:0:
128,256,99513,6,0,L|208:216,1,87.5,4|0,0:0|0:0,0:0:0:0:
381,216,99720,2,0,L|461:176,1,87.5,8|0,0:0|0:0,0:0:0:0:
287,176,99927,2,8,L|207:216,2,87.5,2|0|8,0:0|0:0|0:0,0:0:0:0:
456,176,100237,6,0,P|416:240|328:280,1,175,4|0,0:0|0:0,0:0:0:0:
152,280,100548,2,0,L|136:192,1,87.5,8|0,0:0|0:0,0:0:0:0:
312,192,100755,1,2,0:0:0:0:
352,192,100806,1,2,0:0:0:0:
312,192,100858,1,0,0:0:0:0:
136,192,100962,2,0,L|248:192,1,87.5,8|0,0:0|0:0,0:0:0:0:
440,192,101168,6,0,L|360:152,1,87.5,4|0,0:0|0:0,0:0:0:0:
184,152,101375,2,0,L|104:112,1,87.5,8|0,0:0|0:0,0:0:0:0:
280,112,101582,2,0,L|200:152,2,87.5,2|0|8,0:0|0:0|0:0,0:0:0:0:
106,112,101893,6,0,P|48:136|24:256,1,175,4|0,0:0|0:0,0:0:0:0:
192,240,102203,1,8,0:0:0:0:
272,224,102306,1,0,0:0:0:0:
327,169,102410,1,2,0:0:0:0:
151,241,102513,1,0,0:0:0:0:
231,225,102617,1,8,0:0:0:0:
287,169,102720,1,0,0:0:0:0:
64,168,102824,6,0,L|144:128,1,87.5,4|0,0:0|0:0,0:0:0:0:
320,128,103031,2,0,L|400:88,1,87.5,8|0,0:0|0:0,0:0:0:0:
224,88,103237,2,0,L|304:128,2,87.5,2|0|8,0:0|0:0|0:0,0:0:0:0:
400,88,103548,6,0,P|458:112|482:232,1,175,4|0,0:0|0:0,0:0:0:0:
312,216,103858,2,0,L|224:216,1,87.5,8|0,0:0|0:0,0:0:0:0:
47,216,104065,1,2,0:0:0:0:
80,264,104134,1,2,0:0:0:0:
136,272,104203,1,2,0:0:0:0:
312,272,104272,1,0,0:0:0:0:
368,264,104341,1,0,0:0:0:0:
312,272,104410,1,2,0:0:0:0:
