osu file format v14

[General]
AudioFilename: Poupee de souhaits.mp3
AudioLeadIn: 0
PreviewTime: 78739
Countdown: 0
SampleSet: Normal
StackLeniency: 0.7
Mode: 1
LetterboxInBreaks: 0
WidescreenStoryboard: 0

[Editor]
Bookmarks: 17601,30842,44083,50704,63946,78842,92083
DistanceSpacing: 0.6
BeatDivisor: 4
GridSize: 8
TimelineZoom: 3.099998

[Metadata]
Title:Towa naru Kizuna to Omoi no Kiseki
TitleUnicode:永遠なる絆と想いのキセキ
Artist:nao
ArtistUnicode:nao
Creator:milr_
Version:Oni
Source:恋する少女と想いのキセキ~Poupee de souhaits~
Tags:Koi Suru Doll TKS TKSalt 404 AccNotFound
BeatmapID:640025
BeatmapSetID:283049

[Difficulty]
HPDrainRate:5
CircleSize:2
OverallDifficulty:6
ApproachRate:10
SliderMultiplier:1.4
SliderTickRate:1

[Events]
//Background and Video events
0,0,"BG.jpg",0,0
//Break Periods
//Storyboard Layer 0 (Background)
//Storyboard Layer 1 (Fail)
//Storyboard Layer 2 (Pass)
//Storyboard Layer 3 (Foreground)
//Storyboard Sound Samples

[TimingPoints]
1120,352.941176470588,5,1,0,50,1,0
6414,352.941176470588,6,1,0,50,1,0
8531,352.941176470588,5,1,0,50,1,0
13825,352.941176470588,6,1,0,50,1,0
15942,206.896551724138,4,1,0,80,1,0
15942,-133.333333333333,4,1,0,80,0,0
78838,-133.333333333333,4,1,0,80,0,1
92079,-133.333333333333,4,1,0,80,0,0

[HitObjects]
208,128,2884,5,0,0:0:0:0:
208,128,3590,1,0,0:0:0:0:
240,232,3943,1,8,0:0:0:0:
248,280,4649,1,0,0:0:0:0:
264,264,5355,1,0,0:0:0:0:
208,192,5708,1,8,0:0:0:0:
80,168,6061,1,0,0:0:0:0:
272,192,6414,1,0,0:0:0:0:
208,208,7119,1,0,0:0:0:0:
344,288,7472,1,8,0:0:0:0:
144,152,7825,1,0,0:0:0:0:
200,160,8178,1,8,0:0:0:0:
256,200,8296,1,0,0:0:0:0:
312,232,8414,1,0,0:0:0:0:
224,128,8531,1,0,0:0:0:0:
336,192,9237,1,0,0:0:0:0:
312,176,9590,1,8,0:0:0:0:
208,128,10296,1,0,0:0:0:0:
208,128,11002,1,0,0:0:0:0:
240,232,11355,1,8,0:0:0:0:
248,280,12061,1,0,0:0:0:0:
264,264,12767,1,0,0:0:0:0:
208,192,13120,1,8,0:0:0:0:
80,168,13472,1,0,0:0:0:0:
272,192,13826,1,0,0:0:0:0:
136,48,14178,1,0,0:0:0:0:
208,208,14531,1,0,0:0:0:0:
344,288,14884,1,8,0:0:0:0:
160,152,15942,1,0,0:0:0:0:
176,96,16148,1,8,0:0:0:0:
208,192,16217,1,8,0:0:0:0:
208,192,16286,1,8,0:0:0:0:
208,192,16355,1,8,0:0:0:0:
208,192,16562,1,0,0:0:0:0:
208,192,16769,1,0,0:0:0:0:
208,192,16976,1,0,0:0:0:0:
208,192,17045,1,0,0:0:0:0:
208,192,17114,1,0,0:0:0:0:
208,192,17183,1,8,0:0:0:0:
208,192,17597,1,0,0:0:0:0:
208,192,17700,1,0,0:0:0:0:
208,192,17804,1,8,0:0:0:0:
208,192,17907,1,0,0:0:0:0:
208,192,18114,1,0,0:0:0:0:
208,192,18217,1,8,0:0:0:0:
208,192,18321,1,8,0:0:0:0:
208,192,18528,1,0,0:0:0:0:
208,192,18631,1,8,0:0:0:0:
208,192,18735,1,0,0:0:0:0:
208,192,18838,1,0,0:0:0:0:
208,192,18941,1,8,0:0:0:0:
208,192,19045,1,8,0:0:0:0:
208,192,19148,1,8,0:0:0:0:
208,192,19252,1,0,0:0:0:0:
208,192,19355,1,0,0:0:0:0:
208,192,19459,1,8,0:0:0:0:
208,192,19562,1,0,0:0:0:0:
208,192,19769,1,0,0:0:0:0:
208,192,19873,1,8,0:0:0:0:
208,192,19976,1,0,0:0:0:0:
208,192,20183,1,0,0:0:0:0:
208,192,20286,1,8,0:0:0:0:
208,192,20390,1,8,0:0:0:0:
208,192,20493,1,0,0:0:0:0:
208,192,20597,1,0,0:0:0:0:
208,192,20700,1,8,0:0:0:0:
208,192,20804,1,0,0:0:0:0:
208,192,20907,1,0,0:0:0:0:
208,192,21010,1,0,0:0:0:0:
208,192,21114,1,8,0:0:0:0:
208,192,21217,1,0,0:0:0:0:
208,192,21424,1,0,0:0:0:0:
208,192,21528,1,8,0:0:0:0:
208,192,21631,1,8,0:0:0:0:
208,192,21838,1,0,0:0:0:0:
208,192,21942,1,8,0:0:0:0:
208,192,22045,1,8,0:0:0:0:
208,192,22148,1,0,0:0:0:0:
208,192,22252,1,8,0:0:0:0:
208,192,22355,1,8,0:0:0:0:
208,192,22458,1,8,0:0:0:0:
208,192,22561,1,0,0:0:0:0:
208,192,22666,1,0,0:0:0:0:
208,192,22769,1,8,0:0:0:0:
208,192,22873,1,0,0:0:0:0:
208,192,23079,1,0,0:0:0:0:
208,192,23183,1,8,0:0:0:0:
208,192,23286,1,0,0:0:0:0:
208,192,23493,1,0,0:0:0:0:
208,192,23597,1,8,0:0:0:0:
208,192,23700,1,8,0:0:0:0:
208,192,23804,1,8,0:0:0:0:
208,192,23907,1,8,0:0:0:0:
208,192,24010,1,8,0:0:0:0:
208,192,24114,1,8,0:0:0:0:
208,192,24217,1,0,0:0:0:0:
208,192,24320,1,0,0:0:0:0:
208,192,24424,1,8,0:0:0:0:
208,192,24527,1,0,0:0:0:0:
208,192,24734,1,0,0:0:0:0:
208,192,24837,1,8,0:0:0:0:
208,192,24941,1,8,0:0:0:0:
208,192,25148,1,0,0:0:0:0:
208,192,25251,1,8,0:0:0:0:
208,192,25355,1,0,0:0:0:0:
208,192,25458,1,0,0:0:0:0:
208,192,25561,1,8,0:0:0:0:
208,192,25665,1,8,0:0:0:0:
208,192,25768,1,8,0:0:0:0:
208,192,25872,1,0,0:0:0:0:
208,192,26079,1,8,0:0:0:0:
208,192,26182,1,0,0:0:0:0:
208,192,26389,1,0,0:0:0:0:
208,192,26493,1,8,0:0:0:0:
208,192,26596,1,0,0:0:0:0:
208,192,26803,1,0,0:0:0:0:
208,192,26906,1,8,0:0:0:0:
208,192,27010,1,8,0:0:0:0:
208,192,27113,1,0,0:0:0:0:
208,192,27217,1,0,0:0:0:0:
208,192,27320,1,8,0:0:0:0:
208,192,27424,1,0,0:0:0:0:
208,192,27527,1,0,0:0:0:0:
208,192,27630,1,0,0:0:0:0:
208,192,27734,1,8,0:0:0:0:
208,192,27837,1,0,0:0:0:0:
208,192,28044,1,0,0:0:0:0:
208,192,28148,1,8,0:0:0:0:
208,192,28251,1,8,0:0:0:0:
208,192,28458,1,0,0:0:0:0:
208,192,28562,1,8,0:0:0:0:
208,192,28665,1,8,0:0:0:0:
208,192,28768,1,0,0:0:0:0:
208,192,28872,1,8,0:0:0:0:
208,192,28975,1,8,0:0:0:0:
208,192,29078,1,8,0:0:0:0:
208,192,29181,1,0,0:0:0:0:
208,192,29286,1,0,0:0:0:0:
208,192,29389,1,8,0:0:0:0:
208,192,29493,1,0,0:0:0:0:
208,192,29699,1,0,0:0:0:0:
208,192,29803,1,8,0:0:0:0:
208,192,29906,1,0,0:0:0:0:
208,192,30113,1,0,0:0:0:0:
208,192,30217,1,8,0:0:0:0:
208,192,30321,1,0,0:0:0:0:
208,192,30424,1,8,0:0:0:0:
208,192,30527,1,0,0:0:0:0:
208,192,30630,1,8,0:0:0:0:
208,192,30734,1,0,0:0:0:0:
208,192,30838,1,0,0:0:0:0:
208,192,30942,1,0,0:0:0:0:
208,192,31045,1,8,0:0:0:0:
208,192,31149,1,0,0:0:0:0:
208,192,31459,1,8,0:0:0:0:
208,192,31666,1,0,0:0:0:0:
208,192,31769,1,0,0:0:0:0:
208,192,31873,1,8,0:0:0:0:
208,192,31976,1,0,0:0:0:0:
208,192,32286,1,8,0:0:0:0:
208,192,32493,1,0,0:0:0:0:
208,192,32700,1,8,0:0:0:0:
208,192,32907,1,0,0:0:0:0:
208,192,33114,1,8,0:0:0:0:
208,192,33321,1,0,0:0:0:0:
208,192,33528,1,8,0:0:0:0:
208,192,33735,1,0,0:0:0:0:
208,192,33942,1,8,0:0:0:0:
208,192,34045,1,0,0:0:0:0:
208,192,34148,1,0,0:0:0:0:
208,192,34252,1,0,0:0:0:0:
208,192,34355,1,8,0:0:0:0:
208,192,34459,1,0,0:0:0:0:
208,192,34769,1,8,0:0:0:0:
208,192,34976,1,0,0:0:0:0:
208,192,35079,1,0,0:0:0:0:
208,192,35183,1,8,0:0:0:0:
208,192,35286,1,0,0:0:0:0:
208,192,35493,1,0,0:0:0:0:
208,192,35597,1,8,0:0:0:0:
208,192,35804,1,0,0:0:0:0:
208,192,36010,1,8,0:0:0:0:
208,192,36217,1,0,0:0:0:0:
208,192,36423,1,8,0:0:0:0:
208,192,36631,1,0,0:0:0:0:
208,192,36735,1,0,0:0:0:0:
208,192,36837,1,8,0:0:0:0:
208,192,36942,1,0,0:0:0:0:
208,192,37045,1,0,0:0:0:0:
208,192,37252,1,8,0:0:0:0:
208,192,37355,1,0,0:0:0:0:
208,192,37459,1,0,0:0:0:0:
208,192,37562,1,0,0:0:0:0:
208,192,37666,1,8,0:0:0:0:
208,192,37769,1,0,0:0:0:0:
208,192,38079,1,8,0:0:0:0:
208,192,38286,1,0,0:0:0:0:
208,192,38390,1,0,0:0:0:0:
208,192,38493,1,8,0:0:0:0:
208,192,38597,1,0,0:0:0:0:
208,192,38804,1,0,0:0:0:0:
208,192,38855,1,0,0:0:0:0:
208,192,38907,1,8,0:0:0:0:
208,192,39114,1,0,0:0:0:0:
208,192,39321,1,8,0:0:0:0:
208,192,39528,1,0,0:0:0:0:
208,192,39735,1,8,0:0:0:0:
208,192,39942,1,4,0:0:0:0:
208,192,40355,1,12,0:0:0:0:
208,192,40562,1,8,0:0:0:0:
208,192,40769,1,0,0:0:0:0:
208,192,40873,1,0,0:0:0:0:
208,192,40976,1,8,0:0:0:0:
208,192,41183,1,0,0:0:0:0:
208,192,41287,1,0,0:0:0:0:
208,192,41390,1,8,0:0:0:0:
208,192,41597,1,0,0:0:0:0:
208,192,41701,1,0,0:0:0:0:
208,192,41804,1,8,0:0:0:0:
208,192,41907,1,0,0:0:0:0:
208,192,42010,1,0,0:0:0:0:
208,192,42114,1,0,0:0:0:0:
208,192,42217,1,8,0:0:0:0:
208,192,42424,1,0,0:0:0:0:
208,192,42631,1,8,0:0:0:0:
208,192,42735,1,0,0:0:0:0:
208,192,42838,1,8,0:0:0:0:
208,192,42942,1,0,0:0:0:0:
208,192,43045,1,8,0:0:0:0:
208,192,43252,1,0,0:0:0:0:
208,192,43355,1,8,0:0:0:0:
208,192,43459,1,8,0:0:0:0:
208,192,43562,1,8,0:0:0:0:
208,192,43666,1,0,0:0:0:0:
208,192,43769,1,0,0:0:0:0:
208,192,43873,1,8,0:0:0:0:
208,192,43976,1,8,0:0:0:0:
208,192,44079,1,0,0:0:0:0:
208,192,44182,1,0,0:0:0:0:
208,192,44286,1,8,0:0:0:0:
208,192,44389,1,0,0:0:0:0:
208,192,44596,1,0,0:0:0:0:
208,192,44699,1,8,0:0:0:0:
208,192,44803,1,8,0:0:0:0:
208,192,45010,1,0,0:0:0:0:
208,192,45113,1,8,0:0:0:0:
208,192,45217,1,8,0:0:0:0:
208,192,45320,1,0,0:0:0:0:
208,192,45423,1,8,0:0:0:0:
208,192,45527,1,8,0:0:0:0:
208,192,45630,1,8,0:0:0:0:
208,192,45734,1,0,0:0:0:0:
208,192,45838,1,0,0:0:0:0:
208,192,45941,1,8,0:0:0:0:
208,192,46044,1,0,0:0:0:0:
208,192,46251,1,0,0:0:0:0:
208,192,46355,1,8,0:0:0:0:
208,192,46458,1,0,0:0:0:0:
208,192,46665,1,0,0:0:0:0:
208,192,46768,1,8,0:0:0:0:
208,192,46872,1,8,0:0:0:0:
208,192,46975,1,0,0:0:0:0:
208,192,47079,1,0,0:0:0:0:
208,192,47182,1,8,0:0:0:0:
208,192,47286,1,0,0:0:0:0:
208,192,47390,1,0,0:0:0:0:
208,192,47493,1,0,0:0:0:0:
208,192,47597,1,8,0:0:0:0:
208,192,47700,1,0,0:0:0:0:
208,192,47907,1,0,0:0:0:0:
208,192,48010,1,8,0:0:0:0:
208,192,48114,1,8,0:0:0:0:
208,192,48321,1,0,0:0:0:0:
208,192,48424,1,8,0:0:0:0:
208,192,48528,1,0,0:0:0:0:
208,192,48631,1,0,0:0:0:0:
208,192,48734,1,8,0:0:0:0:
208,192,48838,1,8,0:0:0:0:
208,192,48941,1,8,0:0:0:0:
208,192,49045,1,0,0:0:0:0:
208,192,49148,1,0,0:0:0:0:
208,192,49252,1,8,0:0:0:0:
208,192,49355,1,0,0:0:0:0:
208,192,49562,1,0,0:0:0:0:
208,192,49666,1,8,0:0:0:0:
208,192,49769,1,0,0:0:0:0:
208,192,49976,1,0,0:0:0:0:
208,192,50079,1,8,0:0:0:0:
208,192,50183,1,0,0:0:0:0:
208,192,50286,1,8,0:0:0:0:
208,192,50390,1,0,0:0:0:0:
208,192,50493,1,8,0:0:0:0:
208,192,50597,1,0,0:0:0:0:
208,192,50700,1,0,0:0:0:0:
208,192,50804,1,0,0:0:0:0:
208,192,50907,1,8,0:0:0:0:
208,192,51010,1,0,0:0:0:0:
208,192,51321,1,8,0:0:0:0:
208,192,51528,1,0,0:0:0:0:
208,192,51631,1,0,0:0:0:0:
208,192,51735,1,8,0:0:0:0:
208,192,51838,1,0,0:0:0:0:
208,192,52148,1,8,0:0:0:0:
208,192,52355,1,0,0:0:0:0:
208,192,52562,1,8,0:0:0:0:
208,192,52769,1,0,0:0:0:0:
208,192,52976,1,8,0:0:0:0:
208,192,53183,1,0,0:0:0:0:
208,192,53390,1,8,0:0:0:0:
208,192,53597,1,0,0:0:0:0:
208,192,53804,1,8,0:0:0:0:
208,192,53907,1,0,0:0:0:0:
208,192,54010,1,0,0:0:0:0:
208,192,54114,1,0,0:0:0:0:
208,192,54217,1,8,0:0:0:0:
208,192,54321,1,0,0:0:0:0:
208,192,54631,1,8,0:0:0:0:
208,192,54838,1,0,0:0:0:0:
208,192,54941,1,0,0:0:0:0:
208,192,55045,1,8,0:0:0:0:
208,192,55148,1,0,0:0:0:0:
208,192,55355,1,0,0:0:0:0:
208,192,55459,1,8,0:0:0:0:
208,192,55562,1,8,0:0:0:0:
208,192,55666,1,0,0:0:0:0:
208,192,55872,1,8,0:0:0:0:
208,192,56079,1,0,0:0:0:0:
208,192,56183,1,0,0:0:0:0:
208,192,56285,1,8,0:0:0:0:
208,192,56493,1,0,0:0:0:0:
208,192,56597,1,0,0:0:0:0:
208,192,56699,1,8,0:0:0:0:
208,192,56804,1,8,0:0:0:0:
208,192,56907,1,0,0:0:0:0:
208,192,57114,1,8,0:0:0:0:
208,192,57217,1,0,0:0:0:0:
208,192,57321,1,0,0:0:0:0:
208,192,57424,1,0,0:0:0:0:
208,192,57528,1,8,0:0:0:0:
208,192,57631,1,0,0:0:0:0:
208,192,57941,1,8,0:0:0:0:
208,192,58148,1,0,0:0:0:0:
208,192,58252,1,0,0:0:0:0:
208,192,58355,1,8,0:0:0:0:
208,192,58459,1,0,0:0:0:0:
208,192,58666,1,0,0:0:0:0:
208,192,58717,1,0,0:0:0:0:
208,192,58769,1,8,0:0:0:0:
208,192,58976,1,0,0:0:0:0:
208,192,59183,1,8,0:0:0:0:
208,192,59390,1,0,0:0:0:0:
208,192,59597,1,8,0:0:0:0:
208,192,59804,1,0,0:0:0:0:
208,192,60010,1,8,0:0:0:0:
208,192,60217,1,0,0:0:0:0:
208,192,60424,1,8,0:0:0:0:
208,192,60528,1,0,0:0:0:0:
208,192,60631,1,0,0:0:0:0:
208,192,60735,1,0,0:0:0:0:
208,192,60838,1,8,0:0:0:0:
208,192,61045,1,0,0:0:0:0:
208,192,61149,1,0,0:0:0:0:
208,192,61252,1,8,0:0:0:0:
208,192,61459,1,0,0:0:0:0:
208,192,61563,1,0,0:0:0:0:
208,192,61666,1,8,0:0:0:0:
208,192,61769,1,0,0:0:0:0:
208,192,61872,1,0,0:0:0:0:
208,192,61976,1,0,0:0:0:0:
208,192,62079,1,8,0:0:0:0:
208,192,62286,1,0,0:0:0:0:
208,192,62493,1,8,0:0:0:0:
208,192,62597,1,0,0:0:0:0:
208,192,62700,1,0,0:0:0:0:
208,192,62804,1,0,0:0:0:0:
208,192,62907,1,8,0:0:0:0:
208,192,63114,1,0,0:0:0:0:
208,192,63217,1,0,0:0:0:0:
208,192,63321,1,8,0:0:0:0:
208,192,63424,1,8,0:0:0:0:
208,192,63528,1,0,0:0:0:0:
208,192,63631,1,0,0:0:0:0:
208,192,63735,1,8,0:0:0:0:
208,192,63942,1,4,0:0:0:0:
208,192,64562,1,0,0:0:0:0:
208,192,64769,1,8,0:0:0:0:
208,192,64976,1,0,0:0:0:0:
208,192,65183,1,8,0:0:0:0:
208,192,65597,1,12,0:0:0:0:
208,192,66217,1,0,0:0:0:0:
208,192,66424,1,8,0:0:0:0:
208,192,66631,1,0,0:0:0:0:
208,192,66838,1,8,0:0:0:0:
208,192,67252,1,4,0:0:0:0:
208,192,67872,1,0,0:0:0:0:
208,192,68079,1,8,0:0:0:0:
208,192,68286,1,0,0:0:0:0:
208,192,68493,1,8,0:0:0:0:
208,192,68907,1,12,0:0:0:0:
208,192,69527,1,0,0:0:0:0:
208,192,69734,1,8,0:0:0:0:
208,192,69941,1,0,0:0:0:0:
208,192,70148,1,8,0:0:0:0:
208,192,70355,1,8,0:0:0:0:
208,192,70459,1,8,0:0:0:0:
208,192,70562,1,0,0:0:0:0:
208,192,70769,1,0,0:0:0:0:
208,192,70976,1,8,0:0:0:0:
208,192,71286,1,8,0:0:0:0:
208,192,71390,1,0,0:0:0:0:
208,192,71597,1,0,0:0:0:0:
208,192,71804,1,8,0:0:0:0:
208,192,72217,1,0,0:0:0:0:
208,192,72424,1,0,0:0:0:0:
208,192,72631,1,8,0:0:0:0:
208,192,72838,1,0,0:0:0:0:
208,192,72941,1,8,0:0:0:0:
208,192,73045,1,0,0:0:0:0:
208,192,73252,1,0,0:0:0:0:
208,192,73459,1,8,0:0:0:0:
208,192,73873,1,0,0:0:0:0:
208,192,74080,1,0,0:0:0:0:
208,192,74287,1,8,0:0:0:0:
208,192,74597,1,8,0:0:0:0:
208,192,74701,1,0,0:0:0:0:
208,192,74908,1,0,0:0:0:0:
208,192,75115,1,8,0:0:0:0:
208,192,75528,1,12,0:0:0:0:
208,192,75838,1,12,0:0:0:0:
208,192,76148,1,12,0:0:0:0:
208,192,76355,1,4,0:0:0:0:
208,192,76665,1,4,0:0:0:0:
208,192,76975,1,4,0:0:0:0:
208,192,77183,1,12,0:0:0:0:
208,192,77390,1,12,0:0:0:0:
208,192,77597,1,4,0:0:0:0:
208,192,77804,1,12,0:0:0:0:
208,192,78010,1,4,0:0:0:0:
208,192,78217,1,0,0:0:0:0:
208,192,78286,1,0,0:0:0:0:
208,192,78355,1,0,0:0:0:0:
208,192,78424,1,12,0:0:0:0:
208,192,78838,1,0,0:0:0:0:
208,192,78942,1,0,0:0:0:0:
208,192,79045,1,8,0:0:0:0:
208,192,79148,1,0,0:0:0:0:
208,192,79355,1,0,0:0:0:0:
208,192,79459,1,8,0:0:0:0:
208,192,79562,1,8,0:0:0:0:
208,192,79769,1,0,0:0:0:0:
208,192,79873,1,8,0:0:0:0:
208,192,79976,1,8,0:0:0:0:
208,192,80079,1,0,0:0:0:0:
208,192,80183,1,8,0:0:0:0:
208,192,80286,1,0,0:0:0:0:
208,192,80390,1,8,0:0:0:0:
208,192,80493,1,0,0:0:0:0:
208,192,80597,1,0,0:0:0:0:
208,192,80700,1,8,0:0:0:0:
208,192,80803,1,0,0:0:0:0:
208,192,81010,1,0,0:0:0:0:
208,192,81114,1,8,0:0:0:0:
208,192,81217,1,8,0:0:0:0:
208,192,81424,1,0,0:0:0:0:
208,192,81528,1,8,0:0:0:0:
208,192,81631,1,8,0:0:0:0:
208,192,81735,1,0,0:0:0:0:
208,192,81838,1,0,0:0:0:0:
208,192,81942,1,8,0:0:0:0:
208,192,82046,1,0,0:0:0:0:
208,192,82148,1,0,0:0:0:0:
208,192,82252,1,0,0:0:0:0:
208,192,82355,1,8,0:0:0:0:
208,192,82459,1,0,0:0:0:0:
208,192,82666,1,0,0:0:0:0:
208,192,82769,1,8,0:0:0:0:
208,192,82873,1,0,0:0:0:0:
208,192,83079,1,0,0:0:0:0:
208,192,83183,1,8,0:0:0:0:
208,192,83286,1,8,0:0:0:0:
208,192,83390,1,0,0:0:0:0:
208,192,83494,1,8,0:0:0:0:
208,192,83597,1,0,0:0:0:0:
208,192,83701,1,8,0:0:0:0:
208,192,83804,1,0,0:0:0:0:
208,192,83907,1,0,0:0:0:0:
208,192,84010,1,8,0:0:0:0:
208,192,84113,1,0,0:0:0:0:
208,192,84321,1,0,0:0:0:0:
208,192,84424,1,8,0:0:0:0:
208,192,84527,1,8,0:0:0:0:
208,192,84735,1,0,0:0:0:0:
208,192,84838,1,8,0:0:0:0:
208,192,84942,1,8,0:0:0:0:
208,192,85045,1,0,0:0:0:0:
208,192,85148,1,8,0:0:0:0:
208,192,85252,1,8,0:0:0:0:
208,192,85355,1,8,0:0:0:0:
208,192,85459,1,0,0:0:0:0:
208,192,85562,1,0,0:0:0:0:
208,192,85666,1,8,0:0:0:0:
208,192,85769,1,0,0:0:0:0:
208,192,85976,1,0,0:0:0:0:
208,192,86080,1,8,0:0:0:0:
208,192,86183,1,0,0:0:0:0:
208,192,86390,1,0,0:0:0:0:
208,192,86494,1,8,0:0:0:0:
208,192,86597,1,8,0:0:0:0:
208,192,86700,1,0,0:0:0:0:
208,192,86804,1,8,0:0:0:0:
208,192,86907,1,0,0:0:0:0:
208,192,87011,1,8,0:0:0:0:
208,192,87114,1,0,0:0:0:0:
208,192,87218,1,0,0:0:0:0:
208,192,87321,1,8,0:0:0:0:
208,192,87424,1,0,0:0:0:0:
208,192,87631,1,0,0:0:0:0:
208,192,87735,1,8,0:0:0:0:
208,192,87838,1,0,0:0:0:0:
208,192,88045,1,0,0:0:0:0:
208,192,88148,1,8,0:0:0:0:
208,192,88252,1,8,0:0:0:0:
208,192,88355,1,0,0:0:0:0:
208,192,88459,1,8,0:0:0:0:
208,192,88563,1,8,0:0:0:0:
208,192,88666,1,8,0:0:0:0:
208,192,88769,1,0,0:0:0:0:
208,192,88873,1,0,0:0:0:0:
208,192,88976,1,8,0:0:0:0:
208,192,89079,1,0,0:0:0:0:
208,192,89286,1,0,0:0:0:0:
208,192,89390,1,8,0:0:0:0:
208,192,89493,1,0,0:0:0:0:
208,192,89700,1,0,0:0:0:0:
208,192,89804,1,8,0:0:0:0:
208,192,89907,1,8,0:0:0:0:
208,192,90010,1,0,0:0:0:0:
208,192,90114,1,8,0:0:0:0:
208,192,90217,1,0,0:0:0:0:
208,192,90321,1,8,0:0:0:0:
208,192,90424,1,0,0:0:0:0:
208,192,90528,1,0,0:0:0:0:
208,192,90631,1,8,0:0:0:0:
208,192,90735,1,0,0:0:0:0:
208,192,90942,1,0,0:0:0:0:
208,192,91045,1,8,0:0:0:0:
208,192,91149,1,0,0:0:0:0:
208,192,91252,1,0,0:0:0:0:
208,192,91355,1,0,0:0:0:0:
208,192,91459,1,8,0:0:0:0:
208,192,91562,1,8,0:0:0:0:
208,192,91666,1,8,0:0:0:0:
208,192,91769,1,8,0:0:0:0:
208,192,91873,1,8,0:0:0:0:
208,192,91976,1,8,0:0:0:0:
208,192,92079,1,0,0:0:0:0:
208,192,92182,1,0,0:0:0:0:
208,192,92286,1,8,0:0:0:0:
208,192,92389,1,0,0:0:0:0:
208,192,92596,1,0,0:0:0:0:
208,192,92699,1,8,0:0:0:0:
208,192,92803,1,8,0:0:0:0:
208,192,93010,1,0,0:0:0:0:
208,192,93113,1,8,0:0:0:0:
208,192,93217,1,8,0:0:0:0:
208,192,93320,1,0,0:0:0:0:
208,192,93423,1,8,0:0:0:0:
208,192,93527,1,8,0:0:0:0:
208,192,93630,1,8,0:0:0:0:
208,192,93734,1,0,0:0:0:0:
208,192,93838,1,0,0:0:0:0:
208,192,93941,1,8,0:0:0:0:
208,192,94044,1,0,0:0:0:0:
208,192,94251,1,0,0:0:0:0:
208,192,94355,1,8,0:0:0:0:
208,192,94458,1,0,0:0:0:0:
208,192,94665,1,0,0:0:0:0:
208,192,94768,1,8,0:0:0:0:
208,192,94872,1,8,0:0:0:0:
208,192,94975,1,0,0:0:0:0:
208,192,95079,1,0,0:0:0:0:
208,192,95182,1,8,0:0:0:0:
208,192,95286,1,0,0:0:0:0:
208,192,95389,1,0,0:0:0:0:
208,192,95492,1,0,0:0:0:0:
208,192,95596,1,8,0:0:0:0:
208,192,95699,1,0,0:0:0:0:
208,192,95906,1,0,0:0:0:0:
208,192,96010,1,8,0:0:0:0:
208,192,96113,1,8,0:0:0:0:
208,192,96320,1,0,0:0:0:0:
208,192,96424,1,8,0:0:0:0:
208,192,96527,1,8,0:0:0:0:
208,192,96630,1,0,0:0:0:0:
208,192,96734,1,8,0:0:0:0:
208,192,96837,1,8,0:0:0:0:
208,192,96940,1,8,0:0:0:0:
208,192,97043,1,0,0:0:0:0:
208,192,97148,1,0,0:0:0:0:
208,192,97251,1,8,0:0:0:0:
208,192,97355,1,0,0:0:0:0:
208,192,97561,1,0,0:0:0:0:
208,192,97665,1,8,0:0:0:0:
208,192,97768,1,0,0:0:0:0:
208,192,97975,1,0,0:0:0:0:
208,192,98079,1,8,0:0:0:0:
208,192,98182,1,8,0:0:0:0:
208,192,98286,1,0,0:0:0:0:
208,192,98389,1,8,0:0:0:0:
208,192,98492,1,8,0:0:0:0:
208,192,98596,1,8,0:0:0:0:
208,192,98699,1,0,0:0:0:0:
208,192,98802,1,0,0:0:0:0:
208,192,98906,1,8,0:0:0:0:
208,192,99009,1,0,0:0:0:0:
208,192,99216,1,0,0:0:0:0:
208,192,99319,1,8,0:0:0:0:
208,192,99423,1,8,0:0:0:0:
208,192,99630,1,0,0:0:0:0:
208,192,99733,1,8,0:0:0:0:
208,192,99838,1,8,0:0:0:0:
208,192,99940,1,0,0:0:0:0:
208,192,100043,1,8,0:0:0:0:
208,192,100147,1,8,0:0:0:0:
208,192,100250,1,8,0:0:0:0:
208,192,100354,1,0,0:0:0:0:
208,192,100459,1,0,0:0:0:0:
208,192,100561,1,8,0:0:0:0:
208,192,100664,1,0,0:0:0:0:
208,192,100871,1,0,0:0:0:0:
208,192,100975,1,8,0:0:0:0:
208,192,101078,1,0,0:0:0:0:
208,192,101285,1,0,0:0:0:0:
208,192,101388,1,8,0:0:0:0:
208,192,101492,1,8,0:0:0:0:
208,192,101595,1,0,0:0:0:0:
208,192,101699,1,0,0:0:0:0:
208,192,101802,1,8,0:0:0:0:
208,192,101906,1,0,0:0:0:0:
208,192,102009,1,0,0:0:0:0:
208,192,102112,1,0,0:0:0:0:
208,192,102216,1,8,0:0:0:0:
208,192,102319,1,0,0:0:0:0:
208,192,102526,1,0,0:0:0:0:
208,192,102630,1,8,0:0:0:0:
208,192,102733,1,8,0:0:0:0:
208,192,102940,1,0,0:0:0:0:
208,192,103044,1,8,0:0:0:0:
208,192,103147,1,8,0:0:0:0:
208,192,103250,1,0,0:0:0:0:
208,192,103354,1,8,0:0:0:0:
208,192,103457,1,8,0:0:0:0:
208,192,103560,1,8,0:0:0:0:
208,192,103663,1,0,0:0:0:0:
208,192,103768,1,0,0:0:0:0:
208,192,103871,1,8,0:0:0:0:
208,192,103975,1,0,0:0:0:0:
208,192,104181,1,0,0:0:0:0:
208,192,104285,1,8,0:0:0:0:
208,192,104388,1,0,0:0:0:0:
208,192,104595,1,0,0:0:0:0:
208,192,104699,1,8,0:0:0:0:
208,192,104803,1,0,0:0:0:0:
208,192,104906,1,8,0:0:0:0:
208,192,105009,1,0,0:0:0:0:
208,192,105112,1,8,0:0:0:0:
208,192,105216,1,8,0:0:0:0:
