osu file format v14

[General]
AudioFilename: Poupee de souhaits.mp3
AudioLeadIn: 0
PreviewTime: 78739
Countdown: 0
SampleSet: Normal
StackLeniency: 0.7
Mode: 1
LetterboxInBreaks: 0
WidescreenStoryboard: 0

[Editor]
Bookmarks: 17601,30842,44083,50704,63946,78842
DistanceSpacing: 0.6
BeatDivisor: 4
GridSize: 8
TimelineZoom: 3.099999

[Metadata]
Title:Towa naru Kizuna to Omoi no Kiseki
TitleUnicode:永遠なる絆と想いのキセキ
Artist:nao
ArtistUnicode:nao
Creator:milr_
Version:Muzukashii
Source:恋する少女と想いのキセキ~Poupee de souhaits~
Tags:Koi Suru Doll TKS TKSalt 404 AccNotFound
BeatmapID:640023
BeatmapSetID:283049

[Difficulty]
HPDrainRate:5
CircleSize:2
OverallDifficulty:5
ApproachRate:10
SliderMultiplier:1.4
SliderTickRate:1

[Events]
//Background and Video events
0,0,"BG.jpg",0,0
//Break Periods
//Storyboard Layer 0 (Background)
//Storyboard Layer 1 (Fail)
//Storyboard Layer 2 (Pass)
//Storyboard Layer 3 (Foreground)
//Storyboard Sound Samples

[TimingPoints]
1120,352.941176470588,5,1,0,50,1,0
6414,352.941176470588,6,1,0,50,1,0
8531,352.941176470588,5,1,0,50,1,0
13825,352.941176470588,6,1,0,50,1,0
15942,206.896551724138,4,1,0,80,1,0
15942,-153.846153846154,4,1,0,80,0,0
78838,-153.846153846154,4,1,0,80,0,1
92079,-153.846153846154,4,1,0,80,0,0

[HitObjects]
128,143,2884,5,0,0:0:0:0:
262,210,3590,1,0,0:0:0:0:
355,178,3943,1,8,0:0:0:0:
128,143,4649,1,0,0:0:0:0:
262,210,5355,1,0,0:0:0:0:
355,178,5708,1,8,0:0:0:0:
262,210,6061,1,0,0:0:0:0:
128,143,6414,1,0,0:0:0:0:
262,210,7119,1,0,0:0:0:0:
355,178,7472,1,8,0:0:0:0:
144,248,7825,1,0,0:0:0:0:
251,157,8178,1,8,0:0:0:0:
310,193,8355,1,0,0:0:0:0:
217,147,8531,1,0,0:0:0:0:
309,273,9236,1,0,0:0:0:0:
353,255,9589,1,8,0:0:0:0:
380,223,10295,1,0,0:0:0:0:
396,229,11001,1,0,0:0:0:0:
349,221,11354,1,8,0:0:0:0:
378,235,12060,1,0,0:0:0:0:
294,233,12766,1,0,0:0:0:0:
290,215,13119,1,8,0:0:0:0:
297,218,13472,1,0,0:0:0:0:
315,209,13825,1,0,0:0:0:0:
314,213,14177,1,8,0:0:0:0:
282,173,14530,1,8,0:0:0:0:
308,210,14883,1,8,0:0:0:0:
230,147,15942,1,0,0:0:0:0:
230,147,16148,1,8,0:0:0:0:
192,144,16355,1,8,0:0:0:0:
288,160,16459,1,8,0:0:0:0:
200,124,16562,1,0,0:0:0:0:
230,147,16769,1,0,0:0:0:0:
230,147,16976,1,0,0:0:0:0:
230,147,17183,1,12,0:0:0:0:
191,207,17597,1,4,0:0:0:0:
65,140,17804,1,8,0:0:0:0:
279,159,18010,1,0,0:0:0:0:
289,161,18217,1,8,0:0:0:0:
289,161,18321,1,8,0:0:0:0:
300,291,18631,1,8,0:0:0:0:
309,170,18838,1,0,0:0:0:0:
232,40,19045,1,8,0:0:0:0:
191,207,19148,1,8,0:0:0:0:
191,207,19252,1,0,0:0:0:0:
65,140,19459,1,8,0:0:0:0:
279,159,19666,1,0,0:0:0:0:
289,161,19873,1,8,0:0:0:0:
279,159,19976,1,0,0:0:0:0:
300,291,20286,1,8,0:0:0:0:
309,170,20493,1,0,0:0:0:0:
309,170,20597,1,0,0:0:0:0:
172,153,20700,1,8,0:0:0:0:
191,207,20907,1,0,0:0:0:0:
65,140,21114,1,8,0:0:0:0:
279,159,21321,1,0,0:0:0:0:
289,161,21528,1,8,0:0:0:0:
289,161,21631,1,8,0:0:0:0:
300,291,21942,1,8,0:0:0:0:
309,170,22148,1,0,0:0:0:0:
280,176,22355,1,8,0:0:0:0:
273,176,22459,1,8,0:0:0:0:
191,207,22562,1,0,0:0:0:0:
65,140,22769,1,8,0:0:0:0:
279,159,22976,1,0,0:0:0:0:
289,161,23183,1,8,0:0:0:0:
277,158,23286,1,0,0:0:0:0:
300,291,23597,1,8,0:0:0:0:
172,153,23700,1,0,0:0:0:0:
309,170,23804,1,0,0:0:0:0:
164,150,23907,1,0,0:0:0:0:
172,153,24010,1,8,0:0:0:0:
191,207,24217,1,0,0:0:0:0:
65,140,24424,1,8,0:0:0:0:
279,159,24631,1,0,0:0:0:0:
289,161,24838,1,8,0:0:0:0:
289,161,24942,1,8,0:0:0:0:
300,291,25252,1,8,0:0:0:0:
309,170,25459,1,0,0:0:0:0:
160,176,25666,1,8,0:0:0:0:
160,176,25769,1,8,0:0:0:0:
191,207,25873,1,0,0:0:0:0:
65,140,26079,1,8,0:0:0:0:
279,159,26286,1,0,0:0:0:0:
289,161,26493,1,8,0:0:0:0:
286,154,26597,1,0,0:0:0:0:
300,291,26907,1,8,0:0:0:0:
309,170,27114,1,0,0:0:0:0:
309,170,27217,1,0,0:0:0:0:
172,153,27321,1,8,0:0:0:0:
191,207,27528,1,0,0:0:0:0:
65,140,27735,1,8,0:0:0:0:
279,159,27942,1,0,0:0:0:0:
65,140,28148,1,8,0:0:0:0:
289,161,28252,1,8,0:0:0:0:
300,291,28562,1,8,0:0:0:0:
309,170,28769,1,0,0:0:0:0:
136,192,28976,1,8,0:0:0:0:
136,192,29079,1,8,0:0:0:0:
191,207,29183,1,0,0:0:0:0:
65,140,29390,1,8,0:0:0:0:
279,159,29597,1,0,0:0:0:0:
289,161,29804,1,8,0:0:0:0:
289,161,29907,1,0,0:0:0:0:
300,291,30217,1,8,0:0:0:0:
296,160,30321,1,0,0:0:0:0:
309,170,30424,1,8,0:0:0:0:
309,170,30528,1,0,0:0:0:0:
172,153,30631,1,8,0:0:0:0:
185,129,30838,1,0,0:0:0:0:
187,132,31045,1,8,0:0:0:0:
183,132,31148,1,0,0:0:0:0:
217,180,31459,1,8,0:0:0:0:
185,129,31666,1,0,0:0:0:0:
217,180,31769,1,8,0:0:0:0:
217,180,31976,1,0,0:0:0:0:
217,180,32286,1,8,0:0:0:0:
140,194,32493,1,0,0:0:0:0:
279,216,32700,1,8,0:0:0:0:
279,216,32907,1,0,0:0:0:0:
299,192,33114,1,8,0:0:0:0:
327,166,33321,1,0,0:0:0:0:
327,166,33528,1,8,0:0:0:0:
148,199,33631,1,0,0:0:0:0:
148,199,33735,1,0,0:0:0:0:
148,199,33942,1,8,0:0:0:0:
185,129,34148,1,0,0:0:0:0:
192,140,34355,1,8,0:0:0:0:
217,180,34459,1,0,0:0:0:0:
217,180,34769,1,8,0:0:0:0:
185,129,34976,1,0,0:0:0:0:
217,180,35079,1,8,0:0:0:0:
217,180,35286,1,0,0:0:0:0:
217,180,35493,1,0,0:0:0:0:
217,180,35597,1,8,0:0:0:0:
140,194,35804,1,0,0:0:0:0:
279,216,36010,1,8,0:0:0:0:
374,182,36217,1,0,0:0:0:0:
299,192,36424,1,8,0:0:0:0:
327,166,36631,1,0,0:0:0:0:
327,166,36735,1,0,0:0:0:0:
327,166,36838,1,8,0:0:0:0:
140,192,37045,1,0,0:0:0:0:
148,199,37252,1,8,0:0:0:0:
185,129,37459,1,0,0:0:0:0:
204,173,37666,1,8,0:0:0:0:
217,180,37769,1,0,0:0:0:0:
185,129,38079,1,8,0:0:0:0:
217,180,38286,1,0,0:0:0:0:
211,177,38390,1,8,0:0:0:0:
217,180,38597,1,0,0:0:0:0:
217,180,38804,1,0,0:0:0:0:
217,180,38907,1,8,0:0:0:0:
140,194,39114,1,0,0:0:0:0:
279,216,39321,1,8,0:0:0:0:
374,182,39528,1,0,0:0:0:0:
299,192,39735,1,8,0:0:0:0:
327,166,39942,1,4,0:0:0:0:
327,166,40355,1,12,0:0:0:0:
148,199,40562,1,0,0:0:0:0:
205,157,40769,1,0,0:0:0:0:
307,177,40976,1,8,0:0:0:0:
222,169,41183,1,0,0:0:0:0:
222,169,41286,1,0,0:0:0:0:
307,177,41390,1,8,0:0:0:0:
273,176,41597,1,0,0:0:0:0:
362,214,41804,1,8,0:0:0:0:
273,176,42010,1,0,0:0:0:0:
362,214,42217,1,8,0:0:0:0:
305,181,42424,1,0,0:0:0:0:
209,209,42631,1,8,0:0:0:0:
209,209,42838,1,8,0:0:0:0:
114,202,43045,1,8,0:0:0:0:
117,195,43252,1,0,0:0:0:0:
114,202,43459,1,0,0:0:0:0:
114,202,43562,1,0,0:0:0:0:
117,195,43666,1,8,0:0:0:0:
193,225,43769,1,0,0:0:0:0:
200,232,43873,1,8,0:0:0:0:
191,207,44079,1,4,0:0:0:0:
65,140,44286,1,8,0:0:0:0:
279,159,44493,1,0,0:0:0:0:
65,140,44700,1,8,0:0:0:0:
289,161,44804,1,8,0:0:0:0:
300,291,45114,1,8,0:0:0:0:
309,170,45321,1,0,0:0:0:0:
144,144,45528,1,8,0:0:0:0:
186,192,45631,1,8,0:0:0:0:
191,207,45735,1,0,0:0:0:0:
65,140,45942,1,8,0:0:0:0:
279,159,46148,1,0,0:0:0:0:
289,161,46355,1,8,0:0:0:0:
279,159,46459,1,0,0:0:0:0:
300,291,46769,1,8,0:0:0:0:
309,170,46976,1,0,0:0:0:0:
309,170,47079,1,0,0:0:0:0:
172,153,47183,1,8,0:0:0:0:
191,207,47390,1,0,0:0:0:0:
65,140,47597,1,8,0:0:0:0:
279,159,47804,1,0,0:0:0:0:
289,161,48010,1,8,0:0:0:0:
289,161,48114,1,8,0:0:0:0:
300,291,48424,1,8,0:0:0:0:
309,170,48631,1,0,0:0:0:0:
309,170,48735,1,0,0:0:0:0:
224,224,48838,1,8,0:0:0:0:
224,224,48942,1,8,0:0:0:0:
191,207,49045,1,0,0:0:0:0:
65,140,49252,1,8,0:0:0:0:
279,159,49459,1,0,0:0:0:0:
65,140,49666,1,8,0:0:0:0:
289,161,49769,1,0,0:0:0:0:
300,291,50079,1,8,0:0:0:0:
300,291,50183,1,0,0:0:0:0:
309,170,50286,1,8,0:0:0:0:
172,153,50390,1,0,0:0:0:0:
172,153,50493,1,8,0:0:0:0:
185,129,50700,1,0,0:0:0:0:
217,180,50907,1,8,0:0:0:0:
217,180,51010,1,8,0:0:0:0:
217,180,51321,1,8,0:0:0:0:
185,129,51528,1,0,0:0:0:0:
217,180,51631,1,8,0:0:0:0:
217,180,51838,1,0,0:0:0:0:
217,180,52148,1,8,0:0:0:0:
140,194,52355,1,0,0:0:0:0:
279,216,52562,1,8,0:0:0:0:
374,182,52769,1,0,0:0:0:0:
299,192,52976,1,8,0:0:0:0:
327,166,53183,1,0,0:0:0:0:
321,161,53390,1,8,0:0:0:0:
327,166,53493,1,0,0:0:0:0:
327,166,53597,1,0,0:0:0:0:
148,199,53804,1,8,0:0:0:0:
185,129,54010,1,0,0:0:0:0:
217,180,54217,1,8,0:0:0:0:
217,180,54321,1,8,0:0:0:0:
217,180,54631,1,8,0:0:0:0:
185,129,54838,1,0,0:0:0:0:
217,180,54942,1,8,0:0:0:0:
206,183,55148,1,0,0:0:0:0:
217,180,55459,1,8,0:0:0:0:
140,194,55666,1,0,0:0:0:0:
279,216,55873,1,8,0:0:0:0:
374,182,56079,1,0,0:0:0:0:
299,192,56286,1,8,0:0:0:0:
327,166,56493,1,0,0:0:0:0:
327,166,56597,1,0,0:0:0:0:
327,166,56700,1,8,0:0:0:0:
148,199,56907,1,0,0:0:0:0:
148,199,57114,1,8,0:0:0:0:
185,129,57321,1,0,0:0:0:0:
217,180,57528,1,8,0:0:0:0:
185,129,57631,1,8,0:0:0:0:
185,129,57942,1,8,0:0:0:0:
217,180,58148,1,0,0:0:0:0:
217,180,58252,1,8,0:0:0:0:
217,180,58459,1,0,0:0:0:0:
217,180,58666,1,0,0:0:0:0:
217,180,58769,1,8,0:0:0:0:
140,194,58976,1,0,0:0:0:0:
279,216,59183,1,8,0:0:0:0:
374,182,59390,1,0,0:0:0:0:
299,192,59597,1,8,0:0:0:0:
327,166,59804,1,0,0:0:0:0:
327,178,59907,1,0,0:0:0:0:
299,192,60010,1,8,0:0:0:0:
327,166,60217,1,0,0:0:0:0:
148,199,60424,1,8,0:0:0:0:
205,157,60631,1,0,0:0:0:0:
205,157,60735,1,0,0:0:0:0:
307,177,60838,1,8,0:0:0:0:
307,177,61045,1,0,0:0:0:0:
222,169,61252,1,8,0:0:0:0:
273,176,61355,1,0,0:0:0:0:
273,176,61459,1,0,0:0:0:0:
64,224,61666,1,8,0:0:0:0:
362,214,61873,1,0,0:0:0:0:
362,214,61976,1,0,0:0:0:0:
64,224,62079,1,8,0:0:0:0:
305,181,62286,1,0,0:0:0:0:
209,209,62493,1,8,0:0:0:0:
209,209,62700,1,8,0:0:0:0:
114,202,62907,1,8,0:0:0:0:
117,195,63114,1,0,0:0:0:0:
117,190,63217,1,0,0:0:0:0:
96,224,63321,1,0,0:0:0:0:
117,195,63528,1,8,0:0:0:0:
117,195,63735,1,8,0:0:0:0:
185,144,63942,1,4,0:0:0:0:
124,165,64562,1,0,0:0:0:0:
272,129,64769,1,8,0:0:0:0:
204,221,65183,1,0,0:0:0:0:
185,144,65597,1,12,0:0:0:0:
185,144,66217,1,4,0:0:0:0:
372,195,66424,1,8,0:0:0:0:
251,134,66838,1,8,0:0:0:0:
185,144,67252,1,4,0:0:0:0:
116,213,67873,1,0,0:0:0:0:
292,177,68079,1,8,0:0:0:0:
141,208,68286,1,0,0:0:0:0:
327,178,68493,1,8,0:0:0:0:
245,177,68907,1,12,0:0:0:0:
88,207,69528,1,0,0:0:0:0:
225,183,69735,1,8,0:0:0:0:
199,183,69942,1,0,0:0:0:0:
156,153,70148,1,8,0:0:0:0:
260,140,70355,1,8,0:0:0:0:
260,140,70459,1,8,0:0:0:0:
289,191,70562,1,0,0:0:0:0:
201,31,70769,1,0,0:0:0:0:
224,129,70976,1,8,0:0:0:0:
235,210,71286,1,0,0:0:0:0:
217,160,71597,1,0,0:0:0:0:
368,165,71804,1,8,0:0:0:0:
289,191,72217,1,0,0:0:0:0:
201,31,72424,1,0,0:0:0:0:
224,129,72631,1,8,0:0:0:0:
235,210,72942,1,8,0:0:0:0:
217,160,73252,1,0,0:0:0:0:
368,165,73459,1,0,0:0:0:0:
368,165,73666,1,8,0:0:0:0:
289,191,73873,1,0,0:0:0:0:
201,31,74079,1,0,0:0:0:0:
224,129,74286,1,8,0:0:0:0:
235,210,74597,1,8,0:0:0:0:
217,160,74907,1,0,0:0:0:0:
368,165,75114,1,8,0:0:0:0:
275,130,75528,1,12,0:0:0:0:
275,130,75838,1,12,0:0:0:0:
240,152,76148,1,12,0:0:0:0:
275,130,76355,1,4,0:0:0:0:
275,130,76666,1,4,0:0:0:0:
296,216,76976,1,4,0:0:0:0:
186,163,77183,1,12,0:0:0:0:
186,163,77390,1,12,0:0:0:0:
186,163,77597,1,4,0:0:0:0:
186,163,77804,1,12,0:0:0:0:
186,163,78010,1,4,0:0:0:0:
186,163,78217,1,0,0:0:0:0:
216,152,78321,1,0,0:0:0:0:
216,152,78424,1,8,0:0:0:0:
109,128,78838,1,0,0:0:0:0:
153,96,79045,1,8,0:0:0:0:
128,109,79148,1,0,0:0:0:0:
153,96,79355,1,0,0:0:0:0:
267,161,79459,1,8,0:0:0:0:
280,161,79562,1,0,0:0:0:0:
267,161,79769,1,0,0:0:0:0:
329,57,79873,1,8,0:0:0:0:
269,153,80079,1,0,0:0:0:0:
241,148,80286,1,8,0:0:0:0:
155,214,80493,1,0,0:0:0:0:
212,181,80700,1,8,0:0:0:0:
209,83,80804,1,0,0:0:0:0:
217,68,80907,1,0,0:0:0:0:
217,68,81114,1,8,0:0:0:0:
208,160,81217,1,0,0:0:0:0:
167,128,81424,1,0,0:0:0:0:
217,68,81528,1,8,0:0:0:0:
167,128,81631,1,8,0:0:0:0:
167,128,81735,1,0,0:0:0:0:
80,184,81942,1,8,0:0:0:0:
109,128,82148,1,0,0:0:0:0:
119,126,82252,1,0,0:0:0:0:
153,96,82355,1,8,0:0:0:0:
153,96,82562,1,0,0:0:0:0:
267,161,82769,1,0,0:0:0:0:
267,161,82873,1,8,0:0:0:0:
329,57,83183,1,8,0:0:0:0:
327,142,83390,1,0,0:0:0:0:
327,142,83493,1,8,0:0:0:0:
327,142,83597,1,0,0:0:0:0:
327,142,83700,1,8,0:0:0:0:
155,214,83804,1,0,0:0:0:0:
212,181,84010,1,8,0:0:0:0:
217,68,84114,1,0,0:0:0:0:
217,68,84321,1,0,0:0:0:0:
280,168,84424,1,8,0:0:0:0:
217,68,84528,1,8,0:0:0:0:
133,137,84735,1,0,0:0:0:0:
167,128,84838,1,8,0:0:0:0:
167,128,85045,1,0,0:0:0:0:
280,264,85148,1,0,0:0:0:0:
280,264,85252,1,0,0:0:0:0:
109,128,85459,1,0,0:0:0:0:
153,96,85666,1,8,0:0:0:0:
153,96,85769,1,0,0:0:0:0:
288,192,85976,1,0,0:0:0:0:
267,161,86079,1,8,0:0:0:0:
267,163,86183,1,0,0:0:0:0:
329,57,86390,1,0,0:0:0:0:
288,160,86493,1,8,0:0:0:0:
327,142,86700,1,0,0:0:0:0:
241,148,86907,1,0,0:0:0:0:
288,160,87010,1,8,0:0:0:0:
155,214,87114,1,0,0:0:0:0:
212,181,87321,1,8,0:0:0:0:
155,214,87424,1,0,0:0:0:0:
296,216,87631,1,0,0:0:0:0:
217,68,87735,1,8,0:0:0:0:
217,68,87838,1,8,0:0:0:0:
167,128,88045,1,0,0:0:0:0:
170,138,88148,1,8,0:0:0:0:
167,128,88252,1,8,0:0:0:0:
167,128,88355,1,0,0:0:0:0:
215,166,88562,1,8,0:0:0:0:
109,128,88769,1,0,0:0:0:0:
172,150,88873,1,0,0:0:0:0:
153,96,88976,1,8,0:0:0:0:
153,96,89079,1,0,0:0:0:0:
153,96,89286,1,0,0:0:0:0:
304,184,89390,1,8,0:0:0:0:
267,161,89493,1,8,0:0:0:0:
329,57,89700,1,0,0:0:0:0:
267,161,89804,1,8,0:0:0:0:
327,142,90010,1,0,0:0:0:0:
88,216,90114,1,8,0:0:0:0:
144,208,90217,1,0,0:0:0:0:
88,216,90321,1,8,0:0:0:0:
155,214,90424,1,0,0:0:0:0:
212,181,90631,1,8,0:0:0:0:
217,68,90838,1,0,0:0:0:0:
217,68,91045,1,8,0:0:0:0:
217,68,91148,1,0,0:0:0:0:
217,68,91355,1,0,0:0:0:0:
167,128,91459,1,8,0:0:0:0:
167,128,91666,1,8,0:0:0:0:
167,128,91769,1,0,0:0:0:0:
167,128,91873,1,8,0:0:0:0:
201,211,91976,1,0,0:0:0:0:
191,207,92079,1,4,0:0:0:0:
65,140,92286,1,8,0:0:0:0:
279,159,92493,1,0,0:0:0:0:
289,161,92700,1,8,0:0:0:0:
289,161,92804,1,8,0:0:0:0:
300,291,93114,1,8,0:0:0:0:
309,170,93321,1,0,0:0:0:0:
184,224,93528,1,8,0:0:0:0:
166,223,93631,1,8,0:0:0:0:
191,207,93735,1,0,0:0:0:0:
65,140,93942,1,8,0:0:0:0:
279,159,94148,1,0,0:0:0:0:
289,161,94355,1,8,0:0:0:0:
279,159,94459,1,0,0:0:0:0:
300,291,94769,1,8,0:0:0:0:
309,170,94976,1,0,0:0:0:0:
309,170,95079,1,0,0:0:0:0:
172,153,95183,1,8,0:0:0:0:
191,207,95390,1,0,0:0:0:0:
65,140,95597,1,8,0:0:0:0:
279,159,95804,1,0,0:0:0:0:
289,161,96010,1,8,0:0:0:0:
289,161,96114,1,8,0:0:0:0:
300,291,96424,1,8,0:0:0:0:
309,170,96631,1,0,0:0:0:0:
216,232,96838,1,8,0:0:0:0:
216,232,96942,1,8,0:0:0:0:
191,207,97045,1,0,0:0:0:0:
65,140,97252,1,8,0:0:0:0:
279,159,97459,1,0,0:0:0:0:
289,161,97666,1,8,0:0:0:0:
289,161,97769,1,0,0:0:0:0:
300,291,98079,1,8,0:0:0:0:
172,153,98183,1,0,0:0:0:0:
309,170,98286,1,0,0:0:0:0:
172,153,98390,1,0,0:0:0:0:
172,153,98493,1,8,0:0:0:0:
191,207,98700,1,0,0:0:0:0:
65,140,98907,1,8,0:0:0:0:
279,159,99114,1,0,0:0:0:0:
65,140,99321,1,8,0:0:0:0:
289,161,99424,1,8,0:0:0:0:
300,291,99735,1,8,0:0:0:0:
309,170,99942,1,0,0:0:0:0:
304,224,100148,1,8,0:0:0:0:
304,224,100252,1,8,0:0:0:0:
191,207,100355,1,0,0:0:0:0:
65,140,100562,1,8,0:0:0:0:
279,159,100769,1,0,0:0:0:0:
289,161,100976,1,8,0:0:0:0:
279,159,101079,1,0,0:0:0:0:
300,291,101390,1,8,0:0:0:0:
309,170,101597,1,0,0:0:0:0:
309,170,101700,1,0,0:0:0:0:
172,153,101804,1,8,0:0:0:0:
191,207,102010,1,0,0:0:0:0:
65,140,102217,1,8,0:0:0:0:
279,159,102424,1,0,0:0:0:0:
289,161,102631,1,8,0:0:0:0:
289,161,102735,1,8,0:0:0:0:
300,291,103045,1,8,0:0:0:0:
309,170,103252,1,0,0:0:0:0:
272,272,103459,1,8,0:0:0:0:
272,272,103562,1,8,0:0:0:0:
191,207,103666,1,0,0:0:0:0:
65,140,103873,1,8,0:0:0:0:
279,159,104079,1,0,0:0:0:0:
279,159,104286,1,8,0:0:0:0:
289,161,104390,1,8,0:0:0:0:
300,291,104700,1,8,0:0:0:0:
299,282,104804,1,0,0:0:0:0:
309,170,104907,1,8,0:0:0:0:
299,282,105010,1,0,0:0:0:0:
172,153,105114,1,8,0:0:0:0:
315,277,105217,1,8,0:0:0:0:
