osu file format v14

[General]
AudioFilename: Poupee de souhaits.mp3
AudioLeadIn: 0
PreviewTime: 78739
Countdown: 0
SampleSet: Normal
StackLeniency: 0.7
Mode: 1
LetterboxInBreaks: 0
WidescreenStoryboard: 0

[Editor]
Bookmarks: 17601,30842,44083,50704,63946,78842,92083
DistanceSpacing: 0.6
BeatDivisor: 4
GridSize: 8
TimelineZoom: 1.8

[Metadata]
Title:Towa naru Kizuna to Omoi no Kiseki
TitleUnicode:永遠なる絆と想いのキセキ
Artist:nao
ArtistUnicode:nao
Creator:milr_
Version:Kantan
Source:恋する少女と想いのキセキ~Poupee de souhaits~
Tags:Koi Suru Doll TKS TKSalt 404 AccNotFound
BeatmapID:1292102
BeatmapSetID:283049

[Difficulty]
HPDrainRate:4
CircleSize:2
OverallDifficulty:4
ApproachRate:10
SliderMultiplier:1.2
SliderTickRate:1

[Events]
//Background and Video events
0,0,"BG.jpg",0,0
//Break Periods
//Storyboard Layer 0 (Background)
//Storyboard Layer 1 (Fail)
//Storyboard Layer 2 (Pass)
//Storyboard Layer 3 (Foreground)
//Storyboard Sound Samples

[TimingPoints]
1120,352.941176470588,5,1,0,50,1,0
6414,352.941176470588,6,1,0,50,1,0
8531,352.941176470588,5,1,0,50,1,0
13825,352.941176470588,6,1,0,50,1,0
15942,206.896551724138,4,1,0,80,1,0
15942,-153.846153846154,4,1,0,80,0,0
78838,-153.846153846154,4,1,0,80,0,1
92079,-153.846153846154,4,1,0,80,0,0

[HitObjects]
166,184,2884,5,0,0:0:0:0:
250,159,3943,1,8,0:0:0:0:
250,159,4649,1,0,0:0:0:0:
250,159,5708,1,8,0:0:0:0:
250,159,6414,1,0,0:0:0:0:
250,159,7473,1,8,0:0:0:0:
371,183,8178,1,8,0:0:0:0:
250,159,8531,1,0,0:0:0:0:
250,159,9590,1,8,0:0:0:0:
250,159,10296,1,0,0:0:0:0:
250,159,11355,1,8,0:0:0:0:
250,159,12061,1,0,0:0:0:0:
250,159,13120,1,8,0:0:0:0:
250,159,13825,1,0,0:0:0:0:
250,159,14884,1,8,0:0:0:0:
171,195,15942,1,0,0:0:0:0:
266,171,16355,1,8,0:0:0:0:
266,171,16782,1,0,0:0:0:0:
266,171,17183,1,8,0:0:0:0:
266,171,17597,1,4,0:0:0:0:
234,152,18217,1,8,0:0:0:0:
234,152,18631,1,8,0:0:0:0:
266,171,19252,1,0,0:0:0:0:
266,171,19873,1,8,0:0:0:0:
234,152,20286,1,8,0:0:0:0:
234,152,20700,1,8,0:0:0:0:
266,171,20907,1,0,0:0:0:0:
266,171,21528,1,8,0:0:0:0:
234,152,21942,1,8,0:0:0:0:
266,171,22562,1,0,0:0:0:0:
266,171,23183,1,8,0:0:0:0:
234,152,23597,1,8,0:0:0:0:
196,163,24010,1,8,0:0:0:0:
266,171,24217,1,4,0:0:0:0:
266,171,24838,1,8,0:0:0:0:
234,152,25252,1,8,0:0:0:0:
266,171,25872,1,0,0:0:0:0:
266,171,26493,1,8,0:0:0:0:
234,152,26907,1,8,0:0:0:0:
234,152,27321,1,8,0:0:0:0:
266,171,27527,1,0,0:0:0:0:
266,171,28148,1,8,0:0:0:0:
234,152,28562,1,8,0:0:0:0:
266,171,29182,1,0,0:0:0:0:
266,171,29804,1,8,0:0:0:0:
234,152,30217,1,8,0:0:0:0:
196,163,30631,1,8,0:0:0:0:
266,171,30838,1,0,0:0:0:0:
234,152,31459,1,8,0:0:0:0:
266,171,31666,1,0,0:0:0:0:
266,171,32286,1,8,0:0:0:0:
266,171,32493,1,0,0:0:0:0:
266,171,32906,1,0,0:0:0:0:
234,152,33320,1,0,0:0:0:0:
234,152,33735,1,0,0:0:0:0:
266,171,34148,1,0,0:0:0:0:
234,152,34769,1,8,0:0:0:0:
266,171,34976,1,0,0:0:0:0:
234,152,35597,1,8,0:0:0:0:
266,171,35803,1,0,0:0:0:0:
266,171,36216,1,0,0:0:0:0:
234,152,36630,1,8,0:0:0:0:
266,171,37045,1,0,0:0:0:0:
266,171,37252,1,8,0:0:0:0:
266,171,37459,1,0,0:0:0:0:
234,152,38079,1,8,0:0:0:0:
266,171,38287,1,0,0:0:0:0:
266,171,38907,1,8,0:0:0:0:
266,171,39114,1,0,0:0:0:0:
266,171,39528,1,0,0:0:0:0:
266,171,39942,1,8,0:0:0:0:
270,180,40355,1,8,0:0:0:0:
266,171,40769,1,0,0:0:0:0:
266,171,41183,1,0,0:0:0:0:
268,170,41390,1,8,0:0:0:0:
266,171,41597,1,0,0:0:0:0:
266,171,42010,1,0,0:0:0:0:
266,171,42217,1,8,0:0:0:0:
266,171,42424,1,0,0:0:0:0:
266,171,42838,1,8,0:0:0:0:
234,152,43251,1,8,0:0:0:0:
234,152,43873,1,8,0:0:0:0:
266,171,44079,1,4,0:0:0:0:
266,171,44700,1,8,0:0:0:0:
234,152,45114,1,8,0:0:0:0:
266,171,45734,1,0,0:0:0:0:
266,171,46355,1,8,0:0:0:0:
234,152,46769,1,8,0:0:0:0:
234,152,47183,1,8,0:0:0:0:
266,171,47389,1,0,0:0:0:0:
266,171,48010,1,8,0:0:0:0:
234,152,48424,1,8,0:0:0:0:
266,171,49044,1,0,0:0:0:0:
266,171,49666,1,8,0:0:0:0:
234,152,50080,1,8,0:0:0:0:
196,163,50493,1,8,0:0:0:0:
266,171,50700,1,0,0:0:0:0:
234,152,51321,1,8,0:0:0:0:
266,171,51528,1,0,0:0:0:0:
266,171,52148,1,8,0:0:0:0:
266,171,52355,1,0,0:0:0:0:
266,171,52768,1,0,0:0:0:0:
234,152,53182,1,0,0:0:0:0:
234,152,53597,1,0,0:0:0:0:
266,171,54010,1,0,0:0:0:0:
234,152,54631,1,8,0:0:0:0:
266,171,54838,1,0,0:0:0:0:
234,152,55459,1,8,0:0:0:0:
266,171,55665,1,0,0:0:0:0:
266,171,56079,1,0,0:0:0:0:
234,152,56493,1,8,0:0:0:0:
234,152,56907,1,0,0:0:0:0:
249,151,57114,1,8,0:0:0:0:
266,171,57321,1,0,0:0:0:0:
234,152,57942,1,8,0:0:0:0:
266,171,58149,1,0,0:0:0:0:
266,171,58769,1,8,0:0:0:0:
266,171,58976,1,0,0:0:0:0:
266,171,59389,1,0,0:0:0:0:
234,152,59803,1,0,0:0:0:0:
234,152,60217,1,0,0:0:0:0:
266,171,60631,1,0,0:0:0:0:
234,152,61045,1,0,0:0:0:0:
234,152,61252,1,8,0:0:0:0:
266,171,61459,1,0,0:0:0:0:
234,152,61873,1,0,0:0:0:0:
234,152,62079,1,8,0:0:0:0:
266,171,62286,1,0,0:0:0:0:
266,171,62699,1,0,0:0:0:0:
234,152,63113,1,8,0:0:0:0:
281,172,63528,1,8,0:0:0:0:
252,137,63942,1,4,0:0:0:0:
348,191,64769,1,8,0:0:0:0:
138,164,65183,1,0,0:0:0:0:
252,137,65597,1,12,0:0:0:0:
348,191,66424,1,8,0:0:0:0:
138,164,66838,1,0,0:0:0:0:
252,137,67252,1,4,0:0:0:0:
348,191,68079,1,8,0:0:0:0:
138,164,68493,1,0,0:0:0:0:
252,137,68907,1,12,0:0:0:0:
348,191,69735,1,8,0:0:0:0:
138,164,70148,1,8,0:0:0:0:
231,129,70562,1,0,0:0:0:0:
231,129,70976,1,8,0:0:0:0:
231,129,71804,1,8,0:0:0:0:
231,129,72217,1,0,0:0:0:0:
231,129,72631,1,8,0:0:0:0:
231,129,73459,1,8,0:0:0:0:
231,129,73873,1,0,0:0:0:0:
231,129,74287,1,8,0:0:0:0:
231,129,74700,1,0,0:0:0:0:
231,129,75114,1,8,0:0:0:0:
245,210,75528,1,4,0:0:0:0:
245,210,76355,1,12,0:0:0:0:
245,210,77183,1,4,0:0:0:0:
245,210,77597,1,12,0:0:0:0:
245,210,78010,1,4,0:0:0:0:
172,157,78838,1,0,0:0:0:0:
268,142,79252,1,0,0:0:0:0:
268,142,79459,1,8,0:0:0:0:
118,123,79873,1,8,0:0:0:0:
172,157,80493,1,0,0:0:0:0:
268,142,80907,1,0,0:0:0:0:
268,142,81114,1,8,0:0:0:0:
268,142,81735,1,0,0:0:0:0:
172,157,82148,1,0,0:0:0:0:
268,142,82562,1,0,0:0:0:0:
268,142,82769,1,8,0:0:0:0:
268,142,83183,1,8,0:0:0:0:
172,157,83803,1,0,0:0:0:0:
268,142,84217,1,0,0:0:0:0:
268,142,84424,1,8,0:0:0:0:
268,142,84838,1,8,0:0:0:0:
268,142,85252,1,8,0:0:0:0:
172,157,85459,1,0,0:0:0:0:
268,142,85873,1,0,0:0:0:0:
268,142,86079,1,8,0:0:0:0:
268,142,86493,1,8,0:0:0:0:
172,157,87114,1,0,0:0:0:0:
221,146,87528,1,0,0:0:0:0:
268,142,87735,1,8,0:0:0:0:
268,142,88355,1,0,0:0:0:0:
172,157,88769,1,0,0:0:0:0:
172,157,89183,1,0,0:0:0:0:
268,142,89390,1,8,0:0:0:0:
268,142,89804,1,8,0:0:0:0:
172,157,90424,1,0,0:0:0:0:
268,142,90838,1,0,0:0:0:0:
268,142,91252,1,8,0:0:0:0:
266,171,92079,1,4,0:0:0:0:
266,171,92700,1,8,0:0:0:0:
234,152,93114,1,8,0:0:0:0:
266,171,93734,1,0,0:0:0:0:
266,171,94355,1,8,0:0:0:0:
234,152,94769,1,8,0:0:0:0:
266,171,95183,1,8,0:0:0:0:
266,171,95389,1,0,0:0:0:0:
266,171,96010,1,8,0:0:0:0:
266,171,96424,1,8,0:0:0:0:
266,171,97044,1,0,0:0:0:0:
266,171,97666,1,8,0:0:0:0:
234,152,98080,1,8,0:0:0:0:
196,163,98493,1,8,0:0:0:0:
266,171,98700,1,4,0:0:0:0:
234,152,99321,1,8,0:0:0:0:
266,171,99735,1,8,0:0:0:0:
266,171,100355,1,0,0:0:0:0:
266,171,100976,1,8,0:0:0:0:
234,152,101390,1,8,0:0:0:0:
266,171,101804,1,8,0:0:0:0:
266,171,102010,1,0,0:0:0:0:
266,171,102631,1,8,0:0:0:0:
234,152,103045,1,8,0:0:0:0:
266,171,103665,1,0,0:0:0:0:
266,171,104286,1,8,0:0:0:0:
234,152,104700,1,8,0:0:0:0:
196,163,105115,1,8,0:0:0:0:
